#TITLE:Worker Bees;
#SUBTITLE:;
#ARTIST:Billy Talent;
#TITLETRANSLIT:;
#SUBTITLETRANSLIT:;
#ARTISTTRANSLIT:;
#GENRE:;
#CREDIT:;
#BANNER:workerbees_bn.png;
#BACKGROUND:workerbees_bg.png;
#LYRICSPATH:;
#CDTITLE:cdtitle.png;
#MUSIC:workerbees.ogg;
#OFFSET:0.000000;
#SAMPLESTART:43.243244;
#SAMPLELENGTH:16.756756;
#SELECTABLE:YES;
#BPMS:0.000000=111.000000
;
#STOPS:
;
#BGCHANGES:;
#KEYSOUNDS:;
#ATTACKS:;

//---------------dance-single - ----------------
#NOTES:
     dance-single:
     :
     Hard:
     9:
     0.648705,0.680043,0.358302,0.160870,0.530141,621.000000,572.000000,49.000000,22.000000,0.000000,0.000000,0.648705,0.680043,0.358302,0.160870,0.530141,621.000000,572.000000,49.000000,22.000000,0.000000,0.000000:
0000
0000
0000
0000
,
0000
0000
0000
0000
,
1001
0000
0001
0100
0001
0000
0100
0000
0010
0000
1000
0100
1000
0000
0010
0000
,
0100
0000
0001
0010
0001
0000
0100
0000
0010
0000
1000
0010
1000
0000
0100
0000
,
0020
0000
0001
0000
0230
0000
1000
0300
,
2200
3300
0220
0330
0022
0033
0011
1000
,
0020
0000
1000
0000
0230
0000
0001
0300
,
0202
0000
0303
0000
0220
0000
0330
0000
2020
0000
3030
0000
1010
0000
0010
1000
,
0020
0100
2030
0100
,
3001
0000
0001
0100
0001
0000
1000
0000
0100
0000
1000
0100
1000
0000
0001
0000
,
0020
0100
0032
0100
,
1003
0000
1000
0010
1000
0000
0100
0000
0010
0000
0001
0010
0001
1000
0001
1000
,
0001
0100
0010
1000
0001
0000
1000
0000
0001
0100
0010
1000
0001
0000
1000
0000
,
0001
0100
0010
1000
0001
0000
1000
0000
0001
0100
0010
1000
0001
0000
1000
0000
,
1000
0100
0010
0001
1000
0000
0001
0000
1000
0100
0010
0001
1000
0000
0001
0000
,
1000
0100
0010
0001
1000
0000
0001
0000
1000
0100
0010
0001
1000
0100
0010
0001
,
0100
0010
1000
0001
0100
0000
0010
0000
1000
0100
0010
0001
1000
0000
0010
0000
,
0100
0001
1000
0010
0100
0000
0001
0000
0010
0100
1000
0001
0010
0000
0001
0000
,
1000
0010
0100
0001
1000
0000
0100
0000
0010
0001
1000
0100
0010
0000
0100
0000
,
1000
0010
0100
0001
1000
0000
0010
0000
1000
0100
0010
0001
1000
0010
0100
0001
,
1000
0010
1000
0000
0001
0010
0001
0000
1000
0100
1000
0000
0001
0100
0001
0000
,
1000
0100
0010
0100
1000
0000
0010
0100
0010
0000
1000
0001
1000
0100
0010
0001
,
1000
0100
1000
0000
0001
0100
0001
0000
1000
0010
1000
0000
0001
0010
0001
0000
,
0001
0100
0010
0100
0001
0000
0010
0100
0010
0000
0001
1000
0001
0100
0010
1000
,
0001
0010
0100
0000
1000
0010
0100
0000
0001
0010
0100
0000
1000
0010
0100
0000
,
0001
1000
0100
1000
0001
0000
1000
0010
0100
0000
0001
0010
0100
1000
0010
0100
,
0001
0001
0100
0100
0010
0010
1000
1000
,
0100
0000
0100
0000
0100
0000
0100
0000
0100
0000
0100
0010
0001
1000
0100
0010
,
0001
0000
0001
0000
0101
0000
0001
0100
0001
0000
0100
0000
0101
0000
0001
0000
,
0101
0100
0101
0001
0101
0100
0010
1000
,
1100
0000
0100
0000
1100
0000
1000
0100
1000
0000
0100
0000
1100
0000
1000
0000
,
1100
0100
1100
1000
1100
0100
0010
0001
,
0011
0000
0010
0000
0011
0000
0001
0010
0001
0000
0010
0000
0011
0000
0001
0000
,
0011
0010
0011
0001
0011
0010
0001
1000
,
0010
0001
0010
0100
0001
0010
0100
0001
,
0100
0000
1000
0000
0001
0000
0010
0000
0001
0000
1000
0001
1000
0010
0100
0001
,
1000
0100
0001
0100
0010
0001
0100
1000
,
0100
0000
0010
0000
0100
0000
0001
0000
1000
0000
0001
1000
0001
0010
0100
1000
,
0001
0100
0001
0100
0001
0000
1000
0000
0100
1000
0100
1000
0100
0000
0010
0000
,
0001
0100
0001
0100
0001
1000
0001
1000
0100
1000
0100
1000
0100
0000
0010
0000
,
0001
0010
0001
0010
0001
0000
1000
0000
0010
1000
0010
1000
0010
0000
0100
0000
,
0001
0010
0001
0010
0001
0010
0001
0010
0001
1000
0001
1000
0010
1000
0010
1000
,
0010
0100
0010
0100
0010
0000
1000
0000
0100
0010
0100
0010
0100
0000
1000
0000
,
0010
0100
0010
0100
0010
1000
0010
1000
0100
0010
0100
0010
0100
0000
1000
0000
,
0010
0100
0010
0100
0001
0100
0001
0100
0001
0010
0100
0010
0100
0010
0100
0010
,
0100
0000
0100
0000
1000
0000
1000
0000
0001
0000
0001
1000
0010
0100
0001
1000
,
0100
0000
1000
0000
1100
0000
1000
0100
1000
0000
0100
0000
1100
0000
1000
0000
,
1100
0100
1100
1000
1100
0100
0010
0001
,
0101
0000
0100
0000
0101
0000
0001
0100
0001
0000
0100
0000
0101
0000
0001
0000
,
0101
0100
0101
0001
0101
0100
0010
1000
,
1010
0000
0010
0000
1010
0000
1000
0010
1000
0000
0010
0000
1010
0000
1000
0000
,
1010
0010
1010
1000
1010
0010
1000
0001
,
0010
1000
0010
0100
1000
0010
0100
1000
,
0100
0000
0001
0000
1000
0000
0010
0000
1000
0000
0001
1000
0001
0010
0100
1000
,
0001
0100
1000
0100
0010
1000
0100
0001
,
0100
0000
0010
0000
0001
0000
1000
0000
0010
0000
0100
0010
0100
0001
1000
0010
,
0100
0010
0110
0010
1010
1000
1100
0100
,
0110
0000
0010
0100
1000
0001
0010
0000
0011
0000
0001
0100
0010
1000
0001
0000
,
2020
0000
0000
0000
,
0000
0000
0000
0000
,
3030
0000
0000
0000
;

//---------------dance-single - ----------------
#NOTES:
     dance-single:
     :
     Medium:
     7:
     0.371882,0.504548,0.168183,0.402176,0.065811,356.000000,333.000000,23.000000,55.000000,0.000000,0.000000,0.371882,0.504548,0.168183,0.402176,0.065811,356.000000,333.000000,23.000000,55.000000,0.000000,0.000000:
0000
0000
0000
0000
,
0000
0000
0000
0000
,
1000
0100
1000
0010
1000
0100
1000
0010
,
0100
0001
0010
0001
0100
0001
0010
0001
,
2000
0010
3002
0100
,
2003
0000
3200
0000
0302
0000
0103
1000
,
0002
0100
2003
0010
,
3002
0000
0000
0000
0203
0000
0000
0000
2300
0000
0000
0000
3100
0000
0001
0100
,
0002
0000
0000
0000
0023
0000
0000
0030
,
0011
0000
0110
0000
2200
0000
0000
3300
,
2000
0000
0000
0000
3020
0000
0000
0030
,
1010
0000
0110
0000
0202
0000
0000
0303
,
0001
0100
0010
0100
0001
1000
0100
0010
,
0200
0320
0032
0000
,
1003
0010
0100
0010
1000
0100
0010
0100
,
0020
0000
0032
0000
2003
0000
0010
3010
,
0100
0001
0010
0100
0001
0100
0010
0001
,
0200
0320
0032
0000
,
0013
1000
0100
0010
0100
0001
0100
1000
,
0020
0000
0032
0000
0023
0000
0030
1010
,
1000
0010
1000
0000
0001
1000
0001
0000
1000
0100
1000
0000
0001
1000
0001
0000
,
0100
0000
0010
0000
1000
0000
0100
0000
0010
0000
0100
0000
0010
0001
0010
0000
,
0001
0010
0001
0000
1000
0001
1000
0000
0001
0100
0001
0000
1000
0001
1000
0000
,
0010
0000
1000
0000
0100
0000
1000
0000
0001
0000
0100
0000
0001
1000
0001
0000
,
1000
0010
1000
0000
0001
1000
0001
0000
0100
0001
0100
0000
0001
1000
0001
0000
,
0010
0100
1000
0001
0100
0010
1000
0001
,
0010
0000
0001
0020
0000
0230
0000
0020
,
0000
0000
0000
0000
0330
0010
0001
0200
,
0001
0000
0301
0100
0000
0100
0010
0000
,
2010
0000
3001
1000
0000
1000
0100
0020
,
0100
0000
0130
0010
0000
0001
0100
0000
,
0102
0000
1003
0001
0000
1000
0010
0200
,
0010
0000
0310
0100
0000
0001
1000
0000
,
2010
0000
3001
1000
0000
0000
1000
0100
,
0010
0000
0010
0100
0000
0110
0000
2002
,
0000
0000
0000
3003
0000
0000
0001
0100
,
0010
0000
0100
0001
0000
0110
0000
2002
,
0000
0000
0000
0000
0000
0000
0000
3003
,
1000
0100
1000
0100
0010
0001
0010
0001
,
1000
0100
1000
0001
0010
0001
1000
0001
,
1000
0010
1000
0010
0100
0001
0100
0001
,
1000
0000
0010
0000
1000
0000
0001
0000
0010
0000
0001
0000
1000
0000
0001
1000
,
0001
0100
0001
0100
1000
0100
1000
0100
,
0001
0100
0001
1000
0100
1000
0100
1000
,
0010
1000
0010
0001
0010
1000
0010
0100
,
0001
0001
1000
1000
0001
0001
1000
0200
,
1000
0000
1300
0100
0000
0100
0010
0000
,
0012
0000
1003
0001
0000
0001
0100
0020
,
0100
0000
0130
0010
0000
1000
0100
0000
,
2100
0000
3001
1000
0000
0001
0010
0200
,
0010
0000
0310
0100
0000
1000
0001
0000
,
0012
0000
1003
0001
0000
0000
0001
0100
,
0010
0000
0010
0100
0000
0110
0000
2002
,
0000
0000
0000
3003
0000
0000
1000
0100
,
0010
0000
0100
1000
0000
0110
0000
2002
,
0000
0000
0000
0000
3003
0000
1000
0010
,
0100
0000
0100
0010
0000
0110
0000
1000
,
0001
0000
0100
0001
0100
0000
0010
0000
1000
0000
0100
1000
0100
0000
0010
0000
,
0220
0000
0000
0000
,
0000
0000
0000
0000
,
0330
0000
0000
0000
;

//---------------dance-single - ----------------
#NOTES:
     dance-single:
     :
     Easy:
     3:
     0.252796,0.307116,0.212057,0.153558,0.000000,242.000000,213.000000,29.000000,21.000000,0.000000,0.000000,0.252796,0.307116,0.212057,0.153558,0.000000,242.000000,213.000000,29.000000,21.000000,0.000000,0.000000:
// measure 0
0000
0000
0000
0000
,  // measure 1
0000
0000
0000
0000
,  // measure 2
0001
1000
0001
1000
,  // measure 3
0001
1000
0001
1000
,  // measure 4
0020
0030
0200
0300
,  // measure 5
0010
0100
0110
0000
,  // measure 6
0002
0003
2000
3000
,  // measure 7
0001
1000
1001
0000
,  // measure 8
2000
3000
0002
0003
,  // measure 9
1000
0001
1001
0000
,  // measure 10
0020
0030
0200
0300
,  // measure 11
0010
0100
0110
0000
,  // measure 12
0001
0100
0001
0100
,  // measure 13
0010
1000
0001
1000
,  // measure 14
0100
1000
0100
1000
,  // measure 15
0100
0000
0010
0000
0001
0000
1000
0001
,  // measure 16
0010
0001
0010
0001
,  // measure 17
1000
0010
0100
0001
,  // measure 18
0010
0100
0010
0100
,  // measure 19
0010
0001
1000
0000
,  // measure 20
1001
1001
1001
1001
,  // measure 21
0001
0100
0010
0100
,  // measure 22
0110
0110
0110
0110
,  // measure 23
0100
0001
1000
0001
,  // measure 24
1001
1001
1001
1001
,  // measure 25
1000
0100
0010
0100
,  // measure 26
0010
0000
0001
0000
0100
0010
0100
0000
,  // measure 27
0020
0000
0000
1030
,  // measure 28
1000
1100
0100
0010
,  // measure 29
0001
0100
0010
0100
,  // measure 30
0001
0101
0001
0100
,  // measure 31
0010
1000
0100
0010
,  // measure 32
0100
0110
0010
0001
,  // measure 33
1000
0010
0100
0010
,  // measure 34
0100
0100
0010
0010
,  // measure 35
0200
0000
0010
0000
0310
0000
0010
0100
,  // measure 36
0010
1000
0001
1000
,  // measure 37
0002
0000
1000
0000
1003
0000
1000
0001
,  // measure 38
0010
0010
0100
0100
,  // measure 39
0010
0100
0010
0010
,  // measure 40
0001
0001
1000
1000
,  // measure 41
0001
0000
0001
0000
1000
0000
0001
0100
,  // measure 42
0010
0010
0100
0100
,  // measure 43
0010
0100
0010
0010
,  // measure 44
1000
0001
0010
0010
,  // measure 45
0220
0000
0330
0001
,  // measure 46
0001
0101
0100
0010
,  // measure 47
1000
0100
0010
0100
,  // measure 48
1000
1100
1000
0100
,  // measure 49
0010
0001
0100
0010
,  // measure 50
0100
0110
0010
1000
,  // measure 51
0001
0010
0100
0010
,  // measure 52
0100
0100
0010
0010
,  // measure 53
0200
0000
0010
0000
0310
0000
0010
0100
,  // measure 54
0010
0001
1000
0001
,  // measure 55
2000
0000
0001
0000
3001
0000
0001
1000
,  // measure 56
0001
1001
0101
1001
,  // measure 57
2200
3300
0022
0033
,  // measure 58
2002
0000
0000
0000
,  // measure 59
0000
0000
0000
0000
,  // measure 60
3003
0000
0000
0000
;
