#VERSION:0.83;
#TITLE:The Revenge of Mister Foxsky;
#SUBTITLE:;
#ARTIST:Foxsky;
#TITLETRANSLIT:;
#SUBTITLETRANSLIT:;
#ARTISTTRANSLIT:;
#GENRE:Glitch Hop;
#ORIGIN:;
#CREDIT:;
#BANNER:[Round D] - The Revenge of Mister Foxsky.png;
#BACKGROUND:[Round D] - The Revenge of Mister Foxsky-bg.png;
#PREVIEWVID:;
#JACKET:;
#CDIMAGE:;
#DISCIMAGE:;
#LYRICSPATH:;
#CDTITLE:;
#MUSIC:[Round D] - The Revenge of Mister Foxsky.ogg;
#OFFSET:-0.054809;
#SAMPLESTART:19.691174;
#SAMPLELENGTH:17.454544;
#SELECTABLE:YES;
#BPMS:0.000=110.000;
#STOPS:;
#DELAYS:;
#WARPS:;
#TIMESIGNATURES:0.000=4=4;
#TICKCOUNTS:0.000=4;
#COMBOS:0.000=1;
#SPEEDS:0.000=1.000=0.000=0;
#SCROLLS:0.000=1.000;
#FAKES:;
#LABELS:0.000=Song Start;
#BGCHANGES:;
#KEYSOUNDS:;
#ATTACKS:
;

//---------------dance-single - ----------------
#NOTEDATA:;
#CHARTNAME:;
#STEPSTYPE:dance-single;
#DESCRIPTION:;
#CHARTSTYLE:;
#DIFFICULTY:Hard;
#METER:7;
#RADARVALUES:0.472177,0.428179,0.180286,0.142726,0.000000,440.000000,416.000000,24.000000,19.000000,0.000000,0.000000,0.000000,0.000000,0.000000,0.472177,0.428179,0.180286,0.142726,0.000000,440.000000,416.000000,24.000000,19.000000,0.000000,0.000000,0.000000,0.000000,0.000000;
#CREDIT:;
#NOTES:
0000
0000
0000
0000
,
0000
0000
0000
0000
,
0000
0000
0000
0000
,
1000
0001
0100
0010
0100
0001
0010
0100
,
1000
0001
0100
0010
0100
0001
2000
0000
,
3001
1000
0010
1000
0001
0010
0100
1000
,
1000
0100
0010
0100
1000
0001
0100
0010
,
0010
0100
0001
0001
1000
0100
0001
0100
,
1000
1000
0001
0100
0010
0100
1010
0000
,
0110
0000
0010
1000
1001
0000
1000
0100
,
0110
0000
0100
1000
0001
0100
1000
0100
,
0110
0000
2000
3200
0302
0003
0002
0023
,
2030
3000
0010
1000
0001
0010
1000
0010
,
0001
1000
0010
0100
0001
0010
0100
0010
,
0001
0100
0001
0100
0010
0100
1000
0100
,
0110
0000
0100
0001
1001
0000
0001
0010
,
0110
0000
0010
0001
1000
0010
0001
0010
,
1000
0100
1000
0010
1000
0100
1000
0010
,
1000
0100
1000
0010
1000
0100
1000
0010
,
1000
0100
0010
0001
0100
0001
0010
0100
,
1000
0010
0100
0001
0010
1000
0010
0001
,
1000
0100
0010
0100
0001
0100
0010
0001
,
0100
0001
0010
0100
1000
0001
1000
1001
,
0001
0100
0010
0100
1000
0100
0010
1000
,
0100
1000
0010
0100
0001
0010
0100
0110
,
0010
0001
0100
0100
0100
0001
0010
0000
,
0100
1000
0010
0010
1000
0100
0010
0120
,
0130
1000
0010
0010
0010
1000
0200
1000
,
0310
0100
1000
0010
0001
0100
1000
0000
,
0001
0000
0100
0000
1000
0000
1000
0100
,
0001
1000
0010
1000
0001
1000
0010
0100
,
0110
0000
0110
0000
0110
0000
0110
0100
,
0101
0000
1010
0000
0101
0001
0010
0100
,
1000
0010
0001
2000
3001
0010
1000
0200
,
1300
0010
0001
2000
3001
0010
1000
0001
,
1000
0100
0001
2000
3001
0100
1000
0020
,
1030
0100
0001
2000
3001
0100
1000
0001
,
0200
0000
0000
0000
,
1300
0100
0001
0010
1000
0100
0001
0000
,
1000
0100
0011
0100
0010
0001
1000
0000
,
0001
0100
1010
0100
0010
1000
0001
0010
,
0100
1000
0110
1000
0100
0010
0001
0100
,
0010
0100
0001
0010
0100
1000
0010
0100
,
0001
0010
1100
0010
0100
1000
0001
0000
,
1000
0010
0101
0010
0100
0001
1000
0100
,
0010
0001
0110
0001
0010
0100
1000
0010
,
0100
0010
1000
0100
0001
1000
0010
0001
,
1000
0010
1000
0100
1000
0010
1000
0100
,
1000
0010
1000
0100
1000
0010
1000
0100
,
1000
0010
0100
0001
0010
0001
0100
0010
,
1000
0100
0010
0001
1000
0010
0100
0001
,
1000
0001
0010
0100
0010
0001
0100
0010
,
1000
0001
0010
0100
0010
0001
2000
0000
,
3001
1000
0010
0100
0010
1000
0100
0010
,
0001
1000
0010
1000
0100
0010
0100
1000
,
0001
0010
0100
0010
1000
0010
0100
1000
,
0010
1000
0100
0010
0001
1000
0010
1000
,
0001
0010
0100
0010
1000
0010
0100
1000
,
0010
1000
0001
0010
1000
0100
0002
0000
,
2000
0000
0000
0000
,
3003
0000
0000
0000
;

//---------------dance-single - ----------------
#NOTEDATA:;
#CHARTNAME:;
#STEPSTYPE:dance-single;
#DESCRIPTION:;
#CHARTSTYLE:;
#DIFFICULTY:Challenge;
#METER:10;
#RADARVALUES:0.737240,0.878893,0.330524,0.232869,0.954012,687.000000,643.000000,44.000000,31.000000,0.000000,0.000000,0.000000,0.000000,0.000000,0.737240,0.878893,0.330524,0.232869,0.954012,687.000000,643.000000,44.000000,31.000000,0.000000,0.000000,0.000000,0.000000,0.000000;
#CREDIT:;
#NOTES:
0000
0000
0000
0000
,
0000
0000
0000
0000
,
0000
0000
0000
0000
,
0001
0100
0010
1000
0100
1000
0010
0100
,
0001
0000
0000
0010
0000
0000
0100
0000
0000
1000
0000
0000
0010
0000
0000
1000
0000
0000
0100
0000
0000
0010
0100
0010
,
0100
0000
0000
0010
0000
0000
0001
0000
0010
0001
0000
0010
0001
0000
0000
1000
0000
0001
0000
0000
0100
0000
0000
0010
,
0000
0000
0000
1000
0000
0010
1000
0000
0010
1000
0000
0010
1000
0000
0000
0001
0000
1000
0000
0000
0100
0000
0000
0010
,
0000
0000
0000
0100
0000
0010
0100
0000
0010
0100
0000
0010
0000
0000
0001
0000
0000
1000
0001
0100
0001
1000
0100
1000
,
0001
0000
0000
0000
0100
0000
0001
0000
0000
0000
0100
0000
0001
0000
0000
1000
0000
0000
0000
0000
0000
0001
0000
0000
1000
0000
0000
0100
0000
0000
0010
0000
0000
0100
0000
0000
0110
0000
0000
0000
0000
0000
0000
0000
0000
0000
0000
0000
,
1000
0000
0000
0000
0000
0000
0001
0000
1000
0010
0000
0100
0010
0000
0000
0000
0000
0000
0100
0000
0010
1000
0000
0001
,
1000
0000
0000
0000
0000
0000
0001
0000
1000
0100
0000
0010
0000
0000
0100
1000
0000
0100
0010
0000
0100
1000
0000
0001
,
1000
0000
0000
0010
1000
0010
0200
0000
0000
0320
0000
0000
2030
0000
0000
3100
1000
0100
0020
0000
0000
0230
0000
0000
,
2300
0000
0000
3001
0000
1000
0001
0000
1000
0010
0000
0100
0000
0000
0010
1000
0000
0010
0100
0000
0010
1000
0000
0001
,
1000
0100
0001
0010
0100
0010
0100
0001
,
1000
0101
1100
0101
1000
0101
1100
0101
,
1000
0000
0000
0000
0000
0000
0001
0000
1000
0100
0000
0010
0100
0000
0000
0000
0000
0000
0010
0000
0100
1000
0000
0001
,
1000
0000
0000
0000
0000
0000
0001
0000
1000
0010
0000
0100
0000
0000
0010
1000
0000
0010
0100
0000
0010
1000
0000
0001
,
1000
0000
0000
0100
0000
0000
0010
0100
0010
0100
0000
0000
0001
0000
0000
0100
0000
0000
0010
0100
0010
0100
0000
0000
,
1000
0000
0000
0100
0000
0000
0010
0100
0010
0100
0000
0000
0001
0000
0000
0100
0000
0000
0010
0100
0010
0100
0000
0000
,
1000
0100
1000
0100
0000
0000
0001
0010
0001
0010
0000
0000
1000
0100
1000
0100
0000
0000
0001
0010
0001
0010
0000
0000
,
1000
0100
1000
0001
0010
0001
1000
0100
1000
0001
0010
0001
1000
0100
0010
0001
1000
0010
0100
0000
0000
1001
0000
0000
,
0010
0000
1000
0100
0000
0000
0010
0000
0100
1000
0000
0000
0001
0000
0100
0010
0000
0000
0001
0000
0010
0100
0000
0001
,
0000
0000
1000
0100
0000
0000
0010
0000
0001
0010
0000
0100
0010
0000
0001
0010
0000
0100
0010
0001
1000
0001
0000
0000
,
1000
0000
0001
0100
0000
0000
0001
0000
1000
0100
0000
0000
0010
0000
0100
1000
0000
0000
0001
0000
1000
0010
0000
0100
,
0010
0000
0100
0001
0000
0000
1000
0000
0100
0010
0000
0000
0100
0000
1000
0100
0000
0010
0100
1000
0001
1000
0000
0000
,
0001
0000
0000
0100
0000
0010
0000
0000
0101
0000
0000
0101
0000
0000
0000
0110
0000
0000
0101
0000
0000
1001
0000
0000
,
0001
0000
0000
0010
0000
0100
0000
0000
0011
0000
0000
0000
0011
0000
0000
0110
0000
0000
0010
0001
1000
0001
0000
0000
,
1000
0000
0000
0010
0000
0100
0000
0000
1010
0000
0000
1010
0000
0000
0000
0110
0000
0000
2010
0000
0000
0001
0000
0000
,
3100
0000
0000
1000
0000
0000
0100
0000
0000
0010
0100
1000
0001
0100
1000
0100
0001
1000
0001
0000
0001
1000
0000
0000
,
1001
0000
1001
0000
1001
0000
1001
0010
,
0110
0000
0000
1000
0000
0000
0110
0000
0000
0001
0000
0000
0110
0000
0000
1000
0000
0000
0110
0000
0100
0010
0000
0000
,
0110
1000
1010
0001
1001
0100
1100
0010
,
0110
0000
0000
0011
0000
0000
1001
0000
0000
0101
0000
0000
0110
0000
0010
1000
0000
0001
1000
0000
0000
0011
0000
0001
,
1000
0000
0000
0010
0000
0000
0101
0000
0000
0020
2030
3020
0230
0300
0000
2000
0000
0000
3100
0000
0000
0020
0000
0000
,
0031
0000
0000
0010
0000
0000
0101
0000
0000
0020
2030
3020
0230
0300
0000
0010
0000
0000
0101
0000
0010
1000
0000
0000
,
0001
0000
0000
0010
0000
0000
1100
0000
0000
0020
0032
0023
0230
0300
0000
0002
0000
0000
0103
0000
0000
0020
0000
0000
,
1030
0000
0000
0010
0000
0000
1100
0000
0000
0020
0032
0023
0230
0300
0010
0100
0000
1000
0100
0000
1000
0001
0000
1000
,
0020
0000
0000
0000
,
1000
0000
0000
0100
0000
0000
1000
0000
0000
0130
0010
1000
0001
0010
1000
0010
0001
1000
0001
0000
0000
0000
0000
0000
,
1000
0000
0000
0010
0000
0000
0001
0000
0010
0000
0000
1000
0000
0000
0000
0001
0000
1000
0100
0000
0010
0100
0000
1000
,
0001
0000
0000
0100
0000
0000
1000
0000
0100
0000
0000
0001
0000
0000
0100
0010
0000
0100
0001
0000
1000
0100
0000
0010
,
0100
0000
0000
1000
0000
0000
0001
0000
0100
0000
0000
1000
0000
0000
0000
0001
0000
0000
1000
0000
0100
0000
0000
0001
,
0000
0000
1000
0001
0000
0000
1000
0000
1000
0100
0000
0010
0000
0000
0001
0010
0000
0001
1000
0000
0001
0100
0000
0001
,
1000
0000
0000
0100
0000
0000
0001
0000
0100
0000
0000
1000
0000
0000
0000
0001
0000
1000
0010
0000
0100
0010
0000
1000
,
0001
0000
0000
0010
0000
0000
1000
0000
0010
0000
0000
0001
0000
0000
0010
0100
0000
0010
0001
0000
1000
0010
0000
0100
,
0010
0000
0000
1000
0000
0000
0001
0000
0010
0000
0000
1000
0000
0000
0000
0001
0000
0000
1000
0000
0010
0000
0000
0001
,
0000
0000
1000
0001
0000
0000
1000
0000
1000
0100
1000
0100
1000
0100
0010
0001
1000
0010
0100
0010
1000
0100
0010
0001
,
1000
0000
0000
0010
0000
0000
0100
0010
0100
0010
0000
0000
0001
0000
0000
0010
0000
0000
0100
0010
0100
0010
0000
0000
,
1000
0000
0000
0010
0000
0000
0100
0010
0100
0010
0000
0000
0001
0000
0000
0010
0000
0000
0100
0010
0100
0010
0000
0000
,
1000
0010
1000
0010
0000
0000
0001
0100
0001
0100
0000
0000
1000
0010
1000
0010
0000
0000
0001
0100
0001
0100
0000
0000
,
1000
0010
1000
0001
0100
0001
1000
0010
1000
0001
0100
0001
1000
0010
0100
0001
1000
0100
0010
0000
0000
0100
0000
0000
,
1000
0010
0100
0001
0010
0001
0100
0010
,
1000
0000
0000
0100
0000
0000
0010
0000
0000
0001
0000
0000
1000
0000
0000
0010
0000
0000
1000
0002
0000
0000
0000
0000
,
1003
0100
0010
0001
0100
0001
0010
0100
,
1000
0000
0010
0000
1000
0001
0000
1000
0001
0010
0100
0010
0100
0000
1000
0000
,
0001
0000
1000
0010
0000
0000
1000
0000
0001
0010
0000
0000
0100
0000
0010
0001
0000
0000
1000
0000
0001
0100
0000
0010
,
0100
0000
0010
1000
0000
0000
0001
0000
1000
0100
0000
0000
0010
0000
0001
0010
0000
0100
0010
0000
0001
0010
0000
0100
,
0000
0000
1000
0100
0000
0000
1000
0000
0001
0100
0000
0000
0010
0000
0100
0001
0000
0000
1000
0000
0001
0010
0000
0100
,
0010
0000
0000
0001
0000
0000
0100
0000
0000
0010
0100
0001
1000
0100
0001
0100
1000
0001
1000
0000
0000
0000
0000
0000
,
0202
0000
0000
0000
,
0303
0000
0000
0000
;

//---------------dance-single - ----------------
#NOTEDATA:;
#CHARTNAME:;
#STEPSTYPE:dance-single;
#DESCRIPTION:;
#CHARTSTYLE:;
#DIFFICULTY:Medium;
#METER:5;
#RADARVALUES:0.391692,0.405643,0.338036,0.097655,0.000000,365.000000,320.000000,45.000000,13.000000,0.000000,0.000000,0.000000,0.000000,0.000000,0.391692,0.405643,0.338036,0.097655,0.000000,365.000000,320.000000,45.000000,13.000000,0.000000,0.000000,0.000000,0.000000,0.000000;
#CREDIT:;
#NOTES:
// measure 0
0000
0000
0000
0000
,  // measure 1
0000
0000
0000
0000
,  // measure 2
0000
0000
0000
0000
,  // measure 3
1000
0100
1000
0000
0100
0001
0100
0000
,  // measure 4
0001
0010
0001
0000
0010
1000
0020
0000
,  // measure 5
1030
0000
0010
1000
0001
0000
0010
0000
,  // measure 6
0100
0000
0100
0010
0001
0000
1000
0000
,  // measure 7
0010
0000
0100
0010
0100
0000
1000
0100
,  // measure 8
0001
0000
1000
0100
0010
0100
0110
0000
,  // measure 9
0011
1001
0011
0110
,  // measure 10
0011
0000
1000
0000
0001
0100
0010
1000
,  // measure 11
1010
0000
0100
0010
1000
0000
0010
0100
,  // measure 12
0001
0000
1000
0000
0001
0010
0100
1000
,  // measure 13
0001
0000
0100
0000
0100
0000
0100
0001
,  // measure 14
1000
0010
1010
0010
0000
1000
1010
0000
,  // measure 15
0101
0110
0101
1001
,  // measure 16
0101
0000
0010
0000
0100
0001
1000
0100
,  // measure 17
0020
1000
0100
1000
,  // measure 18
0100
1000
0100
1000
,  // measure 19
0130
0010
0100
0010
0100
0010
0100
0010
,  // measure 20
0100
0100
0010
0010
0001
1000
0010
0110
,  // measure 21
0010
0100
0010
0000
0010
0001
0010
0000
,  // measure 22
0010
0100
0010
0000
0010
0001
0010
0110
,  // measure 23
0000
1010
0000
1001
0000
1100
0000
0110
,  // measure 24
0000
1100
0000
1001
0000
0101
0001
1000
,  // measure 25
0100
0000
0100
1000
0100
0000
0100
1100
,  // measure 26
0100
0000
0100
1000
1000
0100
0010
0001
,  // measure 27
0100
0000
0100
0001
0100
0000
0002
0000
,  // measure 28
1003
0001
0100
1000
0100
0001
1000
0000
,  // measure 29
1001
0000
1001
0000
1001
0000
0001
0010
,  // measure 30
0100
1000
0001
1000
0010
1000
0001
0010
,  // measure 31
0110
0000
1001
0000
0110
0000
0010
1000
,  // measure 32
0001
0010
1000
0010
0001
0000
0010
0011
,  // measure 33
0001
1000
0010
0200
0300
1000
0000
0001
,  // measure 34
0000
1000
0000
0200
0300
0000
0001
1000
,  // measure 35
0001
1000
0100
0020
0030
1000
0000
0001
,  // measure 36
0000
1000
0000
0020
0030
0000
0001
1000
,  // measure 37
0002
0000
0000
0000
,  // measure 38
1003
0001
0100
1000
0100
0001
1000
0000
,  // measure 39
1000
0100
0110
0000
0001
0000
1100
0000
,  // measure 40
0001
0100
0110
0000
1000
0000
0101
0100
,  // measure 41
0010
1000
1001
0000
0100
0000
1010
0000
,  // measure 42
0001
0000
1010
0000
0100
0000
0010
1000
,  // measure 43
0001
0010
0110
0000
1000
0000
0011
0000
,  // measure 44
1000
0010
0110
0000
0001
0000
1010
0010
,  // measure 45
0100
0001
1001
0000
0010
0000
0101
0000
,  // measure 46
1000
0000
0101
1000
0100
1000
0001
0100
,  // measure 47
0020
0001
0100
0001
,  // measure 48
0100
0001
0100
0001
,  // measure 49
0130
0010
0100
0010
0100
0010
0100
0010
,  // measure 50
0100
0100
0010
0010
1000
0001
1000
0001
,  // measure 51
1000
0100
1000
0000
0100
0001
0100
0000
,  // measure 52
0001
0010
0001
0000
0010
1000
0020
0000
,  // measure 53
1030
0010
1000
0000
0010
0001
0010
0000
,  // measure 54
0001
0100
0001
0000
0100
1000
0200
0000
,  // measure 55
0310
0100
0010
0000
0010
1000
0010
0000
,  // measure 56
0010
0100
0010
0000
0010
1000
0010
0100
,  // measure 57
0100
0010
0100
0000
0100
0001
0100
0000
,  // measure 58
0100
1000
0001
0100
1000
0100
0002
0000
,  // measure 59
2000
0000
0000
0000
,  // measure 60
3003
0000
0000
0000
;

//---------------dance-single - ----------------
#NOTEDATA:;
#CHARTNAME:;
#STEPSTYPE:dance-single;
#DESCRIPTION:;
#CHARTSTYLE:;
#DIFFICULTY:Easy;
#METER:4;
#RADARVALUES:0.281160,0.315500,0.210333,0.187798,0.000000,262.000000,234.000000,28.000000,25.000000,0.000000,0.000000,0.000000,0.000000,0.000000,0.281160,0.315500,0.210333,0.187798,0.000000,262.000000,234.000000,28.000000,25.000000,0.000000,0.000000,0.000000,0.000000,0.000000;
#CREDIT:;
#NOTES:
// measure 0
0000
0000
0000
0000
,  // measure 1
0000
0000
0000
0000
,  // measure 2
0000
0000
0000
0000
,  // measure 3
1000
0001
0100
0001
,  // measure 4
1000
0001
0010
0200
,  // measure 5
1300
0000
1000
0000
1000
0000
1000
0100
,  // measure 6
1000
0000
0001
0000
0001
0000
0001
1000
,  // measure 7
0001
0000
0100
0000
0100
0000
0100
0001
,  // measure 8
0100
0100
0100
1001
,  // measure 9
0010
0101
0010
0101
,  // measure 10
0010
0101
0001
1000
,  // measure 11
0100
0020
1030
0020
,  // measure 12
0031
0011
0100
0011
,  // measure 13
0001
0100
1000
0010
,  // measure 14
0001
0010
0000
0001
0000
0010
0000
0001
,  // measure 15
0010
1100
0010
1100
,  // measure 16
0010
1100
1000
0001
,  // measure 17
0200
0001
0001
0001
,  // measure 18
0001
0001
0001
0001
,  // measure 19
0301
0100
0010
1000
,  // measure 20
0001
0000
0010
0000
0100
0000
1000
0100
,  // measure 21
1000
1000
1000
1000
,  // measure 22
1000
0000
1000
0000
1000
0000
1000
0001
,  // measure 23
1000
0001
0000
0001
0000
0001
0000
0001
,  // measure 24
1000
0000
0010
0100
0010
0000
1000
0001
,  // measure 25
1000
0000
0100
0100
0100
0000
0010
0000
,  // measure 26
0100
0000
1000
1000
1000
1000
1000
0000
,  // measure 27
0001
0000
0100
0100
0100
0000
0020
0000
,  // measure 28
1030
0200
0302
0023
,  // measure 29
1030
0000
1000
0000
1000
0000
1000
0010
,  // measure 30
1000
0000
0001
0000
0010
0000
0100
0010
,  // measure 31
0100
0000
1001
0000
0100
0000
0001
0100
,  // measure 32
0001
0000
0101
0000
0001
0001
0001
0000
,  // measure 33
1000
0000
0100
0020
0130
0000
0001
0002
,  // measure 34
0003
0000
0010
0020
0030
0000
1000
0000
,  // measure 35
0001
0000
0010
0200
0310
0000
1000
2000
,  // measure 36
3000
0000
0100
0200
0300
0000
0001
0000
,  // measure 37
2000
0000
0000
0000
,  // measure 38
3001
0020
2030
3100
,  // measure 39
0001
0011
0000
1010
,  // measure 40
0100
1010
0000
0110
,  // measure 41
0101
1100
0000
0110
,  // measure 42
0000
1100
0000
0101
,  // measure 43
1000
1100
0000
0101
,  // measure 44
0010
0101
0000
0110
,  // measure 45
1010
0011
0000
0110
,  // measure 46
0000
0000
0011
0000
1000
0001
2000
0000
,  // measure 47
3020
1000
1000
1000
,  // measure 48
1000
1000
1000
1000
,  // measure 49
1030
0010
0100
0001
,  // measure 50
1000
0100
0010
0010
,  // measure 51
0001
1000
0010
1000
,  // measure 52
0001
1000
0100
0020
,  // measure 53
0031
1000
0010
1000
,  // measure 54
0001
1000
0100
0100
,  // measure 55
1000
0100
0000
1000
0000
0100
0000
1000
,  // measure 56
0000
0100
0000
1000
0000
0100
0000
0010
,  // measure 57
0000
0001
0000
0010
0000
0001
0020
0000
,  // measure 58
0031
0200
2300
3020
,  // measure 59
0002
0000
0000
0000
,  // measure 60
0033
0000
0000
0000
;

//---------------dance-single - ----------------
#NOTEDATA:;
#CHARTNAME:;
#STEPSTYPE:dance-single;
#DESCRIPTION:;
#CHARTSTYLE:;
#DIFFICULTY:Beginner;
#METER:1;
#RADARVALUES:0.123410,0.180286,0.052583,0.037560,0.000000,115.000000,108.000000,7.000000,5.000000,0.000000,0.000000,0.000000,0.000000,0.000000,0.123410,0.180286,0.052583,0.037560,0.000000,115.000000,108.000000,7.000000,5.000000,0.000000,0.000000,0.000000,0.000000,0.000000;
#CREDIT:;
#NOTES:
// measure 0
0000
0000
0000
0000
,  // measure 1
0000
0000
0000
0000
,  // measure 2
0000
0000
0000
0000
,  // measure 3
0010
0000
1000
0000
,  // measure 4
0100
0000
0010
0000
,  // measure 5
0001
0000
0001
0000
,  // measure 6
0001
0000
1000
0000
,  // measure 7
1000
0000
0010
0000
,  // measure 8
0010
0000
0100
0000
,  // measure 9
1001
0000
1001
0000
,  // measure 10
1001
0000
0000
0000
,  // measure 11
1001
0000
0001
0000
,  // measure 12
1000
0000
0100
0000
,  // measure 13
0010
0000
0010
0000
,  // measure 14
0001
0000
0001
0000
,  // measure 15
1001
0000
1001
0000
,  // measure 16
1001
0000
1000
0000
,  // measure 17
0001
0000
0000
0000
,  // measure 18
0000
0000
0000
0000
,  // measure 19
0000
0000
0000
0000
,  // measure 20
0000
0000
0000
0000
,  // measure 21
0100
0000
0100
0000
,  // measure 22
0100
0000
0100
0000
,  // measure 23
0001
0000
0001
0000
,  // measure 24
0001
0000
1000
0000
,  // measure 25
1000
0000
0010
0000
,  // measure 26
0100
0000
0001
0000
,  // measure 27
1000
0000
0100
0000
,  // measure 28
0010
0000
0001
0000
,  // measure 29
1000
0000
0000
0000
,  // measure 30
1000
0000
0000
1000
,  // measure 31
1000
0000
1000
0000
,  // measure 32
1000
0000
1000
1000
,  // measure 33
1000
0000
0001
0000
,  // measure 34
1000
0000
0001
1000
,  // measure 35
1000
0000
0001
0000
,  // measure 36
1000
0000
0001
0001
,  // measure 37
0002
0000
0000
0000
,  // measure 38
0000
0000
0000
1003
,  // measure 39
1000
1000
0000
0001
,  // measure 40
0001
0001
0000
0100
,  // measure 41
0100
0100
0000
0010
,  // measure 42
0010
0010
0010
0010
,  // measure 43
0010
0010
0000
1000
,  // measure 44
1000
1000
0000
0001
,  // measure 45
0001
0001
0000
0010
,  // measure 46
0000
0100
0200
0300
,  // measure 47
2000
0000
0000
0000
,  // measure 48
0000
0000
0000
0000
,  // measure 49
0000
0000
0000
0000
,  // measure 50
0000
0000
0000
3000
,  // measure 51
0010
0000
1000
0000
,  // measure 52
0100
0000
0010
0010
,  // measure 53
0010
0000
0001
0000
,  // measure 54
0100
0000
0020
0030
,  // measure 55
0100
0000
0001
0000
,  // measure 56
1000
0000
0100
0000
,  // measure 57
0010
0000
0100
0000
,  // measure 58
1000
0000
0001
0001
,  // measure 59
0002
0000
0000
0000
,  // measure 60
0003
0000
0000
0000
;
