#TITLE:The Fox;
#SUBTITLE:(What Does The Fox Say);
#ARTIST:Ylvis;
#TITLETRANSLIT:;
#SUBTITLETRANSLIT:;
#ARTISTTRANSLIT:;
#CREDIT:SupremeX;
#BANNER:The Fox.png;
#BACKGROUND:The Fox-bg.png;
#LYRICSPATH:;
#CDTITLE:cdtitle.png;
#MUSIC:The Fox (What Does The Fox Say).ogg;
#OFFSET:-0.058;
#SAMPLESTART:28.420;
#SAMPLELENGTH:12.000;
#SELECTABLE:YES;
#BPMS:0.000=128.000;
#STOPS:;
#BGCHANGES:;

//---------------dance-single - ----------------
#NOTES:
     dance-single:
     :
     Challenge:
     9:
     0.550,0.738,0.091,0.303,0.176: // measure 1
0000
0000
0000
0000
,  // measure 2
0000
0000
0000
0000
,  // measure 3
0000
0000
0000
0000
,  // measure 4
0000
0000
0000
0000
,  // measure 5
1000
0100
1000
0100
0020
0000
0032
0000
,  // measure 6
1003
0001
0010
0100
2000
0000
3200
0000
,  // measure 7
0310
0100
0010
1000
0001
0001
0100
0200
,  // measure 8
0000
0320
0000
2030
0000
3100
0000
1100
,  // measure 9
0010
0001
0010
0100
1000
0100
0020
0000
,  // measure 10
0001
0000
0000
0000
0030
0000
0001
0000
0000
1000
0000
0000
0010
0000
0000
1000
0000
0000
0002
0000
0000
0000
0000
0000
,  // measure 11
0100
0000
0100
0000
0103
0010
0010
2000
,  // measure 12
0000
3020
0000
0130
0000
0101
0000
1010
,  // measure 13
0100
0001
0010
0100
1000
0001
2000
0100
,  // measure 14
0100
3100
1000
0010
0100
0001
0200
0010
,  // measure 15
0010
0310
1000
0001
0100
0010
1000
0001
,  // measure 16
1000
0100
0100
0100
0012
0000
1003
0000
,  // measure 17
0100
0000
1000
0000
0100
0000
0010
0000
0001
0000
1000
0100
0000
1000
0100
0000
,  // measure 18
0000
0000
0010
0000
0001
0000
0100
0000
0010
0000
1000
0010
0000
1000
0010
0000
,  // measure 19
0100
0000
0001
0000
0100
0000
0010
0000
1000
0000
0010
0100
0000
0001
1000
0000
,  // measure 20
0020
0000
0130
0100
2000
0000
3001
0000
,  // measure 21
0100
0000
0010
0000
0100
0000
0001
0000
1000
0000
0100
0010
0000
0000
0000
0000
,  // measure 22
0000
0001
0010
0000
0100
0000
1000
0000
0010
0000
0100
0010
0000
0000
0000
0000
,  // measure 23
0100
0000
0001
0000
1000
0000
0010
0000
0100
0000
0001
0100
0010
0000
1000
0000
,  // measure 24
0001
0001
1000
0100
0020
0000
0031
0000
,  // measure 25
0010
0000
1000
0000
0001
0000
1000
0000
0010
0000
0100
0010
0000
0000
0000
0000
,  // measure 26
1000
0000
0010
0000
0100
0000
0001
0000
1000
0000
0100
1000
0000
0000
0000
0000
,  // measure 27
0100
0000
0010
0000
0001
0000
0010
0000
0100
0000
1000
0100
0000
0000
0000
0000
,  // measure 28
0010
0010
0001
1000
0200
0000
1300
0000
,  // measure 29
0001
0000
0010
0000
0001
0000
1000
0000
0100
0000
0010
0001
0000
0010
0001
0000
,  // measure 30
0000
0000
0100
0000
0010
0000
0100
0000
0001
0000
1000
0010
0000
0010
1000
0000
,  // measure 31
1000
0000
0001
0000
0100
0000
0010
0000
1000
0000
0001
0100
0000
0100
0001
0000
,  // measure 32
0010
0010
1000
0001
2000
0000
3100
0000
,  // measure 33
0010
0001
1000
0001
0100
0010
0100
1000
,  // measure 34
0200
0000
0310
0002
0000
1003
0100
0010
,  // measure 35
0001
1000
0100
1000
0001
1000
0100
0000
,  // measure 36
0020
0001
0031
1000
0100
1000
0001
0100
,  // measure 37
0010
1000
0001
0100
0001
1000
0001
0000
,  // measure 38
1000
0001
0100
0001
1000
0010
0100
0002
,  // measure 39
1000
0000
0100
0000
1000
0000
0103
0010
,  // measure 40
0010
0100
1000
0100
0010
1000
2000
0000
,  // measure 41
3100
0010
0001
0010
0100
1000
0010
0100
,  // measure 42
0001
1000
0001
0100
0010
0100
0001
2000
,  // measure 43
0100
0100
0100
0100
0100
0100
3100
1000
,  // measure 44
0100
0010
0001
1000
0010
1000
0001
0100
,  // measure 45
0020
1000
1000
1030
0001
0100
0010
1000
,  // measure 46
0010
0000
0100
0000
0001
0000
1000
0010
0100
0001
1000
0010
0100
0001
0100
0010
,  // measure 47
1000
0010
0100
0001
0100
0001
1000
0010
0100
0001
1000
0001
1000
0100
1000
0100
,  // measure 48
1000
0001
0100
0010
1000
0001
2000
0000
0000
0000
3002
0000
0000
0000
1003
0000
,  // measure 49
1100
0000
0011
0000
1000
0100
0010
0001
,  // measure 50
1001
0000
0110
0000
1000
0010
0100
0001
,  // measure 51
2002
0000
3003
0000
;

//---------------dance-single - ----------------
#NOTES:
     dance-single:
     :
     Hard:
     8:
     0.458,0.458,0.282,0.081,0.096:
0000
0000
0000
0000
,
0000
0000
0000
0000
,
0000
0000
0000
0000
,
0000
0000
0000
0000
,
0100
0000
0110
0000
0001
0100
0010
0000
,
1010
0000
0101
0000
1000
0010
0100
0000
,
1001
0000
0110
0000
0000
1000
0100
0010
,
0000
0001
0000
0001
0000
1000
0000
1100
,
0001
0010
0001
1000
0001
1000
0010
0100
,
0001
1000
0001
0100
0010
1000
0020
0000
,
0100
0000
0100
0000
0130
0000
0001
0100
,
0000
0010
0000
0110
0000
1001
0000
1100
,
0010
0001
0010
0100
1000
0010
0100
0010
,
1000
0001
1000
0100
0010
0001
1000
0100
,
1000
0010
0100
0001
0100
0010
1000
0100
,
0010
0110
0011
1001
,
1000
0000
0100
0000
1000
0000
0010
0000
0100
0000
0010
0100
0000
0010
0100
0000
,
0000
0000
0001
0000
1000
0000
0001
0000
1000
0000
0100
1000
0000
0100
1000
0000
,
0001
0000
0010
0000
0100
0000
1000
0000
0001
0000
0010
0001
0000
0010
0001
0000
,
1000
0100
0110
0011
,
1000
0000
0100
0000
1000
0000
0010
0000
0100
0000
0010
0100
0000
0000
0000
0000
,
0000
0001
0010
0000
0001
0000
0010
0000
0100
0000
1000
0100
0000
0000
0000
0000
,
0010
0000
0001
0000
0100
0000
0001
0000
0100
0000
0010
1000
0000
0000
0000
0000
,
1000
0001
0110
1001
,
1000
0000
0100
0000
1000
0000
0100
0000
0010
0000
0001
0100
0000
0000
0000
0000
,
0100
0000
0010
0000
1000
0000
0001
0000
1000
0000
0010
1000
0000
0000
0000
0000
,
0001
0000
0010
0000
0100
0000
1000
0000
0100
0000
1000
0100
0000
0000
0000
0000
,
0010
0000
0001
0100
0010
0000
0110
0000
,
1000
0000
0100
0000
0010
0000
0001
0000
0010
0000
0100
1000
0000
0100
1000
0000
,
0000
0000
0100
0000
0010
0000
0001
0000
1000
0000
0010
1000
0000
0001
0100
0000
,
0001
0000
0010
0000
0100
0000
1000
0000
0010
0000
0100
0001
0000
0100
0010
0000
,
0000
0000
1000
0001
1000
0000
0110
0000
,
0001
0010
0100
1000
0001
0010
0001
1000
,
0010
0000
0010
1000
0000
0001
0000
0201
,
0000
0010
0010
0310
,
1000
0001
0100
0010
0100
0001
1000
0001
,
0200
0010
0010
0310
,
1000
0001
1000
0001
0100
0010
0100
0002
,
1000
0100
1000
0103
,
0010
1000
0001
0100
0010
0100
0020
0000
,
1000
0100
1000
0130
,
0001
0000
1000
0010
0000
0010
0000
0200
,
0001
0001
0001
0301
,
0010
0100
1000
0001
0010
0001
1000
0000
,
0010
0100
0010
1000
0001
1000
0010
0000
,
0010
0100
0001
1000
0001
0100
0010
0000
,
1000
0100
0010
0001
1000
0100
1000
0000
,
0001
0000
0000
0100
0000
0100
0000
0000
,
0110
1001
1100
0011
,
1001
1010
0101
1001
,
0220
0000
0330
0000
;

//---------------dance-single - ----------------
#NOTES:
     dance-single:
     :
     Medium:
     5:
     0.350,0.353,0.192,0.000,0.000:
0000
0000
0000
0000
,
0000
0000
0000
0000
,
0000
0000
0000
0000
,
0000
0000
0000
0000
,
0100
0010
1000
0001
,
0101
0000
1000
0100
,
1100
0000
0010
0001
,
0010
0100
1000
0010
,
0100
0000
0010
0000
1000
0001
1000
0000
,
0010
0000
0010
0000
1000
0100
0010
0000
,
0001
0000
0001
0000
1000
0000
0010
0100
,
0000
0100
0000
0010
0000
1000
0000
1100
,
0000
0000
0001
0000
0100
0001
0100
0000
,
0010
0000
0010
0000
1000
0010
0100
0000
,
0100
0001
0001
0100
,
0010
1000
0001
1000
0010
0000
0110
0000
,
0001
1000
0001
0000
1100
0000
0011
0000
,
0000
1000
0100
0010
0001
0000
1001
0000
,
1000
0010
0100
0010
1000
0001
1000
0000
,
0000
0010
0110
1001
,
0100
0010
0100
0000
0001
0000
1001
0000
,
0000
0010
1000
0001
1000
0000
0110
0000
,
0001
0010
0100
0000
1100
0000
0110
0000
,
0001
0000
1000
0001
1000
0000
0110
0000
,
0001
1000
0001
1000
0001
1000
0000
0000
,
0010
0100
0010
0100
0010
0100
0000
0000
,
0001
1000
0010
0100
0010
1000
0000
0000
,
0001
0000
0100
0010
0100
0000
1001
0000
,
0010
0010
0010
0010
0010
0000
1000
0000
,
0000
0100
0100
0100
0100
0000
0010
0000
,
0001
1000
0010
0000
0010
1000
0001
0000
,
0001
1100
1001
0101
,
0010
0010
1000
0100
,
0010
0001
1000
0010
,
1000
0001
0001
0100
,
0010
1000
0010
0000
0100
0001
0100
0000
,
0010
1000
0001
0000
0001
1000
0100
0000
,
0100
0010
0010
0001
,
0001
0010
0100
1000
,
0010
1000
0010
0000
0100
0001
0100
0000
,
0010
1000
0100
0000
0100
0010
0001
0000
,
0001
0100
0100
0001
,
1000
0100
0010
0000
0001
0100
0001
0000
,
1000
1000
0010
0010
,
0100
0100
0001
0001
,
1000
0010
0100
0000
0100
0001
1000
0000
,
0010
1000
0100
0000
0100
0010
0001
0000
,
0001
0000
0000
0100
0000
0100
0000
0000
,
0001
0000
1000
0000
0010
0100
0001
0000
,
0001
0000
0100
0000
0010
0100
0010
0000
,
1001
0000
0000
0000
;

//---------------dance-single - ----------------
#NOTES:
     dance-single:
     :
     Easy:
     3:
     0.231,0.255,0.071,0.091,0.000:
0000
0000
0000
0000
,
0000
0000
0000
0000
,
0000
0000
0000
0000
,
0000
0000
0000
0000
,
1000
0100
0010
0001
,
1001
0000
0010
0100
,
0110
0000
0000
0001
,
1000
0001
0100
0010
,
1000
1000
1000
1000
,
0010
0010
0010
0010
,
0100
0100
0100
0100
,
0001
0001
0001
0001
,
1000
0010
1000
0001
,
1000
0010
1000
0001
,
1000
0010
0100
0001
,
0100
0001
0010
0100
,
1000
1000
0010
0010
,
0000
0100
0001
0100
,
0010
0010
1000
1000
,
0000
0001
1000
1001
,
0010
0100
0010
0010
,
0000
0100
0010
0010
,
1000
0001
1000
1000
,
0010
0100
0001
1001
,
0010
0100
0010
0000
,
1000
0001
1000
0000
,
0010
0100
0010
0000
,
0000
1000
0010
0110
,
0001
0001
0001
0001
,
1000
1000
1000
1000
,
0010
0010
0010
0010
,
0100
0010
0100
1001
,
0010
0100
0010
0100
,
0001
1000
0001
1000
,
0020
0000
0000
0000
0000
0030
0000
0000
,
1000
0010
0100
0001
,
2000
0000
0000
0000
0000
3000
0000
0000
,
0010
0100
0001
1000
,
0020
0000
0000
0000
0000
0030
0000
0000
,
0100
0001
1000
0002
,
0000
0000
0000
0003
,
0100
0010
1000
0001
,
2000
0000
0000
3000
,
0001
0100
0010
1000
,
0200
0000
0000
0300
,
0010
0001
1000
0010
,
0200
0000
0000
0300
,
0001
0000
0000
1000
0000
0001
0000
2002
,
0000
0000
0000
0000
,
0000
0000
0000
0000
,
0000
0000
0000
0000
0000
3003
0000
0000
;

//---------------dance-single - Copied from----------------
#NOTES:
     dance-single:
     Copied from:
     Beginner:
     1:
     0.065,0.076,0.000,0.010,0.000:
0000
0000
0000
0000
,
0000
0000
0000
0000
,
0000
0000
0000
0000
,
0000
0000
0000
0000
,
0000
0010
0000
0000
,
0000
0010
0000
0000
,
0000
0010
0000
0000
,
0000
0000
0000
0000
,
0100
0000
0000
0000
,
0100
0000
0000
0000
,
0100
0000
0000
0000
,
0100
0000
0000
0000
,
0001
0000
0000
0000
,
0001
0000
0000
0000
,
0001
0000
0000
0000
,
0000
0000
0001
0000
,
1000
0000
0000
0000
,
1000
0000
0000
0000
,
1000
0000
0000
0000
,
1000
0000
0000
0000
,
0010
0000
0000
0000
,
0100
0000
0000
0000
,
0010
0000
0000
0000
,
0100
0000
0000
0000
,
0001
0000
0000
0000
,
1000
0000
0000
0000
,
0001
0000
0000
0000
,
1000
0000
0000
0000
,
0010
0000
0000
0000
,
0010
0000
0000
0000
,
0010
0000
0000
0000
,
0100
0000
0000
0000
,
0001
0000
0000
0000
,
1000
0000
0000
0000
,
0001
0000
0000
0000
,
1000
0000
0000
0000
,
0010
0000
0000
0000
,
0100
0000
0000
0000
,
0010
0000
0000
0000
,
1000
0000
0000
0000
,
0001
0000
0000
0000
,
1000
0000
0000
0000
,
0010
0000
0000
0000
,
0100
0000
0000
0000
,
0010
0000
0000
0000
,
1000
0000
0000
0000
,
0001
0000
0000
0000
,
1000
0000
0000
0000
,
0002
0000
0000
0000
,
0000
0000
0000
0000
,
0000
0000
0003
0000
;
