#TITLE:Snake Stick;
#SUBTITLE:;
#ARTIST:DJ Yoshitaka VS. DJ Mass MAD Izm*;
#TITLETRANSLIT:;
#SUBTITLETRANSLIT:;
#ARTISTTRANSLIT:;
#GENRE:;
#CREDIT:;
#MUSIC:Snake Stick.ogg;
#BANNER:Snake Stick.png;
#BACKGROUND:Snake Stick-bg.png;
#CDTITLE:;
#SAMPLESTART:41.419;
#SAMPLELENGTH:13.241;
#SELECTABLE:YES;
#OFFSET:-0.046;
#BPMS:0.000=145.000
,262.000=290.000
,262.250=290.000
,264.000=145.000
;
#STOPS:262.000=0.052
,262.250=0.052
,262.500=0.052
,262.750=0.052
,263.000=0.052
,263.250=0.052
,263.500=0.052
,263.750=0.052
;
#ORIGIN:;
#PREVIEWVID:;
#JACKET:Snake Stick-jacket.png;
#CDIMAGE:;
#DISCIMAGE:;
#BGCHANGES:0.000=Snake Stick.avi=1.000=0=0=0=StretchNoLoop====,
264.000=Snake Stick-bg.png=1.000=0=0=1,
99999.000=-nosongbg-=1.000=0=0=0=StretchNoLoop====
;
#FGCHANGES:;

//--------------- dance-single - ----------------
#NOTES:
     dance-single:
     :
     Beginner:
     2:
     0.162053,0.237677,0.027009,0.06302,0,126,123,3,7,0,0,0,0,0,0.162053,0.237677,0.027009,0.06302,0,126,123,3,7,0,0,0,0,0:
0000
0000
0000
0000
,
0000
0000
0000
0000
,
0000
0000
0000
0000
,
0000
0000
0000
0000
,
1000
0000
0000
0000
,
1000
0000
0000
0000
,
0001
0000
0000
0000
,
0001
0000
0000
0000
,
1001
0000
0000
0000
,
0100
0000
0000
0000
,
0010
0000
0000
0000
,
0100
0000
0000
0000
,
0001
0000
0000
0000
,
1000
0000
0000
0000
,
0001
0000
0000
0000
,
1000
0000
0000
0000
,
0010
0000
0010
0000
,
0010
0000
0000
0000
,
1000
0000
1000
0000
,
1000
0000
0000
0000
,
0100
0000
0100
0000
,
0100
0000
0000
0000
,
0001
0000
0001
0000
,
0001
0000
0000
0000
,
0000
0000
0000
0000
,
0100
0100
0100
0000
,
0100
0100
0100
0000
,
0100
0100
0100
0000
,
0100
0100
0100
0000
,
0010
0010
0010
0000
,
0010
0010
0010
0000
,
0010
0010
0010
0000
,
0010
0010
0010
0000
,
1000
1000
1000
0000
,
1000
1000
1000
0000
,
0001
0001
0001
0000
,
0001
0001
0001
0000
,
0010
0010
0010
0000
,
0100
0100
0100
0000
,
0010
0010
0010
0000
,
0100
0100
0100
0000
,
2000
0000
3000
0000
,
2000
0000
3000
0000
,
0002
0000
0003
0000
,
0002
0000
0003
0000
,
0100
0000
0100
0000
,
0010
0000
0010
0000
,
0100
0000
0100
0000
,
0200
0000
0300
0000
,
0110
0000
0000
0000
,
0010
0000
0010
0000
,
1000
0000
0001
0000
,
1000
0000
0001
0000
,
0100
0000
0100
0000
,
0010
0000
0010
0000
,
1000
0000
1000
0000
,
0001
0000
0001
0000
,
0100
0100
0100
0000
,
1000
1000
1000
0000
,
0100
0100
0100
0000
,
0001
0001
0001
0000
,
0010
0010
0010
0000
,
0001
0001
0001
0000
,
0010
0010
0010
0000
,
1000
1000
1000
0000
,
2002
0000
0000
0000
,
3003
0000
0000
0000
;

//--------------- dance-single - ----------------
#NOTES:
     dance-single:
     :
     Easy:
     3:
     0.248224,0.267387,0.036012,0.018006,0,193,189,4,2,0,0,0,0,0,0.248224,0.267387,0.036012,0.018006,0,193,189,4,2,0,0,0,0,0:
0000
0000
0000
0000
,
0000
0000
0000
0000
,
0000
0000
0000
0000
,
0000
0000
0000
0000
,
0010
0100
0010
0000
,
1000
0001
1000
0000
,
0100
0010
0100
0010
,
0002
0000
0003
0000
,
1000
0001
1000
0000
,
0100
0001
0100
0000
,
0010
0100
0010
0000
,
1000
0010
1000
0000
,
0001
0100
0001
0000
,
0010
0001
0010
0000
,
1000
0100
1000
0000
,
0001
1000
0001
0000
,
1000
0000
0010
0100
,
0010
0000
0001
1000
,
0001
0000
1000
0010
,
1000
0000
0100
0001
,
0100
0000
0010
0010
,
0100
0000
1000
1000
,
0100
0000
0001
0001
,
0010
0100
0010
0000
,
1001
0000
0000
0000
,
0010
1000
0010
0000
,
0100
0010
0100
0000
,
0001
0100
0001
0000
,
1000
0001
1000
0000
,
0010
0001
0100
0000
,
0100
0001
1000
0000
,
1000
0010
0100
0000
,
0100
0010
0001
0000
,
1000
0001
1000
1000
,
0010
0100
0010
0000
,
0001
0100
1000
0010
,
1000
0100
0010
0000
,
0001
0001
1000
0010
,
0100
0010
1000
0000
,
0001
1000
0001
0100
,
0010
0100
1000
0000
,
1001
0000
0001
0001
,
1000
0000
0010
0010
,
0100
0000
1000
1000
,
0001
0000
0100
0100
,
0010
0100
0010
0000
,
1000
0010
1000
0000
,
0001
1000
0001
0100
,
0020
0000
0030
0000
,
1000
0100
1000
0000
,
0010
0001
0010
0000
,
0100
0001
0010
1000
,
0010
0100
0100
0000
,
0001
1000
0100
0000
,
0010
1000
0001
0000
,
1000
0010
0100
0010
,
1000
0001
0001
0000
,
0010
1000
0100
0000
,
0001
0010
1000
0000
,
1000
0001
0010
1000
,
0100
0010
0010
0000
,
0100
0010
0100
0000
,
1000
0001
1000
0000
,
0010
0100
0010
1000
,
0001
1000
1000
0000
,
0110
0000
0000
0000
,
1001
0000
0000
0000
;

//--------------- dance-single - ----------------
#NOTES:
     dance-single:
     :
     Medium:
     5:
     0.374265,0.386226,0.054018,0.099032,0,291,285,6,11,0,0,0,0,0,0.374265,0.386226,0.054018,0.099032,0,291,285,6,11,0,0,0,0,0:
0000
0000
0000
0000
,
0000
0000
0000
0000
,
0000
0000
0000
0000
,
0000
0000
0000
0000
,
1000
0100
0001
0100
,
1000
0010
0001
0010
,
1000
0001
0100
0010
,
0200
0000
0000
0300
,
0001
1000
0010
1000
,
0100
0000
1000
0000
0010
0000
0100
0010
,
0100
0001
0100
0001
,
0010
0000
1000
0000
0001
0000
1000
0010
,
1000
0001
1000
0010
,
0100
0000
0001
0000
1000
0000
0001
1000
,
0001
0010
0100
0001
,
1000
0000
0100
0000
0010
0100
0010
0000
,
0001
0000
1000
0000
0001
0000
1000
0100
,
1000
0000
0010
0000
1000
0000
0010
0100
,
0010
0000
0100
0000
0001
0000
0100
0001
,
0100
0000
0010
0000
0100
0000
1000
0010
,
1000
0000
0001
0000
0100
0000
0001
1000
,
0001
0000
0100
0000
0010
0000
0100
0001
,
0100
0010
1000
0100
,
1000
0001
1000
0000
0010
0000
0100
0000
,
2002
0000
3003
0000
,
0010
0000
0100
0000
0010
0000
0100
0010
,
1000
0000
0010
0000
1000
0000
0010
1000
,
0001
0000
1000
0000
0001
0000
1000
0001
,
0100
0001
0100
0110
,
0001
0000
0100
0000
0010
0000
0100
0010
,
1000
0000
0001
0000
0010
0000
0001
0100
,
0010
0000
1000
0000
0010
0000
0100
0001
,
1000
0100
1000
1001
,
0010
1000
0010
0100
,
0001
0100
0001
0000
0100
0000
0010
0000
,
1000
0000
0001
0000
1000
0000
0010
1000
,
0010
0000
0100
0000
0001
0100
0001
0000
,
1000
0000
1000
0000
0001
0000
1000
0001
,
0100
0000
0100
0000
0010
0100
0010
0000
,
1000
0100
0001
1000
,
0010
1000
0010
0000
0100
0000
0001
0000
,
0200
0000
0301
0000
0010
0001
0010
0000
,
2000
0000
3010
0000
1000
0100
1000
0000
,
0020
0000
1030
0000
0001
0000
1000
0001
,
0200
0000
0310
0000
1000
1000
0001
0000
,
0010
1000
0100
1000
,
0010
0100
0001
0100
,
0010
1000
0001
0100
,
0010
0100
0010
1000
0020
0000
0130
0000
,
1001
0000
0001
0000
0100
0000
0010
0100
,
0010
0000
1000
0000
0010
0000
0100
0001
,
0100
0000
0010
0000
1000
0000
0001
0100
,
0001
0000
0010
0000
0100
1000
0100
0000
,
0001
0000
0001
0000
1000
0000
0010
0100
,
0010
0000
0100
0000
1000
0001
0100
0000
,
0010
0000
1000
0000
0010
0000
0001
0100
,
0001
0000
1000
0000
0010
0100
0020
0000
,
1030
0001
0100
0010
,
1000
0010
1000
0000
0001
0000
0100
0000
,
0010
0000
0100
0001
0100
0000
0010
0000
,
0100
0000
0001
0000
0010
1000
0010
0000
,
0100
0000
1000
0000
0001
0000
0100
0001
,
0000
0001
1000
0000
0100
0010
0100
0000
,
1000
0010
0100
0010
,
0100
0001
0100
0000
0010
0000
1000
0000
,
2002
3003
0100
0100
,
0110
0000
0000
0000
;

//--------------- dance-single - ----------------
#NOTES:
     dance-single:
     :
     Hard:
     8:
     0.551751,0.534774,0.099032,0.054018,0.171056,429,418,11,6,0,0,0,0,0,0.551751,0.534774,0.099032,0.054018,0.171056,429,418,11,6,0,0,0,0,0:
0000
0000
0000
0000
,
0000
0000
0000
0000
,
0000
0000
0000
0000
,
0000
0000
0000
0000
,
0010
1000
0100
1000
,
0001
0100
0010
0100
,
0010
1000
0100
1000
0001
0100
0010
0100
,
0002
1000
1000
0103
,
0110
0000
0000
0000
0010
0000
1000
0000
0001
0000
0000
1000
0000
0000
0100
0000
,
1000
0000
0010
0000
1000
0000
0001
0000
0100
0000
0000
0010
0000
0000
0100
0000
,
0001
0000
1000
0000
0010
0000
1000
0000
0100
0000
1000
0001
0000
1000
0010
0000
,
0000
0100
0010
1000
0001
0100
0101
0000
,
1000
0000
0010
0000
0100
0000
0010
0000
1000
0000
0000
0100
0000
0000
1000
0000
,
0000
0000
0001
0000
0000
0001
0000
0000
0100
0000
0010
0000
1000
0000
0010
0000
,
1000
0000
0100
0000
0010
0000
0001
0000
1000
0000
0100
1000
0000
0010
1000
0000
,
0010
0000
0100
0000
0001
0000
1000
0000
0010
0000
0100
0010
0000
0000
0000
0000
,
1000
0001
0100
0000
0010
1000
0010
0001
,
0010
0100
0001
1000
0100
1000
0010
0000
,
0100
0001
0100
0000
0001
0010
0100
1000
,
0010
1000
0001
0100
0010
1000
0010
0000
,
0100
0000
0010
0000
1000
0000
0100
0000
0010
0000
0100
0010
0000
0000
0001
0000
,
0010
0000
0100
0000
0010
0000
0001
0000
1000
0000
0001
1000
0000
0000
0100
0000
,
1000
0010
1000
0010
0100
0010
0100
0010
,
1000
0001
0100
0010
0100
0001
1000
0000
,
2002
0000
0000
3003
,
0100
0000
0010
0000
0000
1000
0000
0000
0010
0000
0000
1000
0000
0000
0100
0000
,
1000
0000
0100
0000
0000
0010
0000
0000
0100
0000
0000
0010
0000
0000
0001
0000
,
0010
0000
0001
0000
0000
1000
0000
0000
0001
0000
0000
1000
0000
0000
0010
0000
,
1000
0000
0010
0000
0000
0100
0000
0000
0010
0000
0000
0000
0110
0000
0000
0000
,
1000
0000
0001
0000
0000
0100
0000
0000
0010
0000
0000
0100
0000
0000
0001
0000
,
0010
0000
0001
0000
0000
1000
0000
0000
0100
0000
0000
1000
0000
0000
0010
0000
,
0100
0000
0010
0000
0000
0100
0000
0000
0001
0000
0000
0100
0000
0000
0001
0000
,
1000
0000
0001
0000
0000
0010
0000
0000
0100
0000
0000
0000
1001
0000
0000
0000
,
0001
0100
0010
0100
0001
1000
0010
0000
,
1000
1000
0010
1000
0100
1000
0010
0000
,
0100
0001
0010
0001
0010
0100
1000
0100
,
1000
0010
0010
1000
0001
0100
0010
0000
,
0100
0001
0100
1000
0100
0010
0100
0001
,
1000
0010
1000
1000
0100
0010
0001
0000
,
0100
0010
1000
0010
0100
0010
1000
0001
,
0100
0010
1000
0100
0010
0001
0100
0000
,
0110
0000
1000
0001
0010
0100
0010
0000
,
0001
0001
1000
0010
0100
0001
0100
0000
,
0010
0010
1000
0100
0010
0100
1000
0001
,
0100
0001
0010
0100
1000
0010
0100
0000
,
1000
0001
0100
0001
1000
0010
0100
0000
,
0001
1000
0010
1000
0001
0100
0010
0000
,
0001
0001
1000
1000
0010
0100
0001
0100
,
0020
0000
0100
0000
0130
0001
1001
0000
,
1000
0000
0010
0000
0100
0000
0000
0010
0000
0000
1000
0000
0001
0000
0000
1000
,
0000
0010
1000
0010
0100
0001
1000
0000
,
0001
1000
0010
1000
0010
0100
0001
0100
,
0010
0000
1000
0000
0000
0000
0001
0000
0000
0100
0000
0000
0001
0000
0000
0000
,
1000
0100
1000
0001
1000
0010
0100
0001
,
0010
0000
0000
0100
0000
0000
0010
0000
0001
0000
1000
0000
0010
0000
0000
0000
,
0100
0000
0010
0000
1000
0000
0010
0000
0100
0000
0001
0100
0000
0001
0100
0000
,
0010
0010
1000
0001
1000
0010
0210
0000
,
0301
0000
1000
0000
0001
0000
0100
0000
0010
0000
0000
1000
0000
0010
0000
0000
,
0100
0000
0001
1000
0100
0010
0100
1000
,
0010
0000
0000
0000
1000
0000
0001
0000
0100
0000
0000
0010
0000
0000
0100
0000
,
0001
0001
1000
0100
1000
0010
0100
0010
,
1010
0000
0000
0000
1000
0000
0001
0000
0100
0000
0010
1000
0000
0010
0100
0000
,
0001
0100
0010
0100
0010
1000
0100
0000
,
0010
1000
0010
1000
0001
1000
0100
1000
,
0010
0000
0100
0001
0000
0100
0010
0000
1000
0000
0001
0000
0100
0000
0000
0000
,
0210
0000
0000
0000
0301
1000
0001
1000
,
0101
0000
0000
0000
;

//--------------- dance-single - ----------------
#NOTES:
     dance-single:
     :
     Challenge:
     11:
     0.830841,0.833446,0.117038,0.108035,1.003826,646,633,13,12,4,0,4,0,0,0.830841,0.833446,0.117038,0.108035,1.003826,646,633,13,12,4,0,4,0,0:
0000
0000
0000
0000
,
0000
0000
0000
0000
,
0000
0000
0000
0000
,
0000
0000
0000
0000
,
1000
0010
0100
0001
0100
0010
1000
0100
,
0010
0100
0010
0001
1000
0010
0100
0001
,
1000
0001
1000
0001
1000
0001
1000
0001
1000
0001
1000
0001
1000
0001
1000
0001
,
1000
0000
0010
0100
0010
0000
0100
0000
0001
0000
1000
0000
1000
0000
0001
0000
,
0101
0000
0100
0000
0010
1000
0010
0000
1000
0100
1000
0100
0000
1000
0001
1000
,
0010
0000
0100
0000
0010
0000
1000
0001
0100
0000
0100
0010
0000
0010
0100
0001
,
0100
0000
0010
0000
1000
0010
1000
0000
0001
0000
0100
0010
0000
0100
0001
0010
,
0100
0000
1000
0000
0010
1000
0100
0000
1000
0001
1000
0040
0100
0000
0000
0000
,
1030
0000
0001
0000
0100
0010
1000
0000
0100
0010
0001
0010
0000
0100
1000
0001
,
0100
0000
0100
0010
0000
0010
1000
0001
1000
0010
0100
0001
0000
0001
0010
0100
,
1000
0000
0010
0000
0100
0001
0010
0000
0001
1000
0010
1000
0000
0001
0100
0001
,
0010
0000
0100
0000
1000
0010
0100
0000
0010
1000
0010
4000
0000
0000
0000
0000
,
3001
0000
0100
0000
0001
0010
0001
0000
0010
0000
0100
1000
0000
0100
1000
0010
,
2000
0000
0000
0001
3100
0010
0100
0001
0100
0010
1000
0001
0000
1000
0100
1000
,
0010
0000
1000
0000
0001
0000
0000
0100
0001
0100
0000
0010
0000
0100
0000
0000
,
0001
0000
0100
0000
0010
0000
1000
0100
0010
0001
0010
0400
0000
0000
0000
0000
,
1300
0000
0010
1000
0100
1000
0001
0100
0010
0100
0001
1000
0000
0001
1000
0100
,
0020
0000
0000
0100
1030
0001
0100
0001
0010
0100
1000
0100
0000
1000
0010
0100
,
0001
0000
0100
0000
0010
0000
1000
0001
1000
0100
1000
0001
0000
0100
0010
1000
,
0010
0000
1000
0000
0001
0100
0010
1000
0100
0010
0001
0400
0000
0000
0000
0000
,
0300
0000
MMMM
0000
,
1001
0000
1000
0000
0010
1000
0000
0100
1000
0000
0010
1000
0000
0001
0100
0010
,
1000
0010
0100
0000
0001
0100
0000
0010
0100
0000
0001
0100
0000
0010
1000
0010
,
0100
0001
0010
0000
0100
0010
0000
0001
0010
0000
0100
0010
0000
0001
1000
0001
,
0100
0010
1000
0000
0001
1000
0000
0010
1000
0000
0001
1000
0200
0000
0000
0000
,
0310
0000
0001
0000
0100
0001
0000
1000
0001
0000
0100
0001
0000
0100
0010
1000
,
0100
1000
0010
0000
1000
0010
0000
0100
0010
0000
1000
0010
0000
0100
0001
0010
,
0100
1000
0100
0000
0010
0100
0000
1000
0100
0000
0010
0000
0100
1000
0001
0100
,
0010
1000
0001
0000
0010
0001
0000
1000
0001
0000
0010
0000
0201
0000
0000
0000
,
0310
1000
0010
0000
0100
0001
1000
0001
0010
0000
0100
0000
1000
0010
0100
0001
,
1000
0000
0001
0000
0010
0100
1000
0100
0010
0000
0010
0000
1100
0000
1000
0000
,
0001
0000
0001
0000
0001
0000
0100
0000
0100
0000
0010
0100
0000
0100
0000
0010
,
1000
0000
0000
0000
0000
0000
0100
0000
1000
0000
0001
0000
0100
0000
0000
0000
0000
0000
0010
0000
0000
0000
0000
0000
0100
0000
0000
0000
0000
0000
0001
0000
0000
1000
0000
0000
0010
0000
0000
0000
0000
0000
1000
0000
0000
0000
0000
0000
,
0100
0000
0100
0000
1000
0000
0010
0000
0100
0000
0001
0100
0000
0010
1000
0000
,
0001
0000
1000
0010
0000
0010
0000
1000
0100
0000
0010
0000
0200
0000
0300
0000
,
1000
0000
0010
1000
0010
0000
0100
0000
0100
0000
0001
1000
0000
0001
0100
0000
,
0010
0100
0010
1000
0010
0000
0100
0000
0001
0000
0001
0000
2000
0000
3001
0000
,
0110
0000
0010
0000
0001
0000
0010
0000
0001
1000
0100
1000
0001
0000
0000
0000
,
1000
0000
1000
0000
0010
0100
0001
0000
0100
0010
0100
0010
1000
0000
0000
0000
,
0010
0000
1000
0000
0010
0010
0100
0000
0001
0100
0001
0100
0010
0000
0100
0000
,
0001
0000
1000
0000
0010
0100
0010
0000
1000
0100
1000
0010
0200
0000
0000
0000
,
0301
0000
1000
0000
0010
0000
1000
0000
0100
0000
1000
0010
1000
0000
0001
0000
,
0100
0000
0010
0100
0010
0000
1000
0000
0001
0000
0100
0000
0001
0010
0001
0000
,
0100
0000
0010
1000
0100
0000
1000
0000
0010
0000
0100
0000
0010
1000
0001
1000
,
0100
0000
0000
0000
0100
0000
0000
0000
0100
0000
0000
0000
1000
0000
0000
0010
0000
0000
0100
0000
0000
0001
0000
0000
1000
0000
0000
0000
0000
0000
1000
0000
0000
0000
0000
0000
1002
0000
0000
0000
0000
0000
0000
0000
0000
0000
0000
0000
,
0103
0000
0010
0000
1000
0000
0001
1000
0000
0010
0100
0000
0001
0000
1000
0001
,
0000
0001
0000
0100
0010
0000
1000
0000
0010
0000
0100
0001
0010
0001
0010
0000
,
0100
0000
1000
0000
0010
0000
0010
0000
0100
0000
0001
0000
0010
0000
0100
1000
,
0000
0000
1010
0000
0000
0000
0110
0000
0000
0101
0000
0000
0011
0000
0000
0000
,
0100
0000
1000
0000
0010
0000
0100
0010
0100
0000
0001
1000
0000
0001
0000
0000
,
0010
0000
0010
0100
0000
0100
1000
0000
0001
0100
0001
0100
0010
1000
0010
0000
,
1000
0000
0010
0100
0001
0000
0100
0000
0010
0000
1000
0010
0000
0100
0010
0000
,
1000
0000
0001
0000
0100
0010
1000
0100
1000
0000
0010
0000
2001
0000
0000
0000
,
3100
0000
0010
0000
0001
0100
0001
0000
0010
0000
0001
0100
0000
0010
0000
1000
,
0001
0000
0100
0010
0000
0010
0100
0000
0001
1000
0010
0100
0001
0000
0100
0000
,
0010
0000
1000
0010
0000
0100
0000
0001
0100
0000
0001
1000
0000
0000
0100
0000
,
1000
0000
0010
0000
0100
0000
0010
1000
0010
1000
0010
0000
0100
0000
0100
0000
,
0002
0000
0000
0000
1003
0010
1000
0100
1000
0000
1000
0001
0000
0001
0100
0000
,
0010
0000
0010
0000
0100
0001
0010
0001
1000
0000
0100
0010
0000
0100
1000
0100
,
1000
0000
0001
0000
0100
0000
0010
0100
0010
0100
0001
0010
0000
0100
0010
0000
,
0001
0000
0001
1000
0000
1000
0100
0000
0010
0000
0100
0000
1000
0000
0000
0000
,
0110
0000
0000
0000
0000
0000
0000
0000
0100
0010
0100
0010
0100
0001
1000
0010
,
2002
3003
0000
0000
0000
0000
0000
0000
;
