#TITLE:Papilio ulysses;
#SUBTITLE:;
#ARTIST:SYUNN;
#TITLETRANSLIT:;
#SUBTITLETRANSLIT:;
#ARTISTTRANSLIT:;
#GENRE:;
#CREDIT:;
#BANNER:Papilio ulysses.png;
#BACKGROUND:Papilio ulysses-bg.png;
#LYRICSPATH:;
#CDTITLE:;
#MUSIC:Papilio ulysses.ogg;
#OFFSET:-0.140000;
#SAMPLESTART:33.473000;
#SAMPLELENGTH:15.000000;
#SELECTABLE:YES;
#BPMS:0.000000=180.000000
,228.000000=90.000000
,244.000000=180.000000
;
#STOPS:
;
#BGCHANGES:;
#KEYSOUNDS:;
#ATTACKS:;

//---------------dance-single - ----------------
#NOTES:
     dance-single:
     :
     Hard:
     9:
     0.565890,0.745222,0.183317,0.565890,0.159406,497.000000,474.000000,23.000000,71.000000,0.000000,0.000000,0.565890,0.745222,0.183317,0.565890,0.159406,497.000000,474.000000,23.000000,71.000000,0.000000,0.000000:
// measure 0
0000
0000
0000
0000
,  // measure 1
0000
0000
0000
0000
,  // measure 2
0000
0000
0000
0000
,  // measure 3
0000
0000
0000
0000
,  // measure 4
0000
0000
0000
0000
,  // measure 5
0102
0010
1000
0010
,  // measure 6
2003
0100
0010
0001
,  // measure 7
3020
0100
1000
0001
,  // measure 8
0230
1000
0001
0010
,  // measure 9
0301
0000
0101
0000
0000
0001
0101
0000
,  // measure 10
0001
0000
0100
0000
0010
0000
0100
0000
0000
0000
0001
0010
0001
0000
1000
0000
,  // measure 11
0100
0000
1100
0000
0000
1000
1100
0000
,  // measure 12
1000
0000
0010
0000
0001
0000
0010
0000
1000
0000
0100
0010
0100
0000
1000
0000
,  // measure 13
0001
0000
0011
0000
0000
0001
0011
0000
,  // measure 14
0001
0000
0100
0000
0010
0000
0100
0000
0000
0000
0001
0100
0001
0000
1000
0000
,  // measure 15
0010
0000
1010
0000
0000
1000
1010
0000
,  // measure 16
1000
0000
0100
0000
0001
0000
0100
0000
1000
0000
0010
0100
0010
0100
0010
0000
,  // measure 17
2000
0100
0000
0100
,  // measure 18
0000
0001
0000
0001
,  // measure 19
0000
0010
0000
0010
,  // measure 20
0000
0001
0000
3001
,  // measure 21
0001
0100
0001
0100
0010
0100
0010
0100
,  // measure 22
0001
0010
0001
0010
0100
1000
0100
1000
,  // measure 23
0001
0100
0001
0000
1000
0100
1000
0000
0001
0010
0001
0000
1000
0010
1000
0000
,  // measure 24
0002
0000
0000
1003
,  // measure 25
0100
0000
0120
0000
0130
1000
0002
0000
,  // measure 26
0203
0000
0302
0000
0203
0000
0310
0000
0100
0001
0100
0000
0020
0000
0000
0000
,  // measure 27
1030
1000
0001
0001
0100
0200
0320
0130
,  // measure 28
0001
1000
0100
0010
0100
1000
0001
0000
,  // measure 29
0100
0000
0120
0000
1030
0001
0020
0000
,  // measure 30
0130
0100
1000
0100
0001
0100
2000
0000
,  // measure 31
3001
0010
0001
0010
1000
0010
1000
0010
,  // measure 32
0001
0100
0010
1000
0001
0010
0100
1000
,  // measure 33
0001
0000
2001
0000
3200
0000
1300
0010
,  // measure 34
0100
0010
0100
0000
0001
0000
0020
0000
2030
0000
3020
0000
0230
0000
0000
0000
,  // measure 35
1300
0001
0100
2000
3100
0010
1000
0001
,  // measure 36
0010
0010
0001
0001
1000
0100
0020
0030
,  // measure 37
0100
0000
1002
0000
0203
0000
0301
0100
,  // measure 38
0010
0000
0010
0000
1000
0000
0100
0010
0100
0000
1000
0000
0002
0000
0000
0000
,  // measure 39
1003
0010
1000
0010
0001
0010
0001
0010
,  // measure 40
1000
0100
0010
0001
1000
0010
0100
0001
,  // measure 41
2000
0000
0000
0000
,  // measure 42
0000
0000
0000
0000
,  // measure 43
3002
0000
0000
0000
,  // measure 44
0000
0000
0000
0000
,  // measure 45
1003
0100
1000
0100
0010
0100
0010
0100
,  // measure 46
1000
0010
1000
0010
0100
0001
0100
0001
,  // measure 47
1000
0100
1000
0000
0001
0100
0001
0000
1000
0010
1000
0000
0001
0010
0001
0000
,  // measure 48
2000
0000
0000
3001
,  // measure 49
1000
0100
0010
0100
0000
1000
0010
0000
,  // measure 50
0100
0001
0100
0010
0100
1000
0100
0010
,  // measure 51
0100
0001
0010
0100
0000
1000
0100
0000
,  // measure 52
0010
1000
0010
0001
0010
0100
0010
0001
,  // measure 53
1000
0010
0100
0001
0000
0010
0001
0000
,  // measure 54
1000
0010
1000
0001
1000
0100
1000
0010
,  // measure 55
0100
0001
0100
1000
0000
0100
0001
0000
,  // measure 56
0001
0000
0010
0000
0001
0000
0100
0000
0001
0000
1000
0000
0001
0010
0001
0000
,  // measure 57
0200
0000
0000
0000
0300
0000
0000
0000
0101
0000
0000
0000
0000
0000
0000
0000
0001
0000
0100
0000
0001
0000
0010
0000
0100
0000
0000
0100
0000
0000
0100
0000
,  // measure 58
2000
0000
0000
0000
3000
0000
0000
0000
1010
0000
0000
0000
0000
0000
0000
0000
1000
0000
0100
0000
1000
0000
0001
0000
0100
0000
0000
0100
0000
0000
0100
0000
,  // measure 59
0002
0000
0000
0000
0003
0000
0000
0000
0011
0000
0000
0000
0000
0000
0000
0000
0001
0000
0010
0000
1000
0000
0010
0000
0100
0000
0000
0100
0000
0000
0100
0000
,  // measure 60
2000
0000
3000
0000
1100
0000
0000
0000
1000
0010
0100
0001
0010
0000
0000
0000
,  // measure 61
0100
0000
1020
0000
0130
0100
1000
1000
,  // measure 62
0200
0000
0320
0000
0230
0000
0301
0010
0001
0000
1000
0000
0100
0000
0001
0000
,  // measure 63
0100
0000
0010
0000
0001
0000
0100
0000
0010
0000
2000
0000
3002
0000
0103
0001
,  // measure 64
0200
0000
0301
0001
1000
0100
0010
0100
,  // measure 65
1000
0000
0021
0000
1030
1000
0010
0010
,  // measure 66
0002
0000
2003
0000
3002
0000
0103
0010
0100
0000
0010
0000
1000
0000
0001
0000
,  // measure 67
1000
0010
1000
0010
0001
0010
0001
0010
,  // measure 68
1000
0000
0100
0000
0010
0000
0001
0000
0010
0000
0000
0110
0000
0000
1100
0000
,  // measure 69
2000
3000
1200
0000
1300
0010
0100
0100
,  // measure 70
0001
0100
1000
0002
0023
2030
3002
0000
,  // measure 71
0013
0001
0010
0000
0100
0000
1000
0000
0001
0000
1000
0000
0100
0000
1000
0000
,  // measure 72
0020
0032
0013
0100
0001
0010
0200
0300
,  // measure 73
1000
0000
0201
0000
0320
0000
1030
1000
,  // measure 74
0001
0010
0100
0002
0203
2300
3020
0000
,  // measure 75
1030
0100
1000
0000
0001
0000
0100
0000
0010
0100
0010
0000
0100
0000
0001
0000
,  // measure 76
0010
0000
1000
0000
0010
0000
0001
0000
0100
0000
0010
0000
1000
0001
1000
0001
,  // measure 77
0200
0000
0000
0000
,  // measure 78
0302
0000
0000
0000
,  // measure 79
2003
0000
0000
0000
,  // measure 80
3200
0000
0320
0000
,  // measure 81
0230
0000
0000
0000
,  // measure 82
2300
0000
0000
0000
,  // measure 83
3002
0000
0000
0000
,  // measure 84
0203
0000
0020
0000
,  // measure 85
0330
0000
0000
0000
;

//---------------dance-single - ----------------
#NOTES:
     dance-single:
     :
     Challenge:
     12:
     0.767425,1.050085,0.286930,0.669504,0.769133,674.000000,638.000000,36.000000,84.000000,0.000000,0.000000,0.767425,1.050085,0.286930,0.669504,0.769133,674.000000,638.000000,36.000000,84.000000,0.000000,0.000000:
// measure 0
0000
0000
0000
0000
,  // measure 1
0000
0000
0000
0000
,  // measure 2
0000
0000
0000
0000
,  // measure 3
0000
0000
0000
0000
,  // measure 4
0000
0000
0000
0000
,  // measure 5
1020
0000
0000
0000
,  // measure 6
2030
0000
0000
0000
,  // measure 7
3200
0000
0000
0000
,  // measure 8
0302
0000
0023
0000
,  // measure 9
1030
0100
1100
1000
0000
0001
0101
0000
,  // measure 10
0001
0000
0010
0000
0110
0000
0010
0000
0001
0000
1000
0100
0010
0100
1000
0000
,  // measure 11
0001
0100
0110
0100
0000
0001
0011
0000
,  // measure 12
0100
0000
1000
0000
1001
0000
0001
0000
0100
0000
0010
0100
0001
0100
0010
0000
,  // measure 13
1000
0001
0011
0001
0000
1000
1010
0000
,  // measure 14
0010
0000
1000
0000
0100
0000
0001
0000
0100
0000
1000
0001
0100
0001
1000
0000
,  // measure 15
0010
1000
1100
0100
0000
0010
0011
0000
,  // measure 16
0010
0000
0001
0000
0100
0000
1000
0000
0100
0000
0001
0010
0100
1000
0100
0000
,  // measure 17
2000
0010
0000
0010
,  // measure 18
0000
0001
0000
0001
,  // measure 19
3002
0100
0000
0100
,  // measure 20
0000
1000
0000
1003
,  // measure 21
0100
1000
0001
1000
0100
1000
0001
1000
,  // measure 22
0010
1000
0001
1000
0010
1000
0001
1000
,  // measure 23
0010
0100
0001
0100
0010
1000
0001
1000
0100
0010
0001
0010
0100
1000
0001
1000
,  // measure 24
0200
0000
0000
0310
,  // measure 25
0002
0000
0003
0000
2001
0000
0000
0000
3010
1000
0100
1000
0002
0000
0000
0000
,  // measure 26
0103
0000
0100
0000
0110
0000
0010
1000
0001
1000
0100
0000
0020
0000
0000
0000
,  // measure 27
0130
1000
0100
1000
0001
0100
0001
0100
0010
0000
2000
0000
3002
0000
1003
0100
,  // measure 28
1000
0000
0001
0000
0100
0001
0100
0010
0100
0000
0001
0000
0010
0000
0000
0000
,  // measure 29
0200
0000
0300
0000
1002
0000
0000
0000
1003
0100
1000
0001
0020
0000
0000
0000
,  // measure 30
0130
0000
0100
0000
1000
0000
0010
1000
0001
0010
0001
0000
2000
0000
0000
0000
,  // measure 31
3001
0100
0001
0100
0010
0100
0010
0100
0010
1000
0010
1000
0001
1000
0001
1000
,  // measure 32
0100
0000
0010
0001
0100
0000
0010
1000
0100
1000
0100
1000
0001
1000
0010
1000
,  // measure 33
0001
0000
0000
0000
0012
0000
0000
0000
2003
0000
0000
0000
3010
1000
0010
1000
,  // measure 34
0010
0100
0001
0100
0010
0000
2000
0000
3002
0000
0023
0000
2030
0000
0000
0000
,  // measure 35
3001
0100
0001
0100
1000
0000
0010
1000
0010
0100
0010
0000
1000
0000
1000
0100
,  // measure 36
1000
0010
1000
0000
0001
0000
0010
0001
0100
0010
1000
0000
0002
0000
0000
0000
,  // measure 37
0203
0000
0300
0000
2010
0000
0000
0000
3002
0000
0000
0000
1003
0100
1000
0100
,  // measure 38
0010
0001
1000
0001
0010
0001
2000
0000
3020
0000
0230
0000
0302
0000
0000
0000
,  // measure 39
1003
0100
1000
0100
0010
0100
0010
0100
0010
0001
0010
0001
1000
0001
1000
0001
,  // measure 40
0100
0000
0010
1000
0100
0000
0010
0001
0100
0001
0100
0001
1000
0001
0010
0001
,  // measure 41
2000
0001
0000
0001
,  // measure 42
0000
0010
0000
0010
,  // measure 43
0000
0100
0000
0100
,  // measure 44
0000
0001
0000
3001
,  // measure 45
0100
0001
1000
0001
0100
0001
1000
0001
,  // measure 46
0010
0001
1000
0001
0010
0001
1000
0001
,  // measure 47
0010
0100
1000
0100
0010
0001
1000
0001
0100
0010
1000
0010
0100
0001
1000
0001
,  // measure 48
0200
0000
0000
0310
,  // measure 49
1000
0000
0010
0100
0010
0000
0100
0000
0001
0000
0020
0000
0031
0000
0000
0000
,  // measure 50
0001
0010
0100
0000
1000
0000
0010
0100
0001
0000
1000
0000
0001
0010
0001
0000
,  // measure 51
1000
0000
0001
0100
0001
0000
1000
0000
0010
0000
0200
0000
0310
0000
0000
0000
,  // measure 52
1000
0010
0100
0000
0001
0000
0010
0100
1000
0000
0010
0000
0100
0001
0100
0000
,  // measure 53
0010
0000
1000
0001
1000
0000
0100
0000
0010
0000
0200
0000
1300
0000
0000
0000
,  // measure 54
0001
0100
1000
0000
0001
0000
1000
0100
0001
0000
1000
0000
0001
0010
0100
0000
,  // measure 55
1000
0000
0100
0010
0100
0000
1000
0000
0001
0000
0200
0000
0301
0000
0000
0000
,  // measure 56
1000
0010
0001
0000
1000
0000
0001
0010
1000
0000
0001
0100
0001
0010
0100
0000
,  // measure 57
2000
0000
0000
0000
0000
0000
3010
0000
1010
0000
0010
0000
0000
0000
0100
0000
0101
0000
0000
0000
0000
0000
0001
0000
0011
0000
0000
1001
0000
0000
0101
0000
,  // measure 58
0200
0000
0000
0000
0000
0000
0310
0000
0110
0000
0000
0000
0100
0000
0000
0000
0000
0000
0001
0000
1000
0000
0010
0000
1010
0000
0000
0110
0000
0000
0101
0000
,  // measure 59
0002
0000
0000
0000
0000
0000
0013
0000
0011
0000
0010
0000
0000
0000
0100
0000
1100
0000
0000
0000
0000
0000
1000
0000
1010
0000
0000
1001
0000
0000
1100
0000
,  // measure 60
0200
0000
0000
0310
0110
0000
0100
0000
0000
1000
0001
0010
0011
0000
0000
0000
,  // measure 61
0002
0000
0003
0000
2100
0000
0000
0000
3001
0010
0100
0010
0001
1000
0100
1000
,  // measure 62
0020
0000
2030
0000
3002
0000
0013
0100
1000
0100
1000
0000
0010
0100
0001
0100
,  // measure 63
0002
0000
1003
0100
1000
0010
0100
0010
0100
0001
2000
0000
3002
0000
0013
0001
,  // measure 64
0200
0000
0000
0000
0310
1000
0010
1000
0001
0010
0001
0010
0100
0000
1000
0100
,  // measure 65
2000
0000
3000
0000
0102
0000
0000
0000
1003
0100
1000
0100
0010
0100
0010
0100
,  // measure 66
2000
0000
3020
0000
0230
0000
0301
0010
0001
0010
0100
0000
1000
0000
0001
0100
,  // measure 67
0001
0100
0001
0100
0010
0100
0010
0100
0010
1000
0010
1000
0001
1000
0001
1000
,  // measure 68
0100
0000
0010
0001
0100
0000
0010
1000
0100
1000
0100
1000
0001
1000
0010
1000
,  // measure 69
0002
0000
0003
0000
1020
0000
0000
0000
0130
0001
1000
0001
0010
0001
0010
0001
,  // measure 70
1000
0100
1000
0010
1000
0000
0002
0000
0203
0000
0320
0000
0230
0000
0000
0000
,  // measure 71
0301
0010
0100
0010
0001
0010
0100
0010
0002
0000
1003
0010
0200
0000
0301
1000
,  // measure 72
0200
0000
0320
0000
0130
1000
0100
0010
0001
0000
0100
0000
0020
0000
0030
0000
,  // measure 73
2000
0000
3000
0000
0021
0000
0000
0000
0032
0000
0000
0000
1003
0010
1000
0010
,  // measure 74
0100
0001
1000
0100
1000
0001
0020
0000
0032
0000
2003
0000
3020
0000
0000
0000
,  // measure 75
1030
0100
1000
0100
0010
0100
0010
0100
0010
0001
0010
0001
1000
0001
1000
0001
,  // measure 76
0100
0000
0010
1000
0100
0000
0010
0001
0100
0001
0100
0001
1000
0001
0010
0001
,  // measure 77
2000
0000
0000
0000
,  // measure 78
3002
0000
0000
0000
,  // measure 79
0203
0000
0000
0000
,  // measure 80
0320
0000
0230
0000
,  // measure 81
0302
0000
0000
0000
,  // measure 82
0023
0000
0000
0000
,  // measure 83
0230
0000
0000
0000
,  // measure 84
2300
0000
0002
0000
,  // measure 85
3003
0000
0000
0000
;
