#TITLE:Lion Eddie;
#SUBTITLE:;
#ARTIST:Me & My;
#TITLETRANSLIT:;
#SUBTITLETRANSLIT:;
#ARTISTTRANSLIT:;
#GENRE:;
#CREDIT:;
#BANNER:[Zoology] - Lion Eddie.png;
#BACKGROUND:[Zoology] - Lion Eddie-bg.png;
#LYRICSPATH:;
#CDTITLE:cdtitle.png;
#MUSIC:[Zoology] - Lion Eddie.ogg;
#OFFSET:-0.230268;
#SAMPLESTART:49.599979;
#SAMPLELENGTH:12.000000;
#SELECTABLE:YES;
#BPMS:0.000000=136.000000
;
#STOPS:
;
#BGCHANGES:0.000=[Zoology] - Lion Eddie.avi=0.000=0=0=1=====,
99999=-nosongbg-=1.000=0=0=0 // don't automatically add -songbackground-
;
#KEYSOUNDS:;
#ATTACKS:;

//---------------dance-single - ----------------
#NOTES:
     dance-single:
     :
     Hard:
     8:
     0.488951,0.593071,0.200819,0.130969,0.314325,392.000000,369.000000,23.000000,15.000000,0.000000,0.000000,0.488951,0.593071,0.200819,0.130969,0.314325,392.000000,369.000000,23.000000,15.000000,0.000000,0.000000:
// measure 0
0000
0000
0000
0000
,  // measure 1
1000
0000
0000
0001
0000
0000
1000
0000
0000
0010
0000
0000
1000
0000
0001
0000
,  // measure 2
0010
0000
0000
0100
0000
0000
0010
0000
0000
0001
0000
0000
0010
0000
0001
0000
,  // measure 3
0100
0000
0000
1000
0000
0000
0100
0000
0000
0010
0000
0000
0100
0000
0010
0000
,  // measure 4
1000
0000
0000
0100
0000
0000
1000
0000
0000
0010
0000
0000
1000
0000
0100
0000
,  // measure 5
0010
0000
0000
0100
0000
0000
0010
0000
0000
1000
0000
0000
0010
0000
0001
0000
,  // measure 6
0100
0000
0000
0001
0000
0000
0100
0000
0000
0010
0000
0000
0100
0000
0100
0000
,  // measure 7
0001
0000
0000
0010
0000
0000
0001
0000
0000
0100
0000
0000
0001
0000
0010
0000
,  // measure 8
0100
0000
0000
0100
0000
0000
1000
0000
0000
1000
0000
0000
0010
0000
0000
0000
,  // measure 9
2002
0000
0000
0000
,  // measure 10
0000
0000
0000
3003
,  // measure 11
0010
0000
0000
0010
1000
0000
0001
0000
2000
0000
0000
0000
3010
0000
0000
0000
,  // measure 12
0100
0000
0000
0100
0001
0000
0010
0000
0002
0000
0000
0000
1003
0000
1000
0000
,  // measure 13
0100
0000
0000
0100
0010
0000
0100
0000
0020
0000
0000
0000
0031
0000
0000
0000
,  // measure 14
1000
0000
0000
1000
0001
0000
0100
0000
0002
0000
0000
0000
0013
0000
0010
0000
,  // measure 15
0100
0000
0000
0100
1000
0000
0010
0000
2000
0000
0000
0000
3100
0000
0000
0000
,  // measure 16
0010
0000
0000
0010
0001
0000
1000
0000
0002
0000
0000
0000
0103
0000
0100
0000
,  // measure 17
0010
0000
0000
0010
1000
0000
0100
0000
2000
0000
0000
0000
3001
0000
0000
0000
,  // measure 18
1000
0000
0000
1000
0010
0000
0100
0000
0020
0000
0000
0000
1030
0000
1000
0000
,  // measure 19
0001
0000
0000
0000
,  // measure 20
0110
0000
0000
0000
1000
0000
0000
0000
1000
0000
0000
0000
1000
0000
0000
0001
,  // measure 21
0000
0000
1000
0000
0010
0000
0100
0000
0001
0000
1000
0000
0100
0000
0010
0100
,  // measure 22
0000
0000
0000
0000
0010
0000
0000
0000
0010
0000
0000
0000
0010
0000
0000
0001
,  // measure 23
0000
0000
1000
0000
0100
0000
0010
0000
0100
0000
1000
0000
0001
0000
0100
0001
,  // measure 24
0000
0000
0000
0000
0001
0000
0000
0000
0001
0000
0000
0000
0001
0000
0000
1000
,  // measure 25
0000
0000
1000
0000
0001
0000
0100
0010
0000
0000
0100
0000
0010
0000
1000
0001
,  // measure 26
0000
0000
0000
0000
0000
0000
0000
0000
0000
0000
0101
0000
0000
1010
0000
0000
,  // measure 27
0120
0000
0000
0130
,  // measure 28
0001
1000
0001
0001
1000
0001
1000
1000
,  // measure 29
0001
0100
0010
1000
0100
0010
0001
0000
,  // measure 30
0100
0010
0100
0100
0010
0100
0010
0010
,  // measure 31
1000
0001
0010
0001
1000
0100
1000
0000
,  // measure 32
0001
1000
0001
0001
1000
0001
1000
1000
,  // measure 33
0001
0100
1000
0100
0001
0100
1000
0000
,  // measure 34
0100
0010
0100
0100
0010
0100
0010
0010
,  // measure 35
1000
0100
0001
0100
1000
0100
0002
0000
,  // measure 36
0103
0000
0000
1000
0000
0000
0001
0000
0000
0010
0000
0000
0001
0000
0100
0000
,  // measure 37
0010
0000
0000
0100
0000
0000
0010
0000
0000
1000
0000
0000
0001
0100
0001
0100
,  // measure 38
0001
0000
0000
0001
0000
0000
1000
0000
0000
0010
0000
0000
1000
0000
0100
0000
,  // measure 39
0010
0000
0000
0100
0000
0000
1000
0000
0000
0001
0000
0000
1000
0000
1000
0000
,  // measure 40
0001
0000
0000
0010
0000
0000
0001
0000
0000
0100
0000
0000
0010
0000
1000
0000
,  // measure 41
0100
0000
0000
0010
0000
0000
0001
0000
0000
1000
0000
0000
1000
0100
1000
0100
,  // measure 42
1000
0000
0000
0001
0000
0000
1000
0000
0000
0100
0000
0000
0100
0000
0010
0000
,  // measure 43
0001
0000
0000
0001
0000
0000
0100
0000
0000
0100
0000
0000
1001
0000
0000
0000
,  // measure 44
0001
0001
0101
0101
0100
0010
1010
1010
,  // measure 45
1000
0100
0010
0001
0100
0010
1000
0001
,  // measure 46
0100
0100
0110
0110
0010
1000
1001
1001
,  // measure 47
0001
0100
1000
0100
0001
1000
0100
0100
,  // measure 48
1000
0001
0011
0011
0001
1000
1100
1100
,  // measure 49
1000
0001
0100
0010
1000
0100
0010
0001
,  // measure 50
0100
0100
0110
0110
1000
0001
1001
1001
,  // measure 51
1000
0100
0001
0100
1000
0010
0200
0000
,  // measure 52
0310
0000
0000
1000
0000
0000
0001
0000
0000
0100
0000
0000
0001
0000
1000
0000
,  // measure 53
0001
0000
0000
0100
0000
0000
0010
0000
0000
0100
0000
0000
0001
0010
0100
1000
,  // measure 54
0001
0000
0000
0010
0000
0000
0001
0000
0000
0100
0000
0000
0010
0000
0100
0000
,  // measure 55
0010
0000
0000
1000
0000
0000
0001
0000
0000
1000
0000
0000
0001
0000
0001
0000
,  // measure 56
1000
0000
0000
0010
0000
0000
1000
0000
0000
0001
0000
0000
1000
0000
0100
0000
,  // measure 57
1000
0000
0000
0001
0000
0000
0100
0000
0000
0010
0000
0000
1000
0100
0010
0001
,  // measure 58
0100
0000
0000
0100
0000
0000
0001
0000
0000
0100
0000
0000
0010
0000
1000
0000
,  // measure 59
0100
0000
0000
0010
0000
0000
0001
0000
0000
1000
0000
0000
0001
0000
0100
0000
,  // measure 60
0220
0000
0000
0000
,  // measure 61
0000
0000
0000
0330
;

//---------------dance-single - ----------------
#NOTES:
     dance-single:
     :
     Medium:
     6:
     0.325551,0.377409,0.017463,0.113506,0.000000,261.000000,259.000000,2.000000,13.000000,0.000000,0.000000,0.325551,0.377409,0.017463,0.113506,0.000000,261.000000,259.000000,2.000000,13.000000,0.000000,0.000000:
0000
0000
0000
0000
,
1000
0001
1000
0001
1000
0001
1000
0001
,
0000
0000
0000
0000
,
0100
0010
0100
0010
0100
0010
0100
0010
,
0000
0000
0000
0000
,
1000
0001
1000
0001
1000
0001
1000
0001
,
0000
0000
0000
0000
,
0100
0010
0100
0010
0100
0010
0100
0010
,
1000
0001
1000
0001
,
0220
0000
0000
0000
,
0000
0000
0000
0330
,
1000
0000
0001
1000
0200
0000
1300
0000
,
0000
0000
0001
0100
0020
0000
0100
0130
,
0000
0000
0001
0010
0002
0000
1003
0000
,
0000
0000
1000
0100
2000
0000
3001
0001
,
0100
0000
1000
0100
0002
0000
0103
0000
,
0000
0000
0010
1000
0020
0000
1030
1000
,
0000
0000
1000
0100
0002
0000
0103
0000
,
0000
0000
0100
0010
0002
0000
1003
1000
,
0001
0000
0000
0000
,
1000
0001
1000
1000
,
0010
0000
0100
0000
0001
1000
0001
1000
,
0001
1000
1000
0100
,
0010
0000
0001
0000
0100
0010
0100
0010
,
0100
0010
0010
0010
,
1000
0001
1000
0100
,
0010
0001
0100
0001
,
2000
0000
0000
3001
,
1000
0000
0001
0001
0100
0000
0001
0001
,
0100
1000
0010
0001
,
0100
0000
0010
0010
1000
0000
0010
0010
,
1000
0100
0001
0010
,
1000
0000
0001
0001
0100
0000
0001
0001
,
0100
1000
0010
0001
,
1000
0000
0010
0010
0100
0000
0010
0010
,
0100
0001
0010
1000
,
0100
1000
0100
0010
,
0001
0000
0010
0000
0001
0000
0100
0010
,
0100
0100
0010
0010
,
1000
1000
0001
0001
,
0001
0010
0001
0010
,
0001
0000
0100
0000
0001
0000
0100
0010
,
0100
0010
0010
1000
,
1000
0001
0001
1000
,
0100
0000
0010
0010
0001
0000
0010
0010
,
0001
0100
1000
0010
,
0001
0000
0100
0100
0010
0000
0100
0100
,
0010
1000
0100
0001
,
0010
0000
0001
0001
0100
0000
0001
0001
,
0100
1000
0010
0001
,
1000
0000
0100
0100
1000
0000
0100
0100
,
1000
0010
0001
0100
,
1000
0010
1000
0100
,
1000
0000
0010
0000
1000
0000
0100
0010
,
0001
0100
0001
0010
,
0001
0100
0010
1000
,
0010
1000
0100
0010
,
0100
0000
0010
0000
0001
0000
0100
0010
,
0100
0001
1000
0100
,
0010
0001
1000
0001
,
2002
0000
0000
0000
,
0000
0000
0000
3003
;

//---------------dance-single - ----------------
#NOTES:
     dance-single:
     :
     Easy:
     4:
     0.228260,0.288132,0.043656,0.000000,0.000000,183.000000,178.000000,5.000000,0.000000,0.000000,0.000000,0.228260,0.288132,0.043656,0.000000,0.000000,183.000000,178.000000,5.000000,0.000000,0.000000,0.000000:
0000
0000
0000
0000
,
1000
1000
0001
0001
,
0100
0000
0000
0000
,
0001
0001
1000
1000
,
0010
0000
0000
0000
,
0100
0100
0001
0001
,
1000
0000
0000
0000
,
0100
0100
0010
0010
,
0001
0100
0010
1000
,
1001
0000
0000
0000
,
0000
0000
0000
0000
,
0001
1000
0100
0100
,
1000
0010
0100
0100
,
0100
0001
0010
0010
,
0001
0100
0010
0010
,
1000
0001
1000
1000
,
0100
1000
0001
0001
,
0100
0001
0010
0010
,
0100
0010
0001
0100
,
0010
0000
0000
0000
,
1000
1000
1000
0000
,
0001
0000
0001
0000
,
0100
0100
0100
0000
,
0010
0000
0010
0000
,
1000
1000
1000
0000
,
0001
0000
0001
0000
,
1000
0000
1000
0100
,
0010
0000
0000
0001
,
0001
0001
0100
0100
,
0010
1000
0001
1001
,
1000
0100
0010
0001
,
0100
0010
1000
1010
,
1000
0100
1000
0100
,
1000
0001
0100
0110
,
0010
0100
0001
1000
,
0100
1000
0001
1000
,
0001
0000
0001
0000
,
0001
0000
1000
1000
,
1000
0000
1000
0000
,
1000
0000
0010
0000
,
0010
0000
0010
0000
,
0100
0000
0100
0100
,
0100
0000
0001
0000
,
0001
0000
0010
0000
,
0010
0001
0010
0001
,
0100
0100
0010
0010
,
1000
0010
1000
0010
,
0010
0100
0100
0001
,
1000
0100
1000
0100
,
0010
0001
0100
0100
,
0001
0010
0010
0001
,
1000
0100
1000
1000
,
0001
0000
0001
0000
,
0001
0000
1000
1000
,
1000
0000
0010
0000
,
0010
0000
0100
0000
,
0100
0000
0001
0000
,
0001
0000
0010
0010
,
0010
0000
0001
0000
,
0100
0000
0000
0010
,
1001
0000
0000
0000
;

//---------------dance-single - ----------------
#NOTES:
     dance-single:
     :
     Beginner:
     1:
     0.094797,0.130969,0.000000,0.000000,0.000000,76.000000,76.000000,0.000000,0.000000,0.000000,0.000000,0.094797,0.130969,0.000000,0.000000,0.000000,76.000000,76.000000,0.000000,0.000000,0.000000,0.000000:
0000
0000
0000
0000
,
1000
0000
0000
0000
,
0000
0000
0000
0000
,
0001
0000
0000
0000
,
0000
0000
0000
0000
,
1000
0000
0000
0000
,
0000
0000
0000
0000
,
0001
0000
0000
0000
,
0100
0100
0100
0000
,
0000
0000
0000
0000
,
0000
0000
0000
0000
,
0000
0000
0001
0000
,
0000
0000
0001
1000
,
0000
0000
1000
0000
,
0000
0000
1000
0001
,
0000
0000
0001
0000
,
0000
0000
0001
1000
,
0000
0000
1000
0000
,
0000
0000
1000
0001
,
0000
0000
0000
0000
,
0100
0000
0000
0000
,
0100
0000
0000
0000
,
0100
0000
0000
0000
,
0010
0000
0000
0000
,
0010
0000
0000
0000
,
0010
0000
0000
0000
,
1000
0000
0000
0000
,
0100
0000
0000
0000
,
0001
0001
0001
0001
,
0000
0000
0000
0000
,
1000
1000
1000
1000
,
0000
0000
0000
0000
,
0010
0010
0010
0010
,
0000
0000
0000
0000
,
0100
0100
0100
0100
,
0000
0000
0000
0000
,
0001
0000
0000
0000
,
1000
0000
0000
0000
,
0010
0000
0000
0000
,
0100
0000
0000
0000
,
0001
0000
0000
0000
,
0010
0000
0000
0000
,
0100
0000
0000
0000
,
1000
0000
0000
0000
,
0001
0001
0001
0001
,
0000
0000
0000
0000
,
1000
1000
1000
1000
,
0000
0000
0000
0000
,
0001
0001
0001
0001
,
0000
0000
0000
0000
,
1000
1000
1000
1000
,
0000
0000
0000
0000
,
0010
0000
0000
0000
,
0010
0000
0000
0000
,
0100
0000
0000
0000
,
0100
0000
0000
0000
,
0001
0000
0000
0000
,
0010
0000
0000
0000
,
0100
0000
0000
0000
,
1000
0000
0000
0000
,
0001
0000
0000
0000
;
