#TITLE:LEO;
#SUBTITLE:;
#ARTIST:tacica;
#TITLETRANSLIT:;
#SUBTITLETRANSLIT:;
#ARTISTTRANSLIT:;
#GENRE:J-Rock;
#CREDIT:;
#BANNER:[Zoology] - LEO.png;
#BACKGROUND:[Zoology] - LEO-bg.png;
#LYRICSPATH:;
#CDTITLE:cdtitle.png;
#MUSIC:[Zoology] - LEO.ogg;
#OFFSET:-0.388000;
#SAMPLESTART:57.219002;
#SAMPLELENGTH:15.000000;
#SELECTABLE:YES;
#BPMS:0.000000=163.000000
;
#STOPS:
;
#BGCHANGES:-1.000=[Zoology] - LEO.avi=1.000=0=0=0=StretchNoLoop==CrossFade_Fastest==,
99999=-nosongbg-=1.000=0=0=0 // don't automatically add -songbackground-
;
#KEYSOUNDS:;
#ATTACKS:;

//---------------dance-single - ----------------
#NOTES:
     dance-single:
     :
     Beginner:
     1:
     0.116402,0.161847,0.011162,0.022324,0.000000,73.000000,72.000000,1.000000,2.000000,0.000000,0.000000,0.116402,0.161847,0.011162,0.022324,0.000000,73.000000,72.000000,1.000000,2.000000,0.000000,0.000000:
0000
0000
0000
0000
,
0000
0000
0000
0000
,
0000
0000
0000
0000
,
0000
0000
0000
0000
,
1000
0000
0000
0000
,
1000
0000
0000
0000
,
0010
0000
0000
0000
,
0010
0000
0000
0000
,
0100
0000
0000
0000
,
0100
0000
0000
0000
,
0001
0000
0000
0000
,
0001
0000
0000
0000
,
1000
0000
1000
0000
,
1000
0000
0000
0000
,
0001
0000
0001
0000
,
0001
0000
0000
0000
,
0100
0000
0100
0000
,
0100
0000
0000
0000
,
0010
0000
0010
0000
,
0010
0000
0000
0000
,
1000
0000
1000
0000
,
0010
0000
0010
0000
,
0100
0000
0100
0000
,
0001
0000
0000
0000
,
0001
0000
0001
0000
,
0010
0000
0010
0000
,
0100
0000
0100
0000
,
2000
0000
0000
0000
,
0000
0000
3000
0000
,
0002
0000
0000
0000
,
0000
0000
0003
0000
,
1000
0000
0000
0000
,
1000
0000
0000
0000
,
0001
0000
0000
0000
,
0001
0000
0000
0000
,
0010
0000
0000
0000
,
0010
0000
0000
0000
,
0100
0000
0000
0000
,
0100
0000
0000
0000
,
1000
0000
1000
0000
,
1000
0000
0000
0000
,
0001
0000
0001
0000
,
0100
0000
0000
0000
,
0100
0000
0100
0000
,
0100
0000
0000
0000
,
0010
0000
0010
0000
,
1000
0000
1000
0000
,
0001
0000
0001
0000
,
0001
0000
0000
0000
,
1000
0000
1000
0000
,
0100
0000
0000
0000
,
0100
0000
0100
0000
,
0100
0000
0000
0000
,
0010
0000
0010
0000
,
0001
0000
0000
0000
,
1000
0000
0000
0000
,
1000
0000
0000
0000
,
0001
0000
0000
0000
,
1001
0000
0000
0000
;

//---------------dance-single - ----------------
#NOTES:
     dance-single:
     :
     Easy:
     3:
     0.208886,0.263419,0.000000,0.290208,0.000000,131.000000,131.000000,0.000000,26.000000,0.000000,0.000000,0.208886,0.263419,0.000000,0.290208,0.000000,131.000000,131.000000,0.000000,26.000000,0.000000,0.000000:
0000
0000
0000
0000
,
0000
0000
0000
0000
,
0000
0000
0000
0000
,
0000
0000
0000
0000
,
2000
0000
0000
3000
,
0002
0000
0000
0003
,
0200
0000
0000
0300
,
0020
0000
0000
0030
,
2000
0000
0000
3000
,
0200
0000
0000
0300
,
0020
0000
0000
0030
,
0002
0000
0000
0003
,
1000
0010
0000
1000
,
0001
0010
0000
0001
,
1000
0100
0000
1000
,
0001
0100
0000
0001
,
1000
0010
0000
0100
,
0001
0010
0000
0100
,
1000
0100
0000
0010
,
0001
0100
0010
1000
,
0002
0003
0010
0001
,
2000
3000
0010
1000
,
0200
0300
0010
0001
,
1000
1000
0001
0001
,
2000
3000
0010
1000
,
0002
0003
0100
0001
,
0200
0300
0010
1000
,
0001
0000
0100
0000
,
0001
0000
0100
0001
,
1000
0000
0010
0000
,
1000
0000
0010
1000
,
0002
0000
0000
0003
,
0200
0000
0000
0300
,
0020
0000
0000
0030
,
2000
0000
0000
3000
,
0002
0000
0000
0003
,
0020
0000
0000
0030
,
0200
0000
0000
0300
,
1000
1000
1000
0000
,
0001
0100
1000
0000
,
1000
0010
0001
0000
,
0001
0100
1000
0100
,
0001
0000
1000
1000
,
0001
0010
0100
0000
,
1000
0010
0100
0000
,
0001
0010
1000
0010
,
0001
1000
0001
0000
,
1000
0100
0001
0000
,
0001
0010
1000
0000
,
1000
0100
0001
0100
,
1000
0000
0001
0001
,
1000
0010
0100
0000
,
0001
0010
0100
0000
,
1000
1000
0001
0000
,
0020
0000
0030
0000
,
0002
0000
1003
0000
,
2000
0000
3001
0000
,
0020
0000
0130
0000
,
0200
0000
0000
0000
,
0300
0000
0000
0000
;

//---------------dance-single - ----------------
#NOTES:
     dance-single:
     :
     Medium:
     5:
     0.350801,0.428056,0.279046,0.613901,0.000000,220.000000,195.000000,25.000000,55.000000,0.000000,0.000000,0.350801,0.428056,0.279046,0.613901,0.000000,220.000000,195.000000,25.000000,55.000000,0.000000,0.000000:
0000
0000
0000
0000
,
0000
0000
0000
0000
,
0000
0000
0000
0000
,
0000
0000
0000
0000
,
2000
0000
0000
3010
0000
0000
1000
0000
,
0002
0000
0000
0103
0000
0000
0001
0000
,
2000
0000
0000
3100
0000
0000
1000
0000
,
0002
0000
0000
0013
0000
0000
0001
0000
,
2000
0000
0000
3100
0000
0000
1000
0000
,
0002
0000
0000
0013
0000
0000
0001
0000
,
2000
0000
0000
3010
0000
0000
1000
0000
,
0002
0000
0000
0103
0000
0000
0001
0000
,
1000
1100
0100
0010
,
0001
0101
0100
0010
,
1000
1010
0010
0100
,
0001
0011
0010
0100
,
1000
1001
0001
0100
,
0001
1001
1000
0100
,
1000
1001
0001
0010
,
0001
0000
1000
0000
0100
0010
0100
0000
,
2000
0010
3002
0010
,
2003
0100
3002
0100
,
2003
0010
3002
0100
,
1003
1010
0110
0101
,
0002
0010
2003
0010
,
3002
0100
2003
0100
,
3002
0010
2003
3100
,
1002
0100
0100
0100
,
0100
0100
0103
0001
,
2001
0010
0010
0010
,
0010
0010
3010
1000
,
2002
0000
0000
3003
,
0022
0000
0000
0033
,
2200
0000
0000
3300
,
2002
0000
0000
3003
,
0202
0000
0000
0303
,
2020
0000
0000
3030
,
2200
0000
0000
3300
,
1000
0010
1000
0000
0001
0100
0001
0000
,
1000
0100
0001
0100
,
1000
0010
1000
0000
0100
0000
0010
0000
,
0001
0100
0001
0000
1000
0000
0001
0000
,
2002
0000
3003
0000
1000
0010
1000
0000
,
0002
0100
0203
0010
,
0320
1000
2030
3001
,
1000
0100
0010
0001
,
1000
1010
0110
0101
,
0001
0100
1000
0100
,
0001
0010
0001
0000
0100
0000
0010
0000
,
1000
0100
1000
0000
0001
0000
1000
0000
,
2002
0000
3003
0000
0001
0010
0001
0000
,
2000
0100
3200
0010
,
0320
0001
0032
1003
,
0002
0100
0103
0001
,
2000
0010
0020
3030
,
2000
0100
3100
1000
,
0001
0100
0000
0100
0001
0000
1000
0000
,
0002
0010
0013
0001
,
2002
0000
0000
0000
,
3003
0000
0000
0000
;

//---------------dance-single - ----------------
#NOTES:
     dance-single:
     :
     Hard:
     8:
     0.534174,0.658548,0.412988,0.580415,0.033486,335.000000,298.000000,37.000000,52.000000,0.000000,0.000000,0.534174,0.658548,0.412988,0.580415,0.033486,335.000000,298.000000,37.000000,52.000000,0.000000,0.000000:
// measure 0
0000
0000
0000
0000
,  // measure 1
0000
0000
0000
0000
,  // measure 2
0000
0000
0000
0000
,  // measure 3
0000
0000
0000
0000
,  // measure 4
1000
0000
1000
0020
0000
0000
2030
0000
,  // measure 5
3001
0000
0001
0020
0000
0000
0032
0000
,  // measure 6
1003
0000
1000
0200
0000
0000
2300
0000
,  // measure 7
3001
0000
0001
0200
0000
0000
0302
0000
,  // measure 8
1003
0000
1000
0002
0000
0000
1003
0001
,  // measure 9
0100
0000
0100
0002
0000
0000
2003
0000
,  // measure 10
3001
0000
0001
2000
0000
0000
3001
1000
,  // measure 11
0100
0000
0100
2000
0000
0000
3001
0000
,  // measure 12
1000
0001
2001
0000
3010
0000
0101
0000
,  // measure 13
0001
1000
1002
0000
0013
0000
1100
0000
,  // measure 14
1000
0001
0201
0000
0310
0000
1001
0000
,  // measure 15
0001
1000
1200
0000
0310
0000
1001
0000
,  // measure 16
0001
0100
0210
0000
0301
0000
1010
0000
,  // measure 17
1000
0100
0210
0000
1300
0000
0011
0000
,  // measure 18
0001
1000
2010
0000
3100
0000
1001
0000
,  // measure 19
0001
0010
0100
1000
0010
0100
0001
1000
,  // measure 20
1020
0000
0001
0000
1030
0100
0001
0100
,  // measure 21
2000
0000
0010
0000
3001
1000
0010
1000
,  // measure 22
0200
0000
0001
0000
1300
0010
0100
0001
,  // measure 23
0011
1010
1100
0101
,  // measure 24
0021
0000
1000
0000
0031
0100
1000
0100
,  // measure 25
0002
0000
0010
0000
1003
0001
0010
0001
,  // measure 26
0200
0000
1000
0000
0301
0010
0100
1000
,  // measure 27
1002
0100
2003
0100
,  // measure 28
3002
0000
0010
0000
1003
0010
0100
0001
,  // measure 29
1000
0100
1000
0100
0010
0001
0010
0001
,  // measure 30
1000
0010
0100
0001
0010
0100
1000
0000
,  // measure 31
2002
0000
0000
3003
,  // measure 32
0022
0000
0000
0033
,  // measure 33
2200
0000
0000
3300
,  // measure 34
0220
0000
0000
0330
,  // measure 35
0012
0000
0000
0100
0000
1000
1003
0000
,  // measure 36
2100
0000
0000
0010
0000
0001
3001
0000
,  // measure 37
1000
0100
0001
0100
1000
0000
1001
0000
,  // measure 38
0001
0000
0010
0000
1000
0000
0010
0000
0001
0000
1000
0001
1000
0001
1000
0001
,  // measure 39
1000
0100
0001
0100
1000
0010
0001
0010
,  // measure 40
1000
0100
0010
0001
1000
0010
1000
0001
,  // measure 41
0100
0001
1000
0100
0010
0001
0100
0000
,  // measure 42
0110
0000
1001
0000
1000
0001
0100
0010
,  // measure 43
2000
0000
3100
0010
0002
0000
0103
1000
,  // measure 44
0100
0001
0010
0100
2000
0001
3001
0000
,  // measure 45
1000
0001
0010
0001
1000
0010
0100
0001
,  // measure 46
1000
0000
0100
1000
0100
0000
0010
0000
0001
0000
1000
0000
0001
1000
0001
1000
,  // measure 47
0001
0100
1000
0100
0001
0010
1000
0010
,  // measure 48
0001
0100
0010
1000
0100
0001
1000
0010
,  // measure 49
0001
1000
0001
0100
0010
1000
0100
0000
,  // measure 50
0110
0000
1001
0000
0001
0100
0010
1000
,  // measure 51
0002
0000
0013
1000
0020
0000
0031
0100
,  // measure 52
0010
1000
0100
0010
0002
1000
1003
0000
,  // measure 53
0012
0000
0100
0000
1003
0001
0100
0010
,  // measure 54
2010
0100
0002
3003
,  // measure 55
0012
0000
0000
1000
1000
0000
0103
0000
,  // measure 56
0001
1000
0010
0100
0001
0000
1000
0000
,  // measure 57
2010
0000
0000
0001
0001
0000
3100
0000
,  // measure 58
2002
0000
0000
0000
,  // measure 59
3003
0000
0000
0000
;
