#VERSION:0.83;
#TITLE:L'oiseau qui danse;
#SUBTITLE:;
#ARTIST:Tennyson;
#TITLETRANSLIT:;
#SUBTITLETRANSLIT:;
#ARTISTTRANSLIT:;
#GENRE:;
#ORIGIN:;
#CREDIT:;
#BANNER:banner.png;
#BACKGROUND:background.png;
#PREVIEWVID:;
#JACKET:jacket.png;
#CDIMAGE:;
#DISCIMAGE:;
#LYRICSPATH:;
#CDTITLE:;
#MUSIC:Tennyson - L'oiseau qui danse.mp3;
#OFFSET:1.179584;
#SAMPLESTART:44.939281;
#SAMPLELENGTH:14.769234;
#SELECTABLE:YES;
#BPMS:0.000=130.000,
67.000=260.000,
183.000=130.000,
246.000=260.000,
332.000=250.000,
333.000=240.000,
334.000=230.000,
335.000=220.000,
336.000=210.000,
337.000=200.000,
338.000=190.000;
#STOPS:67.000=1.154,
79.000=0.231,
123.667=0.115,
124.167=0.115,
124.667=0.231,
129.000=0.231,
160.000=0.231,
183.000=0.231,
183.500=0.231,
246.000=0.692,
253.667=0.231,
260.667=0.231,
305.667=0.115,
306.167=0.115,
306.667=0.231,
311.000=0.231;
#DELAYS:;
#WARPS:;
#TIMESIGNATURES:0.000=4=4;
#TICKCOUNTS:0.000=4;
#COMBOS:0.000=1;
#SPEEDS:0.000=1.000=0.000=0;
#SCROLLS:0.000=1.000;
#FAKES:;
#LABELS:0.000=Song Start;
#BGCHANGES:;
#KEYSOUNDS:;
#ATTACKS:
;

//---------------dance-single - ----------------
#NOTEDATA:;
#CHARTNAME:;
#STEPSTYPE:dance-single;
#DESCRIPTION:;
#CHARTSTYLE:;
#DIFFICULTY:Challenge;
#METER:12;
#RADARVALUES:0.814739,1.246105,0.156251,0.164932,1.358519,657.000000,639.000000,18.000000,19.000000,0.000000,0.000000,0.000000,0.000000,0.000000,0.814739,1.246105,0.156251,0.164932,1.358519,657.000000,639.000000,18.000000,19.000000,0.000000,0.000000,0.000000,0.000000,0.000000;
#CREDIT:;
#NOTES:
// measure 0
0000
0000
0000
0000
,  // measure 1
0000
0000
0000
0000
,  // measure 2
0000
0000
0000
0000
,  // measure 3
0000
0000
0000
0000
,  // measure 4
0000
0000
0000
0000
,  // measure 5
0000
0000
0000
0000
,  // measure 6
0000
0000
0000
0000
,  // measure 7
0000
0000
0000
0000
,  // measure 8
0000
0000
0000
0000
,  // measure 9
1010
0000
0000
0000
0010
0000
1000
0000
0010
0100
0000
0000
0100
0000
0000
0000
,  // measure 10
1001
0000
0000
0000
1000
0000
0100
0000
1000
0010
1000
0001
0000
0000
0000
0000
,  // measure 11
0011
0000
0000
0000
0010
0000
0100
0000
0010
0001
0000
0000
1000
0000
0000
0000
,  // measure 12
0101
0000
0000
0000
0010
0000
1000
0000
0001
1000
0100
0010
0000
0000
0000
0000
,  // measure 13
0101
0000
0000
0000
0100
0000
0001
0000
0100
0010
0000
0000
0010
0000
0000
0000
,  // measure 14
1010
0000
0000
0000
0100
0000
0001
0000
0010
0100
0010
0001
0000
0000
0000
0000
,  // measure 15
0110
0000
0000
0000
0010
0000
0001
0000
1000
0100
0000
0000
0100
0000
0000
0000
,  // measure 16
2002
0000
0000
3003
,  // measure 17
0010
0000
1000
0100
0000
0010
0100
0000
1000
0010
0000
0100
,  // measure 18
0001
0000
0010
0100
0000
0010
0001
0000
1000
0100
0000
0010
,  // measure 19
0001
0000
0100
0010
0000
2000
0000
0000
0000
3010
0000
0000
,  // measure 20
0000
0000
0100
0001
0000
1000
0001
0000
0010
0100
0000
1000
,  // measure 21
0000
0000
0010
1000
0000
0010
0100
0000
0001
0010
0000
0000
,  // measure 22
0000
0001
0100
0001
0000
0100
0000
0010
0000
1000
0000
0010
,  // measure 23
0000
0000
0000
1000
0000
0010
0100
0010
0100
0001
0000
0010
,  // measure 24
0001
0000
1000
0200
0000
0000
0301
0000
0010
0001
0000
0100
,  // measure 25
0020
0000
0000
1030
0000
0001
0010
0000
0100
1000
0000
0010
,  // measure 26
1000
0000
0001
0100
0000
0001
0010
0000
0100
1000
0000
0010
,  // measure 27
0100
0000
0002
0000
0000
0000
1003
0000
0000
0010
0000
1000
,  // measure 28
0100
0000
0010
0100
0000
1000
0001
0010
0001
0100
0000
0010
,  // measure 29
1000
0000
0010
0100
0001
0100
0010
0000
1000
0100
0000
0010
,  // measure 30
0001
0000
1000
0100
0000
0010
0001
0000
0010
0100
0000
1100
,  // measure 31
0000
0110
0000
0000
0011
0000
0100
0000
0000
0000
0000
0000
0010
0000
0000
0000
2000
0000
0000
0000
0000
0000
0000
0000
,  // measure 32
3010
0000
0020
0130
0000
0000
0010
0000
0000
0100
0000
0002
,  // measure 33
0000
0000
0000
0010
0000
0013
0000
0000
0100
0000
0000
0010
,  // measure 34
1000
0001
1000
0100
0000
0022
0000
0000
0000
0033
0000
0000
,  // measure 35
0100
0000
0010
1000
0000
0100
0010
0000
0001
0000
0000
0001
,  // measure 36
1000
0000
0100
0010
0000
0001
0100
0000
0010
0000
0000
0010
,  // measure 37
1000
0000
0001
1000
0000
0010
0100
0000
0010
0100
0000
0001
,  // measure 38
0010
0000
0100
1000
0000
0100
1000
0000
0010
0100
0000
0001
,  // measure 39
1000
0000
0001
1000
0000
0100
0010
0000
0000
0000
0000
0010
,  // measure 40
0002
0003
0010
0100
0000
1000
0010
0000
0100
0001
0000
1000
,  // measure 41
0100
0000
0010
0001
0000
0000
0000
0000
0001
1000
0000
0000
,  // measure 42
0000
0000
0010
0001
0000
0010
0100
0000
1000
0010
0100
0010
,  // measure 43
1000
0000
0001
1000
0000
0000
0100
0010
0100
0010
0000
0001
,  // measure 44
0100
0000
0000
0010
1000
0010
1000
0000
0100
0010
0000
0000
,  // measure 45
0001
0000
0010
0000
0001
0000
0010
0000
0000
0000
0100
0000
1000
0000
0000
0000
0010
0000
0100
0000
0000
1001
0000
0000
,  // measure 46
0101
0000
0000
0000
1000
0000
0001
0000
0100
0001
0000
0000
0010
1000
0100
0010
,  // measure 47
0001
1000
0001
0010
0100
1000
0001
0100
0010
1000
0001
0100
0010
1000
0010
1000
,  // measure 48
0100
0010
0001
1000
0010
0100
0000
0010
0100
0010
1000
0100
0000
0100
0010
0001
,  // measure 49
1000
0010
0000
0010
0100
0001
0010
0100
1000
0010
1000
0001
0100
0010
1000
0100
,  // measure 50
0010
1000
0010
0001
0100
1000
0100
0001
0010
0100
1000
0001
1000
0010
0100
0010
,  // measure 51
1000
0100
1000
0001
0010
0100
0010
0100
1000
0010
0100
0001
0010
1000
0100
0010
,  // measure 52
0001
0100
0001
0010
0100
0010
0001
1000
0010
1000
0001
0100
0010
1000
0100
0010
,  // measure 53
0001
1000
0001
0100
0010
0100
0010
1000
0001
0010
1000
0001
0100
1000
0001
0100
,  // measure 54
0010
0100
0010
1000
0000
0000
1000
0001
1000
0100
0000
0100
0010
0001
0000
0100
,  // measure 55
0001
0010
0100
1000
0000
0000
0010
0100
0001
1000
0010
1000
0100
0001
0000
0100
,  // measure 56
1000
0001
0010
0100
1000
0001
0010
0000
0100
1000
0010
0100
0001
1000
0010
0000
,  // measure 57
1000
0001
0010
0001
0010
0100
1000
0010
0100
0010
1000
0001
0100
0010
1000
0100
,  // measure 58
0010
0001
0010
0100
1000
0001
0100
0010
1000
0001
0010
0001
1000
0100
1000
0010
,  // measure 59
0100
0001
1000
0010
0100
0010
1000
0100
0001
1000
0010
0001
0100
0010
1000
0001
,  // measure 60
0100
0010
0000
0010
0100
0001
1000
0010
1000
0100
0000
0100
0000
0010
0001
1000
,  // measure 61
0100
0010
0001
0100
0010
1000
0001
0010
0100
0000
0000
0000
1100
0000
0000
0000
,  // measure 62
1000
0000
0001
0000
0000
0001
0010
0000
0000
0001
0100
0001
,  // measure 63
1000
0000
0010
0100
0000
0002
0013
0000
0100
1000
0000
0100
,  // measure 64
0010
0001
0010
0100
0000
1000
0001
0000
0010
0100
0000
0010
,  // measure 65
0001
0000
2000
3010
0000
1000
0100
0000
0010
0001
0000
0100
,  // measure 66
0010
0000
1000
0100
0000
0001
0100
0000
1000
0010
0000
0100
,  // measure 67
0001
0000
1000
0010
0000
1000
0100
0000
0010
0001
0000
0100
,  // measure 68
0001
0000
0010
0100
0000
2000
0000
0000
0000
0000
0000
0000
,  // measure 69
0000
0000
0000
0000
3010
0000
0000
0100
0000
0000
0001
0000
0000
0010
0000
0000
,  // measure 70
0100
0000
0000
1000
0000
0000
0010
0100
0010
1000
0000
0100
,  // measure 71
0010
0000
0100
1000
0000
0010
0100
0000
0001
1000
0000
0010
,  // measure 72
1000
0000
0001
0010
0100
1000
0001
0000
0100
0010
0000
1000
,  // measure 73
0000
0000
0000
0010
0000
1000
0100
0000
0010
0001
0000
1000
,  // measure 74
0010
0000
0100
0001
1000
0100
0010
0000
0001
0010
0000
0100
,  // measure 75
1000
0000
0010
0100
0000
0001
0010
0000
1000
0100
0000
1000
,  // measure 76
0010
0000
0001
0000
0000
0000
0100
0000
0000
0000
0110
0000
0000
1100
0000
0000
1001
0000
0100
0000
0000
0000
0000
0000
,  // measure 77
0001
0000
0020
0000
0000
0000
0130
0000
0100
1000
0000
0000
,  // measure 78
1000
0000
0000
0100
0000
0020
0000
0000
0000
0031
0000
0001
,  // measure 79
0000
0000
1000
0000
0000
1000
0001
0010
0001
1000
0000
0200
,  // measure 80
0000
0000
0000
0000
0000
0000
0310
0000
0100
0001
0000
0100
,  // measure 81
1000
0000
0010
0100
0000
0100
0010
0000
1000
0001
0000
0100
,  // measure 82
0010
0000
1000
0000
0000
1000
0100
0000
0010
0001
0000
1000
,  // measure 83
0010
0000
1000
0010
0000
0100
0001
0000
0010
0100
0000
0010
,  // measure 84
0100
0000
1000
0001
0000
0010
0100
0000
0001
0100
0000
1000
,  // measure 85
0020
0000
0000
0000
,  // measure 86
0000
0000
0000
0000
,  // measure 87
0030
0000
0000
0000
;
