#VERSION:0.83;
#TITLE:鴉;
#SUBTITLE:;
#ARTIST:L.E.D.-G;
#TITLETRANSLIT:KARASU;
#SUBTITLETRANSLIT:;
#ARTISTTRANSLIT:;
#GENRE:;
#ORIGIN:;
#CREDIT:;
#BANNER:KARASU.png;
#BACKGROUND:KARASU-bg.png;
#PREVIEWVID:;
#JACKET:KARASU-jacket.png;
#CDIMAGE:;
#DISCIMAGE:;
#LYRICSPATH:;
#CDTITLE:;
#MUSIC:KARASU.mp3;
#OFFSET:-1.028002;
#SAMPLESTART:21.198526;
#SAMPLELENGTH:20.210527;
#SELECTABLE:YES;
#BPMS:0.000=190.000,
223.000=95.000,
239.000=190.000;
#STOPS:159.500=0.316,
302.750=0.316;
#DELAYS:;
#WARPS:;
#TIMESIGNATURES:0.000=4=4;
#TICKCOUNTS:0.000=4;
#COMBOS:0.000=1;
#SPEEDS:0.000=1.000=0.000=0;
#SCROLLS:0.000=1.000;
#FAKES:;
#LABELS:0.000=Song Start;
#BGCHANGES:;
#KEYSOUNDS:;
#ATTACKS:
;

//---------------dance-single - ----------------
#NOTEDATA:;
#CHARTNAME:;
#STEPSTYPE:dance-single;
#DESCRIPTION:;
#CHARTSTYLE:;
#DIFFICULTY:Challenge;
#METER:10;
#RADARVALUES:0.686386,0.796842,0.473002,0.132772,0.120325,579.000000,522.000000,57.000000,16.000000,0.000000,0.000000,0.000000,0.000000,0.000000,0.686386,0.796842,0.473002,0.132772,0.120325,579.000000,522.000000,57.000000,16.000000,0.000000,0.000000,0.000000,0.000000,0.000000;
#CREDIT:;
#NOTES:
0000
0000
0000
0000
,
0000
0000
0000
0000
,
0000
0000
0000
0000
,
0000
0000
0000
0000
,
0001
0000
1000
0010
0000
1000
0001
0000
,
0010
0000
0100
0000
0010
0001
0000
1000
,
0001
0000
0010
0001
0000
0001
1000
0000
,
0100
0000
0010
0001
0100
1000
0000
1000
,
0100
0001
0010
0001
0100
0001
0010
0001
,
1000
0010
1000
0100
1000
0010
0000
0100
,
0001
0010
0001
1000
0100
1000
0010
1000
,
0010
0100
0001
0010
0001
0100
0000
0010
,
1000
0001
0010
0001
1000
0010
1000
0001
,
0010
0100
1000
0001
0100
0010
0000
0100
,
0001
0000
0010
0000
0001
0000
0100
0000
0001
1000
0001
1000
0010
0100
0010
0100
,
0002
0000
0000
0000
0000
0000
0000
0000
0000
0000
0103
1000
0010
0000
0000
0000
,
0101
0000
0001
0011
0000
1000
1100
0000
,
0001
0011
0000
1000
1100
0000
1000
0001
,
0100
0001
0100
0001
1000
0010
1000
0010
,
1000
0100
0010
0100
1000
0001
1001
0000
,
1100
0000
1000
1010
0000
0001
0101
0000
,
1000
1010
0000
0001
0101
0000
1000
0010
,
0100
0000
0010
1000
0010
1000
0001
0100
,
0001
0000
0010
0000
0001
0000
1000
0000
0100
0000
1000
0010
1000
0000
1000
0000
,
1001
0000
0001
0101
0000
1000
1010
0000
,
0001
0101
0000
1000
1010
0000
0001
0100
,
0010
1000
0100
1000
0010
0100
0001
0010
,
0001
0000
1000
0000
0010
0000
1000
0000
0001
0000
0100
0010
1000
0000
0000
0000
,
1001
0000
1000
1010
0000
0001
0101
0000
,
1000
1010
0000
0001
0101
0000
1000
1010
,
1000
0000
1000
0000
0001
0000
0010
0000
0010
0000
0100
0000
1000
0100
0010
0001
,
1000
0000
0000
0000
,
0021
0000
0130
0010
0001
0100
0010
1000
,
0001
0010
0001
1000
0010
0100
0001
0001
,
0010
0100
0010
0001
1000
0010
0100
0001
,
0010
0001
1000
0010
1000
1000
0001
0001
,
0010
0001
0100
0010
1000
0001
0010
0100
,
0010
0001
1000
0010
0100
0010
1000
1000
,
0010
0100
0001
0010
0100
0010
0001
1000
,
1010
0000
0001
0101
0000
0001
0011
0000
,
2001
0010
0010
3020
,
0130
0002
0000
0013
0100
1000
0100
0000
,
0012
0010
0013
0200
,
1300
0010
0100
0001
1000
1000
1001
0000
,
2100
0100
3100
0200
,
1300
0010
0100
0001
0010
0001
1000
1000
,
0001
0000
0001
0000
0100
0000
0001
1000
0010
0000
0100
0001
1000
0000
0000
0000
,
0010
1001
0000
0100
1001
0000
0001
0100
,
0000
0100
1000
0000
1000
0100
0000
0100
,
0001
0000
0001
1000
0000
1000
0001
0010
,
0000
0010
1000
0000
1000
0010
0000
0010
,
0001
0000
0001
1000
0000
1000
0001
0100
,
0000
0100
1000
0000
1000
0100
0000
0100
,
0001
0000
0001
0100
0000
0010
0100
0001
,
0010
0000
0100
0000
0010
0001
0010
0000
0001
0000
1000
0000
1010
0000
0000
0000
,
0011
0000
0000
0000
0001
0100
0010
1000
0100
1000
0001
0100
0020
0000
0000
0000
,
0000
0000
0000
0000
0000
0000
0000
0000
0000
0000
0000
0000
0000
0230
0000
0000
,
0000
0000
0000
0000
0000
0000
0000
0000
0000
0000
0000
0000
0000
0320
0000
0000
,
0000
0000
0000
0000
0000
0000
0000
0000
0000
0000
0000
0000
0000
0230
0000
0000
,
0000
0000
0000
0000
0000
0000
0000
0000
0000
0000
0000
0300
1001
0000
0001
0000
,
0000
0101
0100
0000
1010
1000
0000
0000
,
0010
0000
0100
0001
0010
0001
1001
1000
,
0000
1010
0010
0000
0110
0100
0010
0000
,
0010
0000
1000
0010
0100
0001
0101
0001
,
0000
1001
1000
0000
1100
0100
0010
0000
,
0010
0000
0100
0010
0001
1000
1001
0001
,
0000
1001
1000
0000
1001
0001
0010
0000
,
0100
0010
0000
0010
0100
1000
0001
0100
,
0010
1000
0100
1000
0010
0100
0001
0010
,
0001
1000
0100
1000
0010
0001
0010
0100
,
0001
0010
0001
1000
0100
1000
0010
0100
,
0001
0010
0100
1000
0100
0001
0100
0010
,
0001
0100
0001
1000
0100
1000
0010
1000
,
0010
0100
0001
0010
1000
0001
1001
0010
,
0000
1001
0100
0000
1001
0100
0010
0010
,
0100
0000
0100
0000
0001
0100
0010
1000
0001
0100
0010
1000
0011
0000
0010
0000
,
0100
1000
0010
0100
0001
0010
0001
1000
,
0010
0000
0100
0000
0001
1000
0001
1000
0001
0000
0010
0000
0100
0000
0010
0000
,
0001
0100
0010
1000
0100
1000
0010
0100
,
0001
0100
0001
0100
0010
1000
0010
1000
0100
0000
0000
0000
0010
0000
0002
0000
,
0000
1003
0020
0000
0130
0000
0100
0000
,
0010
1000
1001
1001
1001
1000
0100
1100
,
1000
0001
0101
0001
0011
0010
0100
0100
,
1000
0010
0002
0003
1010
0000
0000
0000
;

//---------------dance-double - ----------------
#NOTEDATA:;
#CHARTNAME:;
#STEPSTYPE:dance-double;
#DESCRIPTION:;
#CHARTSTYLE:;
#DIFFICULTY:Challenge;
#METER:10;
#RADARVALUES:0.681644,0.866132,0.448107,0.199159,0.153518,575.000000,521.000000,54.000000,24.000000,0.000000,0.000000,0.000000,0.000000,0.000000,0.681644,0.866132,0.448107,0.199159,0.153518,575.000000,521.000000,54.000000,24.000000,0.000000,0.000000,0.000000,0.000000,0.000000;
#CREDIT:;
#NOTES:
00000000
00000000
00000000
00000000
,
00000000
00000000
00000000
00000000
,
00000000
00000000
00000000
00000000
,
00000000
00000000
00000000
00000000
,
00010000
00000000
10000000
01000000
00000000
10000000
00100000
01000000
,
00010000
00000000
00100000
00000000
00010000
00100000
00000000
00100000
,
00001000
00000000
00010000
00000100
00000000
00000010
00000001
00000000
,
00000010
00000001
00000100
00000010
00001000
00000002
00000000
00001003
,
00000100
00000010
00000100
00001000
00000100
00010000
00001000
00100000
,
00010000
01000000
00100000
10000000
00010000
02000000
00000000
03000000
,
00100000
10000000
00010000
00100000
01000000
00100000
00001000
00010000
,
00000100
00000010
00000001
00000100
00000001
00001000
00000001
00001000
,
00000010
00000000
00001010
00000000
00000010
00001000
00000100
00010000
,
00001000
00000000
00101000
00000000
00100000
00010000
01000000
00100000
,
10000000
00000000
10000000
00000000
01000000
00000000
01000000
00000000
00100000
00010000
00100000
00001000
00010000
00001000
00010000
00000100
,
00020000
00000000
00000000
00000000
00000000
00000000
00000000
00000000
00000000
00000000
00030100
00000010
00000001
00000000
00000000
00000000
,
00000101
00000000
00001000
00001010
00000000
00000010
00010010
00000000
,
00000100
00010100
00000000
00001000
00011000
00000000
00010000
00100000
,
01000000
00000000
00100000
00010000
01000000
00100000
10000000
00010000
,
00100000
00001000
00010000
00000100
00000010
00000001
00000101
00000000
,
00001001
00000000
00001000
00001010
00000000
00000010
00010010
00000000
,
00001000
00011000
00000000
00100000
00110000
00000000
01000000
10000000
,
00100000
00000000
01000000
00010000
01000000
00100000
10000000
01000000
,
00010000
00000000
01000000
00000000
00100000
00000000
00010000
00000000
00100000
00000000
00001000
00010000
00001000
00000000
00001000
00000000
,
00011000
00000000
00100000
00110000
00000000
00100000
01100000
00000000
,
01000000
11000000
00000000
10000000
10010000
00000000
00010000
01000000
,
00200000
00000000
10300000
00100000
01000000
00010000
00100000
00001000
,
00010000
00000000
00000100
00000000
00000010
00000000
00000001
00000000
00000100
00000000
00000010
00001000
00000010
00000000
00000000
00000000
,
00001010
00000000
00000010
00010010
00000000
00001000
00011000
00000000
,
00010000
01010000
00000000
01000000
01100000
00000000
00100000
10000000
,
01000000
00000000
10000000
00000000
00010000
00000000
01000000
00000000
00010000
00000000
00100000
00000000
00001000
00010000
00000100
00001000
,
00000020
00000000
00000000
00000030
,
00002100
00000000
00003010
00000100
00000001
00000010
00000001
00000100
,
00000010
00001000
00000100
00001000
00000100
00010000
00001000
00001000
,
01000000
00100000
10000000
01000000
00010000
01000000
00100000
00010000
,
01000000
00001000
00010000
00000100
00001000
00001000
00000010
00000010
,
00000100
00000000
00000010
00001000
00000100
00001000
00000001
00000010
,
00000100
00000010
00000001
00001000
00000010
00001000
00000100
00000100
,
00000100
00010000
00001000
00100000
01000000
10000000
00100000
01000000
,
00010000
00000000
10000000
10100000
00000000
00010000
01010000
00000000
,
00210000
01000000
00310000
00200000
,
00301000
00020000
00000000
00030100
00002000
00000000
00003010
00000000
,
00000102
00000010
00000013
00000200
,
00000310
00000002
00000000
00000103
00000020
00000000
00001030
00000000
,
00020100
00001000
00031000
00000100
,
00010000
00002000
00000000
01003000
00200000
00000000
10300000
10000000
,
00010000
00000000
00010000
00000000
00100000
00000000
00001000
00100000
00010000
00000000
00100000
00001000
00010000
00000000
00000000
00000000
,
00010000
00011000
00000000
00001000
00011000
00000000
00010000
00000100
,
00000000
00000100
00010000
00000000
00010000
00001000
00000000
00001000
,
00010000
00000000
00010000
00000010
00000000
00000010
00010000
00001000
,
00000000
00001000
00100000
00000000
00100000
00001000
00000000
00001000
,
01000000
00000000
01000000
00001000
00010000
00001000
00010000
00001000
,
00000000
00010000
00000100
00000000
00000100
00000010
00000000
00000010
,
00000001
00000000
00000001
00001000
00000000
00001000
00000010
00010000
,
00001000
00000000
00100000
00000000
10000000
00100000
00010000
10000000
00100000
00000000
01000000
00000000
10010000
00000000
00000000
00000000
,
00110000
00000000
00000000
00000000
00100000
00001000
00010000
00000100
00000010
00000001
00000100
00000010
00000200
00000000
00000300
00000000
,
00000000
00000000
00000000
00000000
,
00000000
00000000
00000000
00000000
,
00000000
00000000
00000000
00000000
,
00000000
00000000
00000000
00000000
00000000
00000000
10100000
00100000
,
00000000
01010000
00010000
00000000
00110000
00010000
00100000
00000000
,
00001000
00000000
00010000
00000100
00000010
00000001
00000101
00000100
,
00000000
00000110
00000010
00000000
00001010
00001000
00000100
00000000
,
00000100
00000000
00000100
00010000
00001000
00100000
00110000
00100000
,
00000000
00101000
00001000
00000000
00011000
00010000
00000010
00000000
,
00000010
00000000
00000010
00000100
00000001
00001000
00001001
00000001
,
00000000
00000000
00001001
00000000
00001000
00000000
00000000
00000000
00001010
00000000
00001000
00000100
00002000
00000000
00000000
00000000
,
00000010
00003020
00000000
00000130
00000010
00001000
00000001
00001000
,
00000100
00001000
00000010
00000100
00000001
00001000
00000100
00000010
,
00000001
00000000
00000100
00000000
00000010
00000000
00010000
00000000
00001000
00100000
00010000
01000000
00100000
00000000
10000000
00000000
,
01000000
10000000
00010000
01000000
00010000
00100000
01000000
10000000
,
00010000
00000000
01000000
00000000
00010000
00100000
00010000
00000000
10000000
01000000
10000000
00000000
01000000
00000000
00100000
00000000
,
00010000
00100000
00001000
00010000
00000100
00000010
00000001
00000100
,
00000010
00000000
00001000
00000000
00000001
00000000
00000010
00000000
00000100
00001000
00000100
00001000
00000100
00000000
00000000
00000000
,
00010000
00000000
00011000
00000000
00000000
00000000
00001000
00000000
00011000
00000000
00000000
00000000
01010000
00000000
01000000
00100000
,
10000000
00000000
00010000
00100000
01000000
10000000
00100000
01000000
00010000
00100000
00001000
00010000
00001000
00000000
00000100
00000000
,
00000010
00000001
00000100
00000010
00001000
00000100
00010000
00001000
,
00100000
00000000
01000000
00000000
10000000
01000000
00100000
00010000
10000000
00000000
00010000
00000000
01000000
00000000
00010000
00000000
,
00100000
00001000
00010000
00000100
00001000
00000010
00000100
00000001
,
00000010
00000000
00000100
00001000
00000100
00010000
00001000
00010000
00000200
00000000
00000000
00000000
00010300
00000000
00002000
00000000
,
00000000
01003000
00200000
00000000
10300000
00000000
00010000
00000000
,
00100000
00000000
01100000
01100000
01100000
00100000
00010000
00011000
,
00001000
00000100
00000110
00000010
00000011
00000001
00001000
00000001
,
00000001
00000100
00000010
00001000
00000200
00000000
00000000
00000000
00010300
00000000
00000000
00000000
00000000
00000000
00000000
00000000
;

//---------------dance-single - ----------------
#NOTEDATA:;
#CHARTNAME:;
#STEPSTYPE:dance-single;
#DESCRIPTION:;
#CHARTSTYLE:;
#DIFFICULTY:Medium;
#METER:7;
#RADARVALUES:0.431510,0.519679,0.381721,0.107878,0.000000,364.000000,318.000000,46.000000,13.000000,0.000000,0.000000,0.000000,0.000000,0.000000,0.431510,0.519679,0.381721,0.107878,0.000000,364.000000,318.000000,46.000000,13.000000,0.000000,0.000000,0.000000,0.000000,0.000000;
#CREDIT:;
#NOTES:
0000
0000
0000
0000
,
0000
0000
0000
0000
,
0000
0000
0000
0000
,
0000
0000
0000
0000
,
1000
0000
0000
0010
0000
0000
0100
0000
,
0001
0000
0010
0000
0000
0100
1000
0000
,
0001
0000
0000
1000
0000
0000
0010
0000
,
0100
0000
0001
0000
1000
0100
0000
0010
,
0100
1000
0010
0100
,
0001
0000
0010
0000
0001
1000
0000
0000
,
0010
1000
0001
0100
,
0001
0000
0010
0000
0100
0010
0000
0000
,
0100
0010
0001
1000
,
0010
0100
0001
1000
,
0001
0010
0100
1000
0001
1000
0010
0100
,
0002
0000
0000
0000
0000
1003
1001
0000
,
0110
0000
0000
1010
0000
0000
1001
0000
,
0011
0000
0000
1001
0000
0000
1010
0000
,
1000
0010
0100
0001
,
0010
0000
1000
0000
0010
0001
0100
0000
,
1010
0000
0000
0101
0000
0000
0001
0010
,
0100
0000
0000
0110
0000
0000
0010
0001
,
1000
0010
1000
0010
,
0100
0000
0001
0000
0100
0001
0010
0100
,
0110
0000
0000
1100
0000
0000
0110
0000
,
0010
0001
0000
0001
0100
0000
0010
1000
,
0001
0000
1000
0000
0100
0000
1000
0001
,
0010
0000
0100
0000
0010
0001
1000
0000
,
1001
0000
0000
1100
0000
0000
1001
0000
,
0101
0000
0000
1001
0000
0000
1100
0000
,
0001
1000
0000
0010
0100
0000
0010
1000
,
0001
0000
0000
0000
,
1000
0001
0010
0001
,
0100
0000
0010
0000
1000
0000
0001
0010
,
0100
0010
0001
0100
,
0010
0000
1000
0000
0010
0100
0010
1000
,
0001
0010
0001
1000
,
0010
0000
0100
0000
0010
0000
1000
0001
,
0010
0100
0010
0001
,
0100
0000
0001
0010
0000
0010
0100
0000
,
2100
0100
0100
3200
,
1300
2000
3010
0100
,
0102
0100
0100
0203
,
0302
0000
0013
0000
0001
1000
0001
0000
,
0120
0100
0100
0230
,
0301
0000
0020
0000
0130
0000
1000
0100
,
0010
0001
1000
0100
0010
0100
1100
0000
,
0000
0011
0000
0000
1001
0000
0001
0100
,
0000
0001
0100
0000
0001
0100
0000
0001
,
0010
0000
0001
0100
0000
0000
0010
1000
,
0000
0010
1000
0000
0010
1000
0000
0010
,
0100
0000
0010
1000
0000
0000
0001
1000
,
0000
0001
1000
0000
0001
1000
0000
0001
,
0010
0000
0001
1000
0000
0000
1000
0010
,
0000
1000
0010
0000
1000
0010
0100
0000
,
0100
0000
0010
1000
0100
0010
0011
0000
,
0000
0000
0000
0000
,
0000
0000
0000
0000
,
0000
0000
0000
0000
,
0000
0000
0000
1001
,
0000
0011
0000
0000
1001
0000
0000
0000
,
0000
0000
0000
1010
,
0000
0101
0000
0000
0011
0000
0000
0000
,
0000
0000
0000
1100
,
0000
0110
0000
0000
0011
0000
0000
0000
,
0000
0000
0000
0101
,
0000
1010
0000
0000
1001
0000
0110
0000
,
0000
0000
0000
1000
,
0010
1000
0001
0010
,
0100
0000
0010
0000
0001
0100
0010
0000
,
1000
0000
0010
0000
0100
0001
0010
0000
,
0100
0000
0010
0100
1000
0001
0100
0000
,
0010
0100
0001
1000
,
0100
0000
0010
0000
0100
1000
1010
0000
,
0000
1100
0000
0000
0011
0000
1000
0010
,
1000
0000
0001
0100
0001
0000
1001
0000
,
1000
0010
0100
0001
,
0100
0010
1000
0100
0010
0000
0100
0000
,
0010
0001
0100
1000
,
0100
0010
1000
0001
0020
0000
0000
0130
,
0000
0000
0010
0000
0002
0000
0000
1003
,
0000
0000
0001
0100
0110
0000
0000
1010
,
0000
0000
0101
0000
0001
0010
1000
0010
,
0001
0100
0020
0000
1030
0000
0000
0000
;

//---------------dance-single - ----------------
#NOTEDATA:;
#CHARTNAME:;
#STEPSTYPE:dance-single;
#DESCRIPTION:;
#CHARTSTYLE:;
#DIFFICULTY:Hard;
#METER:9;
#RADARVALUES:0.571395,0.727551,0.240650,0.157667,0.049790,482.000000,453.000000,29.000000,19.000000,0.000000,0.000000,0.000000,0.000000,0.000000,0.571395,0.727551,0.240650,0.157667,0.049790,482.000000,453.000000,29.000000,19.000000,0.000000,0.000000,0.000000,0.000000,0.000000;
#CREDIT:;
#NOTES:
0000
0000
0000
0000
,
0000
0000
0000
0000
,
0000
0000
0000
0000
,
0000
0000
0000
0000
,
0001
0000
1000
0010
0000
0100
0001
0010
,
0100
0000
0010
0000
0001
0010
0000
0100
,
1000
0000
0001
0100
0000
1000
0100
0000
,
1000
0000
1000
0000
0001
0100
1000
0000
,
0100
0010
1000
0001
0010
0100
0010
0001
,
1000
0010
0100
0001
0010
0100
0000
0000
,
1000
0100
1000
0010
0100
0010
0100
0001
,
0100
0001
0010
0100
0010
0001
0000
1000
,
0001
0010
0001
1000
0010
1000
0100
0010
,
0100
1000
0010
0100
0001
0010
0100
0010
,
0001
0000
1000
0000
0001
0000
1000
0000
0010
0100
0010
0100
0010
0100
0010
0100
,
0020
0000
0000
0000
0000
0000
0000
0000
0000
0000
0130
0010
0100
0000
0000
0000
,
1001
0000
0001
0100
0000
0001
1000
0000
,
0001
0010
0000
0001
1000
0000
0001
0100
,
0010
0000
1000
0010
0100
0001
0100
0010
,
1000
0001
0010
0100
0010
0001
1001
0000
,
0101
0000
1000
0010
0000
1000
0001
0000
,
1000
0100
0000
1000
0001
0000
1000
0010
,
0100
0000
0010
1000
0001
0010
0001
1000
,
0010
0000
0100
0000
0001
0000
0010
0000
0001
0000
1000
0010
1000
0000
0001
0000
,
0010
0000
0010
1000
0000
0010
0100
0000
,
0010
0001
0000
0010
0100
0000
0010
1000
,
0010
0000
0100
0010
0001
0100
0010
1000
,
0001
0010
0001
1000
0010
1000
1001
0000
,
0101
0000
0001
0100
0000
0100
0010
0000
,
0100
1000
0000
0100
0010
0000
0100
0001
,
0010
0000
0001
0000
0000
0000
1000
0000
0100
0000
0000
0000
1000
0001
1000
0001
,
1000
0000
0000
0000
,
0110
0000
1000
0010
0000
0100
0001
0000
,
0010
0100
0000
1000
0010
0000
0100
0001
,
0010
0000
0001
0010
0000
0100
1000
0000
,
1000
0010
0000
0100
0001
0010
1000
0010
,
0001
0000
1000
0010
0000
0100
0001
0000
,
0010
0100
0000
0010
0001
0000
0010
0001
,
1000
0000
0001
0100
0000
0001
1000
0000
,
0100
0000
1000
0010
0000
0010
1000
0001
,
1200
1000
1000
2300
,
0000
3020
0000
0000
0230
0000
0301
0000
,
0020
0100
0100
0230
,
0000
0320
0000
0000
0032
0000
1003
0000
,
0020
0100
0100
0230
,
0000
0302
0000
0000
2003
0000
3001
0100
,
0010
0000
1000
0000
0001
0000
1000
0001
1000
0000
0001
1000
0001
0000
0000
0000
,
0000
0110
0000
0000
1001
0000
1000
0010
,
0000
0100
0001
0000
1000
0010
0000
0100
,
0001
0000
1000
0010
0000
1000
0001
0100
,
0000
0001
0100
0000
0010
1000
0000
0001
,
0100
0000
0010
1000
0000
0001
1000
0100
,
0000
0010
0001
0000
1000
0100
0000
0010
,
0001
0000
1000
0100
0000
0010
0001
1000
,
0010
0100
0010
1000
0100
0010
0100
1000
,
0001
0000
1000
0010
0001
0010
1001
0000
,
0000
0000
0000
0000
,
0000
0000
0000
0000
,
0000
0000
0000
0000
,
0000
0000
0000
0000
0000
0000
1001
1000
,
0000
1001
0001
0000
1001
1000
0010
0000
,
0010
0000
0100
0000
0100
0000
1001
0001
,
0000
1001
1000
0000
1001
0001
0010
0000
,
0100
0010
0000
0010
0100
1000
1001
0001
,
0000
1001
1000
0000
1001
0001
0010
0000
,
0010
0000
0100
0010
0001
0000
1001
0001
,
0000
1001
1000
0000
1001
0001
0010
0000
,
0100
0010
0000
0010
0100
1000
0001
0100
,
0001
1000
0000
0100
1000
0000
0100
0010
,
0000
0100
0010
0001
0100
1000
0100
0000
,
0010
1000
0000
0001
0010
0100
0000
0010
,
0000
0100
0010
0001
1000
0100
1000
0000
,
0001
0100
0000
0010
1000
0000
0100
0010
,
0000
0100
1000
0010
0001
0010
1010
0000
,
0000
0101
0000
0000
0011
0000
0001
1000
,
0001
1000
0010
0100
0010
0100
0001
0010
,
0001
1000
0010
1000
0001
0010
0001
1000
,
0010
0000
1000
0000
0001
1000
0001
0000
0100
0000
0010
0000
1000
0000
0100
0000
,
1000
0001
0100
0001
1000
0010
1000
0001
,
0100
0000
0001
0000
1000
0001
1000
0000
0002
0000
0000
0000
0103
0000
0020
0000
,
0000
0130
0002
0000
2003
0000
3100
0020
,
0000
0031
0100
0010
0110
0000
0000
1001
,
0000
0000
1010
0000
1000
0010
0100
0001
,
0010
1000
0020
0030
1001
0000
0000
0000
;

//---------------dance-single - ----------------
#NOTEDATA:;
#CHARTNAME:;
#STEPSTYPE:dance-single;
#DESCRIPTION:;
#CHARTSTYLE:;
#DIFFICULTY:Easy;
#METER:4;
#RADARVALUES:0.293996,0.346453,0.049790,0.041491,0.000000,248.000000,242.000000,6.000000,5.000000,0.000000,0.000000,0.000000,0.000000,0.000000,0.293996,0.346453,0.049790,0.041491,0.000000,248.000000,242.000000,6.000000,5.000000,0.000000,0.000000,0.000000,0.000000,0.000000;
#CREDIT:;
#NOTES:
0000
0000
0000
0000
,
0000
0000
0000
0000
,
0000
0000
0000
0000
,
0000
0000
0000
0000
,
1000
0000
0010
0000
,
0100
0001
0100
0001
,
0010
0000
0100
0000
,
0010
0001
0010
0001
,
1000
0001
0010
0001
,
1000
0010
1000
0000
,
0001
1000
0100
1000
,
0001
0100
0010
0000
,
1000
0010
0100
0001
,
0010
0100
1000
0001
,
0100
0010
1000
0001
,
2002
0000
0000
0000
0000
0003
3000
0000
,
0001
0000
0000
0001
0000
0000
1000
0000
,
0100
0000
0000
0100
0000
0000
0100
0000
,
0010
0001
0010
0001
,
1000
0010
1000
0100
,
0010
0000
0000
0001
0000
0000
0010
0000
,
0001
0000
0000
1000
0000
0000
0001
0000
,
0100
0010
0100
0010
,
1000
0001
0010
0100
,
1000
0000
0000
0010
0000
0000
0100
0000
,
0010
0000
0000
0100
0000
0000
0001
0000
,
1000
0001
1000
0001
,
0100
0010
0100
0010
,
0100
0000
0000
0001
0000
0000
0010
0000
,
0100
0000
0000
0010
0000
0000
0001
0000
,
0100
0000
0000
0001
0000
0000
1000
0000
,
1001
0000
0000
0000
,
0001
1000
0010
1000
,
0001
0010
0001
1000
,
0001
1000
0100
1000
,
0001
1000
0010
0010
,
0100
0001
0010
0001
,
1000
0010
0100
0001
,
1000
0100
1000
0001
,
0100
0000
0000
0010
0000
0000
1000
0000
,
0002
0000
0000
1003
,
0000
0010
0000
0000
0100
0000
0001
0000
,
0020
0000
0000
0130
,
0000
0010
0000
0000
0001
0000
1000
0000
,
0002
0000
0000
1003
,
0000
0100
0000
0000
1000
0000
0001
0000
,
0100
0001
1000
0100
,
0000
0100
0000
0000
0100
0000
1000
0000
,
0000
0001
0000
0000
1000
0000
0000
0001
,
0000
1000
0000
0010
,
0000
0100
0000
0000
0010
0000
0000
0100
,
0000
0010
0000
1000
,
0000
0010
0000
0000
0100
0000
0000
0001
,
0000
0100
0000
0010
,
0000
0100
0001
1000
,
0100
0001
0100
1001
,
0000
0000
0000
0000
,
0000
0000
0000
0000
,
0000
0000
0000
0000
,
0000
0000
0000
1000
,
0000
0010
0000
0000
0100
0000
0000
0000
,
0000
0000
0000
0010
,
0000
0100
0000
0000
0001
0000
0000
0000
,
0000
0000
0000
1000
,
0000
0001
0000
0000
0010
0000
0000
0000
,
0000
0000
0000
0100
,
0000
0010
0000
0000
0001
0000
1001
0000
,
0000
0000
0000
1000
,
0010
0100
0001
0010
,
0001
1000
0100
1000
,
0010
0100
0001
0010
,
0100
0010
0001
1000
,
0010
1000
0001
0010
,
0001
1000
0100
1000
,
0000
0001
0000
0000
0100
0000
0001
0000
,
0010
0001
1000
0001
,
0100
0001
0010
0100
,
1000
0000
0001
1000
0001
0000
1000
0000
,
0010
1000
0001
0100
,
0001
0000
0010
0100
1000
0000
0000
0100
,
0000
0000
0010
0000
0001
0000
0000
1000
,
0000
0000
0001
1000
0001
0000
0000
0100
,
0000
0010
1000
0010
,
0100
1001
0110
0000
;

//---------------dance-double - ----------------
#NOTEDATA:;
#CHARTNAME:;
#STEPSTYPE:dance-double;
#DESCRIPTION:;
#CHARTSTYLE:;
#DIFFICULTY:Hard;
#METER:9;
#RADARVALUES:0.547686,0.658260,0.431510,0.174264,0.033193,462.000000,410.000000,52.000000,21.000000,0.000000,0.000000,0.000000,0.000000,0.000000,0.547686,0.658260,0.431510,0.174264,0.033193,462.000000,410.000000,52.000000,21.000000,0.000000,0.000000,0.000000,0.000000,0.000000;
#CREDIT:;
#NOTES:
00000000
00000000
00000000
00000000
,
00000000
00000000
00000000
00000000
,
00000000
00000000
00000000
00000000
,
00000000
00000000
00000000
00000000
,
10000000
00000000
00010000
00100000
00000000
01000000
10000000
00000000
,
00010000
00000000
01000000
00000000
00010000
00100000
00000000
00100000
,
00001000
00000000
00010000
00000100
00000000
00000100
00001000
00000000
,
00000010
00000000
00000100
00000010
00001000
00000001
00000000
00000010
,
00000100
00000000
00000110
00000000
00000010
00000001
00000100
00000000
,
00000010
00001000
00000100
00010000
00001000
00100000
00010000
10000000
,
00100000
00000000
10100000
00000000
10000000
00010000
00100000
00000000
,
00010000
00100000
00001000
00010000
00000100
00001000
00000010
00001000
,
00000100
00001100
00000001
00000101
,
00000100
00000110
00000010
00001010
,
00000010
00001000
00000100
00010000
00001000
00100000
01000000
10000000
,
10020000
00000000
00000000
00000000
00000000
00000000
00000000
00000000
00000000
00000000
01030000
00010000
00100000
00000000
00000000
00000000
,
01100000
00000000
00000000
00110000
00000000
00000000
00101000
00000000
,
00011000
00000000
00000000
00001100
00000000
00000000
00000011
00000000
,
00000001
00000000
00000100
00000001
00000000
00000010
00000000
00000001
,
00001000
00000000
00000010
00001000
00000000
00000001
00000010
00000000
,
00000110
00000000
00000000
00001100
00000000
00000000
00000100
00010000
,
00011000
00000000
00000000
00110000
00000000
00000000
11000000
00000000
,
10100000
00000000
10000000
00100000
00000000
01000000
00010000
00000000
,
00100000
01000000
00000000
00100000
00010000
10000000
00100000
00100000
,
01100000
00000000
00000000
01010000
00000000
00000000
00110000
00000000
,
00100000
00001000
00000000
00001000
00010000
00000000
00001000
00010000
,
00000100
00000000
00000010
00000001
00000000
00000100
00000010
00001000
,
00000001
00000000
00000000
00000000
00000010
00000000
00000100
00000000
00000000
00000000
00001000
00000100
00001000
00000000
00000000
00000000
,
00001100
00000000
00000000
00010100
00000000
00000000
00011000
00000000
,
00101000
00000000
00000000
01100000
00000000
00000000
11000000
00000000
,
10000000
00000000
00010000
00000000
01000000
00000000
00100000
00000000
10000000
00000000
00010000
00000000
00100000
01000000
00100000
01000000
,
10000000
00000000
00000000
00000000
,
10020000
00000000
00130000
00010000
00000000
01000000
00010000
00000000
,
00100000
00001000
00000000
00010000
00000100
00000000
00001000
00000010
,
00000100
00000000
00000001
00000100
00000000
00000010
00001000
00000000
,
00000100
00010000
00000000
00001000
00010000
00100000
10000000
00100000
,
00010000
00000000
00100000
01000000
00000000
10000000
00100000
00000000
,
01000000
00010000
00000000
00100000
00001000
00000000
00010000
00000100
,
00001000
00000000
00000100
00000010
00000000
00000010
00000001
00000000
,
00000012
00000000
00000000
00000203
00000000
00000000
00000310
00000000
,
00002001
00000010
00000010
00003020
,
00000000
00020030
00000000
00000000
00032000
00000000
00103000
00000000
,
21000000
01000000
01000000
30020000
,
00000000
02030000
00000000
00000000
03002000
00000000
00013000
00000000
,
00010200
00001000
00001000
00002300
,
00000000
00003020
00000000
00000000
00000130
00000000
00000001
00000010
,
00001000
00000000
00000010
00000000
00000001
00000000
00000100
00000010
00000100
00000000
00001000
00000001
00001000
00000000
00000000
00000000
,
00000010
00001000
00000000
00000100
00010000
00000000
00001000
00100000
,
00000000
00001000
00100000
00000000
00001000
00100000
00000000
00001000
,
00010000
00000000
00001000
00100000
00000000
00001000
00010000
00000100
,
00000000
00010000
00000100
00000000
00010000
00000100
00000000
00010000
,
00001000
00000000
00010000
00000100
00000000
00010000
00000010
00010000
,
00000000
00010000
00000010
00000000
00010000
00000010
00000000
00010000
,
00000100
00000000
00010000
00000010
00000000
00000100
00000010
00001000
,
00000001
00000010
00000100
00000010
00000001
00000100
00000010
00000000
,
00001000
00000000
00000010
00010000
00001000
00100000
01000000
00000000
,
00000000
00000000
00000000
00000000
,
00000000
00000000
00000000
00000000
,
00000000
00000000
00000000
00000000
,
00000000
00000000
00000000
00000000
00000000
00000000
11000000
01000000
,
00000000
01100000
00100000
00000000
00110000
00010000
10000000
00000000
,
00010000
00000000
00100000
00000000
00001000
00000000
00011000
00001000
,
00000000
00001100
00001000
00000000
00000011
00000001
00000100
00000000
,
00000100
00000000
00000100
00000010
00001000
00000001
00001001
00001000
,
00000000
00001010
00000010
00000000
00000101
00000001
00001000
00000000
,
00000100
00000000
00010000
00000000
00001000
00000000
00101000
00100000
,
00000000
01100000
01000000
00000000
11000000
10000000
00010000
00000000
,
10000000
00100000
00000000
10000000
00100000
01000000
00010000
00000000
,
00100000
00010000
00000000
01000000
00100000
00000000
10000000
00010000
,
00000000
00100000
01000000
10000000
00010000
00100000
00001000
00000000
,
00010000
00000100
00000000
00001000
00000010
00000100
00000000
00000010
,
00000000
00000100
00000010
00001000
00000001
00000010
00000100
00000000
,
00000010
00000001
00000000
00000100
00000010
00000000
00001000
00000100
,
00000000
00001000
00000100
00010000
00001000
00100000
01100000
00000000
,
00000000
11000000
00000000
00000000
10100000
00000000
10000000
00100000
,
01000000
00010000
00100000
00001000
00010000
00000100
00000011
00000001
,
00000100
00000010
00001000
00000010
00010000
00001000
00100000
00010000
,
01000000
00000000
00100000
00000000
10000000
00010000
10000000
00000000
01000000
00000000
10000000
00000000
00100000
00000000
01000000
00000000
,
00010000
00100000
00001000
00010000
00000100
00001000
00000010
00000100
,
00000001
00000000
00000010
00000000
00000100
00001000
00000100
00000000
00002000
00000000
00000000
00000000
00003010
00000000
00020000
00000000
,
00000000
00031000
00200000
00000000
02300000
00000000
13000000
00200000
,
00000000
01300000
00010000
00100000
00101000
00000000
00000000
00011000
,
00000000
00000000
00010100
00000000
00001000
00000010
00000001
00000010
,
00001000
00000100
00020000
00000000
00031000
00000000
00000000
00000000
;

//---------------dance-double - ----------------
#NOTEDATA:;
#CHARTNAME:;
#STEPSTYPE:dance-double;
#DESCRIPTION:;
#CHARTSTYLE:;
#DIFFICULTY:Medium;
#METER:7;
#RADARVALUES:0.446921,0.519679,0.224053,0.157667,0.000000,377.000000,350.000000,27.000000,19.000000,0.000000,0.000000,0.000000,0.000000,0.000000,0.446921,0.519679,0.224053,0.157667,0.000000,377.000000,350.000000,27.000000,19.000000,0.000000,0.000000,0.000000,0.000000,0.000000;
#CREDIT:;
#NOTES:
00000000
00000000
00000000
00000000
,
00000000
00000000
00000000
00000000
,
00000000
00000000
00000000
00000000
,
00000000
00000000
00000000
00000000
,
10000000
00000000
00000000
00010000
00000000
00000000
00100000
00000000
,
00010000
00000000
01000000
00000000
00100000
10000000
00000000
10000000
,
00010000
00000000
00000000
00100000
00000000
00000000
00001000
00000000
,
00010000
00000000
00000100
00000000
00000010
00000001
00000010
00000001
,
00000100
00000010
00001000
00000100
,
00010000
00000000
00001000
00000000
00100000
01000000
00000000
01000000
,
10000000
00100000
01000000
00010000
,
00100000
00000000
01000000
00000000
00100000
00001000
00010000
00000100
,
00001000
00001000
00000001
00000001
,
00000100
00000100
00000010
00000010
,
00000100
00000010
00001000
00000100
00010000
00001000
00100000
01000000
,
20000000
00000000
00000000
00000000
00000000
30010000
10010000
00000000
,
10000000
00000000
00010000
01000000
00000000
00010000
00100000
00000000
,
00001000
00100000
00000000
00010000
00001000
00000000
00010000
00000100
,
00001000
00000010
00000100
00000001
,
00000010
00000100
00000010
00000011
,
00001001
00000000
00000001
00001000
00000000
00000010
00001000
00000100
,
00010000
00001000
00000000
00001000
00010000
00000000
00001000
01000000
,
00100000
10000000
01000000
10000000
,
00010000
00100000
01000000
10010000
,
10000000
00000000
00010000
00100000
00000000
00001000
00100000
00000000
,
00010000
00001000
00000000
00010000
00000100
00000000
00001000
00000010
,
00000100
00000001
00000010
00000001
,
00001000
00000010
00000100
00001001
,
00000100
00000000
00000010
00001000
00000000
00000001
00000100
00000000
,
00000010
00001000
00000000
00000100
00010000
00000000
00000100
00010000
,
00001000
00100000
00000000
00100000
00001000
00010000
00000000
00001000
,
00011000
00000000
00000000
00000000
,
00210000
01300000
00010000
01000000
,
00100000
00000000
10000000
00000000
00010000
00000000
00100000
00001000
,
00010000
00000100
00001000
00000010
,
00000100
00000000
00000001
00000000
00001000
00000010
00001000
00000001
,
00000010
00000100
00000010
00000001
,
00000100
00000000
00000010
00000000
00001000
00000000
00000100
00010000
,
00001000
00100000
00010000
10000000
,
01000000
00000000
10000000
01000000
00000000
00100000
00010000
00000000
,
02000000
00000000
00000000
03020000
,
00000000
00230000
00000000
00000000
00302000
00000000
00013000
00000000
,
00000200
00000000
00000000
00002300
,
00000000
00003020
00000000
00000000
00000130
00000000
00000001
00000000
,
00000020
00000000
00000000
00000230
,
00000000
00002300
00000000
00000000
00003100
00000000
00010000
00001000
,
00010000
00001000
00010000
00001000
00010000
00001000
00101000
00000000
,
00000000
01010000
00000000
00000000
10100000
00000000
10000000
00100000
,
00000000
10000000
00100000
00000000
10000000
00100000
00000000
10000000
,
00100000
00000000
10000000
00010000
00000000
00010000
10000000
01000000
,
00000000
10000000
01000000
00000000
10000000
01000000
00000000
10000000
,
01000000
00000000
10000000
00010000
00000000
00100000
00001000
00010000
,
00000000
00001000
00010000
00000000
00001000
00010000
00000000
00001000
,
00010000
00000000
00010000
00000100
00000000
00001000
00000010
00000100
,
00000000
00000100
00000001
00000000
00000001
00000010
00000100
00000000
,
00000010
00000000
00000001
00001000
00000010
00010000
00010100
00000000
,
00000000
00000000
00000000
00000000
,
00000000
00000000
00000000
00000000
,
00000000
00000000
00000000
00000000
,
00000000
00000000
00000000
00110000
,
00000000
11000000
00000000
00000000
10100000
00000000
10000000
00000000
,
10000000
00010000
00010000
00110000
,
00000000
00101000
00000000
00000000
00011000
00000000
00010000
00000000
,
00000100
00001000
00000010
00000110
,
00000000
00000101
00000000
00000000
00000011
00000000
00000010
00000000
,
00000010
00000001
00001000
00001010
,
00000000
00010100
00000000
00000000
00011000
00000000
02020000
00000000
,
00000000
00000000
03030000
10000000
,
00100000
01000000
00010000
00100000
,
00001000
00000000
00010000
00000000
00000100
00000010
00000001
00000000
,
00000100
00000000
00000010
00000000
00000100
00000010
00001000
00000000
,
00000001
00000000
00000100
00000010
00010000
00001000
00100000
00000000
,
00001000
00100000
00010000
01000000
,
00100000
00000000
10000000
00000000
00010000
00100000
01000000
00000000
,
00100000
00010000
00000000
00010000
01000000
00000000
00100000
01000000
,
00010000
00000000
10000000
00010000
00100000
00010000
10000000
00100000
,
00000000
01000000
00010000
00000000
00100000
00001000
00000000
00010000
,
00000100
00000010
00000001
00000100
00000010
00000000
00000100
00000001
,
00000000
00000100
00000010
00001000
00000000
00000100
00000000
00010000
,
00000100
00010000
00001000
00100000
02000000
00000000
13000000
00200000
,
00000000
01300000
00010000
00000000
20000000
00000000
30010000
00200000
,
00000000
01300000
00100000
00010000
00110000
00000000
00000000
00011000
,
00000000
00000000
00001010
00000000
00001000
00000010
00000100
00000001
,
00001000
00000010
00020000
00000000
00031000
00000000
00000000
00000000
;

//---------------dance-double - ----------------
#NOTEDATA:;
#CHARTNAME:;
#STEPSTYPE:dance-double;
#DESCRIPTION:;
#CHARTSTYLE:;
#DIFFICULTY:Easy;
#METER:5;
#RADARVALUES:0.291625,0.381098,0.033193,0.066386,0.000000,246.000000,242.000000,4.000000,8.000000,0.000000,0.000000,0.000000,0.000000,0.000000,0.291625,0.381098,0.033193,0.066386,0.000000,246.000000,242.000000,4.000000,8.000000,0.000000,0.000000,0.000000,0.000000,0.000000;
#CREDIT:;
#NOTES:
00000000
00000000
00000000
00000000
,
00000000
00000000
00000000
00000000
,
00000000
00000000
00000000
00000000
,
00000000
00000000
00000000
00000000
,
20000000
00000000
00000000
00000000
,
30020000
00000000
00000000
00000000
,
00230000
00000000
00000000
00000000
,
02300000
00000000
00000000
00000000
,
13000000
00100000
01000000
00010000
,
00100000
00001000
00010000
00000000
,
00001000
00100000
00001000
00010000
,
00000100
00001000
00000010
00000000
,
00000100
00000001
00000010
00000001
,
00001000
00000010
00001000
00000100
,
00010000
00001000
00100000
01000000
,
20000000
00000000
00000000
30000000
,
00010000
00000000
00000000
00100000
00000000
00000000
00001000
00000000
,
00010000
00000000
00000000
00000100
00000000
00000000
00001000
00000000
,
00000010
00000100
00000010
00000100
,
00000001
00001000
00000001
00001001
,
00000001
00000000
00000000
00001000
00000000
00000000
00000010
00000000
,
00001000
00000000
00000000
00000100
00000000
00000000
00010000
00000000
,
00001000
00100000
00001000
00100000
,
00010000
01000000
00010000
01000000
,
00100000
00000000
00000000
10000000
00000000
00000000
01000000
00000000
,
00100000
00000000
00000000
01000000
00000000
00000000
10000000
00000000
,
00010000
00100000
00001000
00010000
,
00000100
00001000
00000010
00000110
,
00000100
00000000
00000000
00000001
00000000
00000000
00000010
00000000
,
00000001
00000000
00000000
00001000
00000000
00000000
00000010
00000000
,
00001000
00000000
00000000
00000100
00000000
00000000
00010000
00000000
,
00011000
00000000
00000000
00000000
,
01000000
00010000
01000000
00100000
,
10000000
00000000
00010000
00000000
00100000
00000000
01000000
00100000
,
01000000
10000000
00010000
00100000
,
00001000
00000000
00010000
00000000
00000100
00001000
00000100
00001000
,
00000100
00001000
00000010
00000100
,
00000001
00000000
00000010
00000000
00000100
00000000
00001000
00000001
,
00001000
00000001
00000100
00000010
,
00001000
00000000
00000000
00000100
00000000
00000000
00010000
00000000
,
00001000
00000000
00000000
01000000
,
00010000
00100000
01000000
10000000
,
00200000
00000000
00000000
01300000
,
00010000
00100000
00001000
00010000
,
00000020
00000000
00000000
00000130
,
00000001
00001000
00000100
00001000
,
00000001
00001000
00000001
00000100
,
00000000
00000010
00000000
00000000
00001000
00000000
00000100
00000000
,
00000000
00010000
00000000
00000000
00001000
00000000
00000000
00100000
,
00000000
01000000
00000000
00100000
,
00000000
00001000
00000000
00000000
00010000
00000000
00000000
00000100
,
00000000
00001000
00000000
00000010
,
00000000
00000100
00000000
00000000
00000001
00000000
00000000
00001000
,
00000000
00000010
00000000
00010000
,
00000000
00001000
00000000
00000000
00100000
00000000
01000000
00000000
,
10000000
00000000
00010000
01000000
00100000
10000000
00010000
00000000
,
00000000
00000000
00000000
00000000
,
00000000
00000000
00000000
00000000
,
00000000
00000000
00000000
00000000
,
00000000
00000000
00000000
10000000
,
00000000
00010000
00000000
00000000
00100000
00000000
00000000
00000000
,
00000000
00000000
00000000
01000000
,
00000000
00100000
00000000
00000000
00010000
00000000
00000000
00000000
,
00000000
00000000
00000000
00100000
,
00000000
00001000
00000000
00000000
00010000
00000000
00000000
00000000
,
00000000
00000000
00000000
00000100
,
00000000
00001000
00000000
00000000
00000010
00000000
00001001
00000000
,
00000000
00000000
00000000
00000001
,
00000100
00000010
00001000
00000100
,
00000010
00000001
00001000
00000010
,
00001000
00000100
00010000
00001000
,
00100000
01000000
00100000
00010000
,
01000000
00100000
10000000
00010000
,
00100000
01000000
00100000
00010000
,
00100000
00001000
00010000
00000100
,
00001000
00000010
00000010
00000100
,
00000010
00001000
00000100
00010000
,
00001000
00100000
00010000
01000000
,
00100000
10000000
00010000
00100000
,
00001000
00000000
00010000
00000000
00000100
00000000
00000000
00000010
,
00000000
00000000
00000001
00000000
00000100
00000000
00000000
00000010
,
00000000
00000000
00001000
00000010
00000100
00000000
00000000
00000010
,
00000000
00010000
00001000
00100000
,
01000000
20000000
30010000
00000000
;

//---------------dance-single - ----------------
#NOTEDATA:;
#CHARTNAME:;
#STEPSTYPE:dance-single;
#DESCRIPTION:;
#CHARTSTYLE:;
#DIFFICULTY:Beginner;
#METER:2;
#RADARVALUES:0.111434,0.242517,0.074684,0.000000,0.000000,94.000000,85.000000,9.000000,0.000000,0.000000,0.000000,0.000000,0.000000,0.000000,0.111434,0.242517,0.074684,0.000000,0.000000,94.000000,85.000000,9.000000,0.000000,0.000000,0.000000,0.000000,0.000000,0.000000;
#CREDIT:;
#NOTES:
// measure 0
0000
0000
0000
0000
,  // measure 1
0000
0000
0000
0000
,  // measure 2
0000
0000
0000
0000
,  // measure 3
0000
0000
0000
0000
,  // measure 4
0000
0000
0000
0000
,  // measure 5
0000
0000
0000
0000
,  // measure 6
0000
0000
0000
0000
,  // measure 7
0000
0000
0000
0000
,  // measure 8
0010
0000
0000
0000
,  // measure 9
0000
0000
0000
0000
,  // measure 10
1000
0000
0000
0000
,  // measure 11
0000
0000
0000
0000
,  // measure 12
0001
0000
0000
0000
,  // measure 13
0000
0000
0000
0000
,  // measure 14
0100
0000
0010
0000
,  // measure 15
1001
0000
0000
0000
,  // measure 16
1000
0000
0000
0000
,  // measure 17
1000
0000
0000
0000
,  // measure 18
0001
0000
0000
0000
,  // measure 19
0100
0000
0000
0010
,  // measure 20
0100
0000
0000
0000
,  // measure 21
0100
0000
0000
0000
,  // measure 22
0010
0000
0000
0000
,  // measure 23
1000
0000
0000
0001
,  // measure 24
0001
0000
0000
0000
,  // measure 25
1000
0000
0000
0000
,  // measure 26
0010
0000
0000
0000
,  // measure 27
1000
0000
0000
0000
,  // measure 28
0100
0000
0000
0000
,  // measure 29
1000
0000
0000
0000
,  // measure 30
0001
0000
1000
0000
,  // measure 31
0110
0000
0000
0000
,  // measure 32
0100
0000
0000
0000
,  // measure 33
0010
0000
0000
0000
,  // measure 34
1000
0000
0000
0000
,  // measure 35
0001
0000
1000
1000
,  // measure 36
1000
0000
0000
0000
,  // measure 37
0001
0000
0000
0000
,  // measure 38
0010
0000
0000
0000
,  // measure 39
0001
0000
0000
0000
,  // measure 40
1000
0000
0000
0001
,  // measure 41
0000
0000
0000
0000
,  // measure 42
0100
0000
0000
0010
,  // measure 43
0000
0000
0000
0000
,  // measure 44
1000
0000
0000
0010
,  // measure 45
0000
0000
0000
0100
,  // measure 46
0000
0000
0000
0001
,  // measure 47
0000
0000
0000
1000
,  // measure 48
0000
0000
1000
0000
,  // measure 49
0000
0000
0000
0001
,  // measure 50
0000
0000
0001
0000
,  // measure 51
0000
0000
0000
0100
,  // measure 52
0000
0000
0100
0000
,  // measure 53
0000
0000
0000
0010
,  // measure 54
0000
0010
0000
0010
,  // measure 55
0000
1000
0001
0110
,  // measure 56
0000
0000
0000
0000
,  // measure 57
0000
0000
0000
0000
,  // measure 58
0000
0000
0000
0000
,  // measure 59
0000
0000
0000
1001
,  // measure 60
0000
0000
0000
0000
,  // measure 61
0000
0000
0000
0110
,  // measure 62
0000
0000
0000
0000
,  // measure 63
0000
0000
0000
0110
,  // measure 64
0000
0000
0000
0000
,  // measure 65
0000
0000
0000
1001
,  // measure 66
0000
0000
0000
0110
,  // measure 67
0000
0000
0000
0100
,  // measure 68
0000
0000
0000
0010
,  // measure 69
0000
0000
1000
0001
,  // measure 70
0000
0000
0000
0010
,  // measure 71
0000
0001
0000
1000
,  // measure 72
0000
0000
0000
0100
,  // measure 73
0000
0000
0000
1000
,  // measure 74
0000
0000
0000
0001
,  // measure 75
0000
1000
0000
0010
,  // measure 76
0000
0000
0100
0000
,  // measure 77
0010
0100
0010
0000
,  // measure 78
0000
1000
1000
0000
,  // measure 79
0001
0000
1000
0000
,  // measure 80
0000
0000
0010
0000
,  // measure 81
0000
0000
0100
0000
,  // measure 82
0000
0000
0001
0000
,  // measure 83
1000
0000
0110
0000
;
