#TITLE:HELP! I'M A FISH;
#SUBTITLE:;
#ARTIST:CREAMY;
#TITLETRANSLIT:;
#SUBTITLETRANSLIT:;
#ARTISTTRANSLIT:;
#GENRE:;
#CREDIT:;
#BANNER:[Zoology] - HELP! I'M A FISH.png;
#BACKGROUND:[Zoology] - HELP! I'M A FISH-bg.png;
#LYRICSPATH:;
#CDTITLE:cdtitle.png;
#MUSIC:[Zoology] - HELP! I'M A FISH.ogg;
#OFFSET:-0.807000;
#SAMPLESTART:63.100342;
#SAMPLELENGTH:13.000000;
#SELECTABLE:YES;
#DISPLAYBPM:130.000000;
#BPMS:0.000000=130.046005
;
#STOPS:
;
#BGCHANGES:;
#KEYSOUNDS:;
#ATTACKS:;

//---------------dance-single - ----------------
#NOTES:
     dance-single:
     :
     Beginner:
     1:
     0.102910,0.177557,0.071023,0.000000,0.000000,71.000000,64.000000,7.000000,0.000000,0.000000,0.000000,0.102910,0.177557,0.071023,0.000000,0.000000,71.000000,64.000000,7.000000,0.000000,0.000000,0.000000:
// measure 0
0000
0000
0000
0000
,  // measure 1
0000
0000
0000
0000
,  // measure 2
0000
0000
0000
0000
,  // measure 3
0000
0000
0000
0000
,  // measure 4
0010
0000
0000
0000
,  // measure 5
0010
0000
0000
0000
,  // measure 6
0100
0000
0010
0000
,  // measure 7
0100
0000
0000
0000
,  // measure 8
1000
0000
0000
0000
,  // measure 9
0001
0000
0000
0000
,  // measure 10
1000
0000
0001
0000
,  // measure 11
0010
0000
0000
0000
,  // measure 12
0100
0000
0000
0000
,  // measure 13
0100
0000
0000
0000
,  // measure 14
0010
0000
0100
0000
,  // measure 15
0001
0000
0000
0000
,  // measure 16
1000
0000
0000
0000
,  // measure 17
0000
0000
0000
0000
,  // measure 18
0001
0000
0001
0000
,  // measure 19
0001
0000
0000
0000
,  // measure 20
1000
1000
1000
0000
,  // measure 21
1000
1000
1000
0000
,  // measure 22
0001
0000
0010
0000
,  // measure 23
0100
0000
0000
0000
,  // measure 24
0001
0001
0001
0000
,  // measure 25
0001
0001
0001
0000
,  // measure 26
1000
0000
0000
0000
,  // measure 27
0010
0000
0000
0000
,  // measure 28
1000
0000
0000
0000
,  // measure 29
0010
0000
0000
0000
,  // measure 30
0100
0000
0001
0000
,  // measure 31
0010
0000
1000
0000
,  // measure 32
0100
0000
0000
0000
,  // measure 33
0000
0000
0000
0000
,  // measure 34
1001
0000
0000
0000
,  // measure 35
0010
0000
0010
0000
,  // measure 36
0010
0000
0000
0000
,  // measure 37
0100
0000
0000
0000
,  // measure 38
0110
0000
0000
0000
,  // measure 39
0001
0000
1000
0000
,  // measure 40
0001
0000
0000
0000
,  // measure 41
1000
0000
0000
0000
,  // measure 42
0110
0000
0000
0000
,  // measure 43
1001
0000
0000
0000
,  // measure 44
0010
0000
0010
0000
,  // measure 45
0010
0000
0000
0000
,  // measure 46
0110
0000
0000
0000
,  // measure 47
1001
0000
0000
0000
,  // measure 48
0010
0000
0010
0000
,  // measure 49
0010
0000
0000
0000
,  // measure 50
1001
0000
0000
0000
;

//---------------dance-single - ----------------
#NOTES:
     dance-single:
     :
     Easy:
     2:
     0.192776,0.258726,0.152192,0.202922,0.000000,133.000000,118.000000,15.000000,20.000000,0.000000,0.000000,0.192776,0.258726,0.152192,0.202922,0.000000,133.000000,118.000000,15.000000,20.000000,0.000000,0.000000:
0000
0000
0000
0000
,
0000
0000
0000
0000
,
0000
0000
0000
0000
,
0000
0000
0000
0001
,
0001
0010
0100
0000
,
0100
0000
0100
0000
,
1000
0000
0001
0000
,
1000
0001
2002
3003
,
0010
0100
0010
0000
,
1000
0001
1000
0000
,
0002
0100
1003
0000
,
0010
0010
0000
0000
,
1000
0001
1000
0000
,
0010
0100
0010
0000
,
2000
0010
3001
0000
,
0010
0010
0000
0000
,
0100
0000
0000
0000
,
0100
0000
0000
0000
,
1000
0001
1000
0001
,
0100
0010
0200
0000
,
0320
0000
0000
0000
,
0000
0000
0000
0030
,
0100
0010
0100
0010
,
1000
0001
2000
0000
,
3002
0000
0000
0000
,
0000
0000
0000
0003
,
0010
0000
0010
0000
,
1001
1001
1001
0000
,
0100
0000
0100
0000
,
0110
0110
0110
0000
,
2000
0000
0000
0000
,
0200
0000
0000
3300
,
1100
0000
0000
0000
,
1000
1000
1000
1000
,
0001
1000
0001
1000
,
0010
0100
0010
0000
,
0200
0010
0301
0000
,
0002
0010
0103
0000
,
0100
0010
0100
0010
,
1000
0001
1000
0000
,
2000
0100
3001
0000
,
0002
0100
1003
0000
,
1001
1001
1001
0000
,
0010
0010
0010
0000
,
2000
0100
0001
0010
,
3100
0000
0000
0000
,
0110
0110
0110
0000
,
0001
0001
0001
0000
,
2000
0100
0001
0010
,
3200
0000
0020
0330
,
2002
0000
0000
0000
,
3003
0000
0000
0000
;

//---------------dance-single - ----------------
#NOTES:
     dance-single:
     :
     Medium:
     4:
     0.289889,0.362216,0.091315,0.497159,0.000000,200.000000,191.000000,9.000000,49.000000,0.000000,0.000000,0.289889,0.362216,0.091315,0.497159,0.000000,200.000000,191.000000,9.000000,49.000000,0.000000,0.000000:
0000
0000
0000
0000
,
0000
0000
0000
0000
,
0000
0000
0000
0000
,
0000
0000
0000
0000
0000
0000
0010
0100
,
2000
0100
3001
2000
,
3001
2000
3001
0000
,
1100
0000
0101
0000
,
0011
0000
1010
0000
1000
0010
1000
0010
,
2000
0100
3001
2000
,
3001
0010
0100
1000
,
0000
0000
0010
0010
0000
0010
0000
0000
,
2000
0000
3002
0000
0003
0000
0001
0010
,
0200
1000
0310
0200
,
1300
0010
0100
0001
,
0000
0000
0010
0010
0000
0010
0000
0000
,
0200
2300
3002
0023
,
0230
2300
3002
0023
,
0230
2300
3002
0023
,
0130
1000
0100
0000
0010
0000
0001
0000
,
0100
0001
0100
0000
0010
0000
0010
0020
,
0000
0100
0100
1000
,
1000
0100
0100
0130
,
0001
1000
0001
0000
0010
0000
0100
0000
,
1000
0001
1000
0000
0010
0000
0010
0020
,
0000
0100
0100
1000
,
1000
0100
0100
0130
,
0002
0010
2003
0000
,
3010
0010
0000
0010
0000
0000
0000
0000
,
2000
0100
3002
0000
,
0013
0010
0000
0010
0000
0000
0000
0000
,
0001
0010
0001
0010
0000
0000
0000
0000
,
0100
1000
0100
1000
0000
0000
0010
0000
,
0110
0000
1001
0000
,
0110
0000
1001
0000
0001
0010
0001
0010
,
0001
0100
0001
0000
2000
0000
3100
0000
,
1000
0100
1000
0000
0002
0000
0013
0000
,
0000
0000
0100
0100
0000
0100
0000
0000
,
2000
0000
3002
0000
0003
0000
0100
0010
,
0100
0001
0100
0000
0020
0000
1030
0000
,
0001
0010
0001
0000
2000
0000
3010
0000
,
0000
0000
0100
0100
0000
0100
0000
0000
,
0002
0000
0023
0000
0030
0000
0100
0010
,
0100
0010
0100
0010
0100
0000
1000
0001
,
2000
3020
0230
0302
,
0003
0000
1000
1000
0000
1000
0000
0000
,
0002
0000
0023
0000
0030
0000
0100
0010
,
0100
0010
0100
0010
0100
0000
0010
0001
,
0020
0032
2003
3200
,
0300
0000
1000
1000
0000
1000
0000
0000
,
0020
2030
3010
0100
,
0220
0000
0000
0000
,
0330
0000
0000
0000
;

//---------------dance-single - ----------------
#NOTES:
     dance-single:
     :
     Hard:
     6:
     0.360911,0.388088,0.223214,0.213068,0.030438,249.000000,227.000000,22.000000,21.000000,0.000000,0.000000,0.360911,0.388088,0.223214,0.213068,0.030438,249.000000,227.000000,22.000000,21.000000,0.000000,0.000000:
0000
0000
0000
0000
,
0000
0000
0000
0000
,
0000
0000
0000
0000
,
0000
0000
0000
0000
0000
0000
0001
0010
,
0100
1000
0100
0010
0002
0000
1000
0000
,
0010
1000
0013
0000
,
1100
0000
0101
0000
,
1100
0000
0101
0000
1001
0001
0010
0100
,
1000
0000
0010
0000
1000
1000
0100
0000
,
0010
0000
0001
0000
0100
0100
0001
0000
,
0010
0000
0100
1000
0001
0000
0100
0000
,
0010
1000
0001
0000
0010
0001
1000
0000
,
0010
0000
1000
0000
0001
0001
0010
0000
,
0100
0000
1000
0000
0100
0100
0010
0000
,
0001
0000
0100
0010
1000
0000
0001
0000
,
0010
0100
1000
0000
0100
1000
0001
0000
,
0100
0000
0000
0100
0000
0000
0100
0000
0000
0000
0100
0000
0000
0100
0000
0000
,
0010
0000
0000
0010
0000
0000
0010
0000
0000
0000
0010
0000
0000
0010
0000
0000
,
1000
0100
1000
0100
0010
0001
0010
0000
,
0001
0100
0001
0100
0010
1000
0010
0000
,
2000
0100
0001
3010
,
0002
0100
1000
0013
,
0100
1000
0010
1000
0100
0010
0001
0000
,
0100
0001
0010
0001
0100
0010
1000
0000
,
0002
0010
1000
0103
,
2000
0010
0001
3100
,
1001
0000
0102
0013
,
0100
1000
0001
0000
0001
1000
0100
0000
,
0110
0000
0012
0103
,
0010
1000
0100
0000
0100
1000
0010
0000
,
1000
0010
0100
0001
0000
0000
0000
0000
,
1000
0000
0010
0000
0100
0000
0001
0000
0000
0000
0000
0000
0001
0010
0000
0010
,
0100
0000
0110
0000
,
1100
0000
0101
0000
1001
0010
0100
1000
,
0002
0103
2000
3100
,
0010
0001
0100
0001
0010
0000
0100
0000
,
2000
0010
0001
3100
,
1001
0000
0101
0000
0010
0000
0010
0001
,
2000
3010
0002
0013
,
0100
1000
0001
1000
0100
0000
0010
0000
,
0002
0010
1000
0103
,
0101
1001
1010
1001
,
0002
0013
2000
3100
,
0001
0010
0100
0000
0010
0100
1000
0000
,
0020
1000
0100
0031
,
0011
0000
1010
0000
1000
0000
0100
0010
,
0002
0103
2000
3010
,
1000
0010
0100
0000
0010
0100
0001
0000
,
0200
0001
0010
1300
,
1000
0100
0001
0010
,
2200
0000
0000
0000
,
3300
0000
0000
0000
;
