#VERSION:0.83;
#TITLE:Ganymede;
#SUBTITLE:;
#ARTIST:Genbu;
#TITLETRANSLIT:;
#SUBTITLETRANSLIT:;
#ARTISTTRANSLIT:;
#GENRE:;
#ORIGIN:;
#CREDIT:;
#BANNER:;
#BACKGROUND:;
#PREVIEWVID:;
#JACKET:;
#CDIMAGE:;
#DISCIMAGE:;
#LYRICSPATH:;
#CDTITLE:;
#MUSIC:Ganymede.mp3;
#OFFSET:-2.740000;
#SAMPLESTART:49.599998;
#SAMPLELENGTH:11.700000;
#SELECTABLE:YES;
#BPMS:0.000=82.000,
156.000=78.000,
158.000=75.000,
159.000=72.000,
160.000=78.000;
#STOPS:;
#DELAYS:;
#WARPS:;
#TIMESIGNATURES:0.000=4=4;
#TICKCOUNTS:0.000=4;
#COMBOS:0.000=1;
#SPEEDS:0.000=1.000=0.000=0;
#SCROLLS:0.000=1.000;
#FAKES:;
#LABELS:0.000=Song Start;
#BGCHANGES:;
#KEYSOUNDS:;
#ATTACKS:
;

//---------------dance-single - ----------------
#NOTEDATA:;
#CHARTNAME:;
#STEPSTYPE:dance-single;
#DESCRIPTION:;
#CHARTSTYLE:;
#DIFFICULTY:Challenge;
#METER:10;
#RADARVALUES:0.597738,0.790901,0.114950,0.252889,0.885112,546.000000,531.000000,15.000000,33.000000,0.000000,0.000000,0.000000,0.000000,0.000000,0.597738,0.790901,0.114950,0.252889,0.885112,546.000000,531.000000,15.000000,33.000000,0.000000,0.000000,0.000000,0.000000,0.000000;
#CREDIT:;
#NOTES:
// measure 0
0010
0000
0100
0000
0010
0000
0100
0000
0010
0000
0100
0000
0010
0000
0100
0001
,  // measure 1
1000
0000
0001
0000
1000
0000
0001
0000
1000
0000
0001
0000
1000
0000
0001
1000
,  // measure 2
0010
0000
1000
0000
0010
0000
1000
0000
0010
0000
1000
0000
0010
0000
1000
0001
,  // measure 3
0100
0000
0010
1000
0001
0000
0100
0000
0001
0000
0100
0000
0001
0000
0100
0000
,  // measure 4
0001
0000
1000
0000
0100
0000
1000
0000
0010
0000
0100
0000
0001
0000
0100
1000
,  // measure 5
0001
0000
1000
0000
0001
0000
1000
0000
0010
0000
0100
0000
0010
0000
1000
0001
,  // measure 6
0100
0010
0001
0100
0001
1000
0100
1000
,  // measure 7
0010
0000
0100
0000
0001
0000
0010
0000
0001
0000
0100
0000
0010
0001
1000
0000
,  // measure 8
1001
0100
2000
0010
3002
0100
0023
1000
,  // measure 9
0032
0100
1000
0010
0203
0010
0302
1000
,  // measure 10
2003
0010
0001
3100
0020
0001
0100
0031
,  // measure 11
0200
0000
0000
0000
0010
0000
0000
0000
0001
0000
0000
0000
0010
0000
0000
0000
0302
0000
0000
0000
1000
0000
0000
0000
0103
0000
1000
0001
1000
0001
1000
0001
,  // measure 12
1000
2002
0000
3000
0020
0000
0000
0033
,  // measure 13
1010
0000
0000
0000
2020
0000
0000
0000
0000
0000
0000
0000
0030
0000
0000
0000
0002
0000
0000
0000
0000
0000
0000
0000
3003
0000
0000
0000
0000
0000
0001
0100
,  // measure 14
0001
0000
0202
0000
0000
0000
0300
0000
2000
0000
0000
0000
3003
0000
0010
0100
,  // measure 15
0110
0000
0000
0000
0210
0000
0000
0000
0000
0000
0010
0000
0000
0000
0010
0000
0300
0000
0010
0000
0000
0000
0100
0010
0100
0000
0010
0000
0100
0000
1000
0000
,  // measure 16
0001
0100
0101
0010
1000
0100
1100
1000
,  // measure 17
0010
0000
0100
0000
0101
0000
0001
0000
1000
0000
0010
0000
1010
0000
1000
0001
,  // measure 18
1000
0000
0100
0000
1100
0000
0100
0000
0001
0000
1000
0000
1010
0000
0100
0010
,  // measure 19
0100
0000
0000
0000
0010
0000
0000
0000
0110
0000
0000
0000
0100
0000
0000
0000
0010
0000
0001
0000
0010
0000
0001
1000
0001
1000
0001
0100
0001
0100
0001
0100
,  // measure 20
0002
0000
0000
0000
1000
1000
1000
0000
2003
0000
0000
0000
0000
0000
0010
0000
,  // measure 21
3001
0100
0001
0000
0202
0000
0000
0000
0000
0000
0000
0000
0000
0000
0303
0000
,  // measure 22
1000
0001
2000
0000
0010
0000
0000
0000
3002
0000
0100
0000
1000
0000
0013
0000
,  // measure 23
0100
0000
0000
0002
0000
0000
1000
0000
0000
0000
0000
0000
0000
0000
0000
1000
0000
0000
0013
0000
0100
0000
0001
0000
,  // measure 24
2000
0000
0000
0000
0000
0000
0000
0000
0000
0000
0000
0000
0000
0000
0000
0000
0000
0000
3001
0000
0001
0000
1000
0001
,  // measure 25
1000
0010
1000
0010
1000
0010
1000
0001
1000
0001
1000
0001
1000
0100
1000
0100
1000
0100
1000
0001
1000
0001
1000
0001
,  // measure 26
0100
0001
0100
0001
0100
0001
0100
0010
0100
0010
0100
0010
0100
1000
0100
1000
0100
1000
0100
0010
0100
0001
0100
0010
,  // measure 27
0001
1000
0001
1000
0001
1000
0001
0010
0001
0010
0001
0010
0001
0100
0001
0100
0001
0100
0001
1000
0010
1000
0001
0100
,  // measure 28
0010
1000
0100
1000
0010
1000
0001
0100
0010
0100
0001
0010
0001
0100
0010
1000
0100
0010
0001
0100
0010
1000
0100
0010
,  // measure 29
0001
0100
0001
0100
0010
0100
0001
0100
0001
0100
0010
0100
0001
0100
0001
0100
0010
0100
0001
0100
0001
0100
0010
1000
,  // measure 30
0001
1000
0001
1000
0001
0010
0001
1000
0001
1000
0001
0010
0001
1000
0001
1000
0001
0010
0001
0100
0010
0100
0001
1000
,  // measure 31
0100
1000
0100
1000
0100
0010
0100
1000
0100
1000
0100
0010
0100
1000
0100
1000
0100
0010
0100
1000
0010
0100
0001
1000
,  // measure 32
0100
0010
0100
0001
1000
0010
1000
0100
1000
0001
0100
0010
1000
0100
0010
0001
0100
0010
1000
0001
0100
0010
1000
0001
,  // measure 33
0100
0001
0100
0001
0100
0000
0010
1000
0010
1000
0010
0000
1000
0001
1000
0001
1000
0001
1000
0100
0010
0001
0100
0010
,  // measure 34
1000
0001
1000
0100
1000
0000
0010
0100
0010
1000
0010
0000
0100
0001
0100
0010
1000
0001
0100
0010
1000
0001
0010
0001
,  // measure 35
0100
0010
1000
0001
0100
0010
1000
0001
0100
0001
0010
0001
1000
0100
1000
0010
0100
0001
0010
0100
1000
0001
0010
0001
,  // measure 36
0100
0010
1000
0100
0001
1000
0010
0100
0001
1000
0001
0100
0010
1000
0010
0100
0001
1000
0001
0100
0010
1000
0100
0001
,  // measure 37
2000
0000
0100
0000
0010
0000
0100
0000
3002
0000
0100
0000
0010
0000
0103
0010
,  // measure 38
0200
0000
0001
0000
1000
0000
0001
0000
0320
0000
1000
0000
0100
0000
1030
0001
,  // measure 39
1000
0100
1000
0100
0001
0010
0001
0010
,  // measure 40
0001
1000
0001
1000
0010
0100
0010
0100
,  // measure 41
0001
1000
0001
1000
0001
0010
0100
2000
,  // measure 42
0000
3000
0000
0000
0000
0000
0000
0000
;
