#VERSION:0.83;
#TITLE:Frog Machine;
#SUBTITLE:;
#ARTIST:Infected Mushroom;
#TITLETRANSLIT:;
#SUBTITLETRANSLIT:;
#ARTISTTRANSLIT:;
#GENRE:Psytrance;
#ORIGIN:;
#CREDIT:;
#BANNER:frog.png;
#BACKGROUND:frog-bg.png;
#PREVIEWVID:;
#JACKET:;
#CDIMAGE:;
#DISCIMAGE:;
#LYRICSPATH:;
#CDTITLE:;
#MUSIC:frog.ogg;
#OFFSET:0.009000;
#SAMPLESTART:63.580002;
#SAMPLELENGTH:11.000000;
#SELECTABLE:YES;
#BPMS:0.000=150.000,
208.000=75.000;
#STOPS:207.979=1.600;
#DELAYS:;
#WARPS:;
#TIMESIGNATURES:0.000=4=4;
#TICKCOUNTS:0.000=4;
#COMBOS:0.000=1;
#SPEEDS:0.000=1.000=0.000=0;
#SCROLLS:0.000=1.000;
#FAKES:;
#LABELS:0.000=Song Start;
#BGCHANGES:;
#KEYSOUNDS:;
#ATTACKS:
;

//---------------dance-single - ----------------
#NOTEDATA:;
#CHARTNAME:;
#STEPSTYPE:dance-single;
#DESCRIPTION:;
#CHARTSTYLE:;
#DIFFICULTY:Hard;
#METER:8;
#RADARVALUES:0.502340,0.583732,0.079242,0.227822,0.633940,355.000000,347.000000,8.000000,23.000000,6.000000,0.000000,1.000000,0.000000,0.000000,0.502340,0.583732,0.079242,0.227822,0.633940,355.000000,347.000000,8.000000,23.000000,6.000000,0.000000,1.000000,0.000000,0.000000;
#CREDIT:;
#NOTES:
0000
0000
0000
0000
,
0000
0000
0000
0000
,
0000
0000
0000
0000
,
0000
0000
0000
0000
,
1000
0000
0000
0001
0000
0100
0001
0000
1000
0000
0000
0001
0000
0100
0001
0000
,
2000
0000
0000
0000
0000
0000
0000
0000
3100
0000
0000
0010
0000
0000
0100
0000
,
1000
0000
0000
0001
0000
1000
0100
0000
1000
0000
0000
0001
0000
1000
0100
0000
,
2000
0000
0000
0000
0000
0000
0000
0000
3010
0000
0000
0100
0000
0000
0010
0000
,
1000
0000
0000
0001
0000
0010
0001
0000
1000
0000
0000
0001
0000
0010
0001
0000
,
2000
0000
0000
3010
0100
0000
0010
1000
,
0001
0000
0000
1000
0000
0010
1000
0000
0001
0000
0000
1000
0000
0010
1000
0000
,
0002
0000
0000
0000
0000
0000
0103
0000
0001
0100
0000
0000
0001
0000
1000
0010
,
1000
0000
0000
0000
1100
0000
0000
0000
0100
0000
0000
0010
0000
0000
0001
0000
,
0100
0000
0000
0000
0101
0000
0000
0000
0001
0000
0000
0100
0000
0000
0010
0000
,
1000
0000
0010
0000
1010
0000
0000
0000
1000
0000
0000
0100
0000
0000
0010
0000
,
0001
0000
0000
0000
0010
0001
0000
0000
1000
0000
0000
0010
0000
0000
0100
0000
,
0001
0000
0000
0000
0011
0000
0000
0000
0001
0000
0000
0010
0000
0000
0100
0000
,
1000
0000
0000
0000
1100
0000
0000
0000
1000
0000
0000
0010
0000
0000
0100
0000
,
0101
0000
0000
0101
0000
0000
0202
0000
0000
0000
0000
0000
0000
0000
0000
0000
,
0303
0000
0000
0000
0000
0000
0000
0000
0000
0001
0000
0100
0010
0100
0010
0100
,
0001
0000
1000
0000
0001
0000
1000
0100
0000
0000
1000
0000
0010
0000
1000
0000
,
0001
0000
0010
0000
0001
0000
0010
0100
0000
0000
1000
0000
0100
0000
1000
0000
,
0001
0000
1000
0000
0001
0000
1000
0010
0000
0000
1000
0000
0100
0000
1000
0000
,
0001
0000
0010
0000
0001
0000
0100
0010
0000
0000
1000
0000
0010
0000
1000
0000
,
0001
0000
0010
0000
0100
0000
0010
0001
0000
0000
1000
0000
0100
0000
1000
0000
,
0001
0000
0100
0000
0010
0000
0100
0001
0000
0000
1000
0000
0010
0000
1000
0000
,
0001
0000
0100
0000
0010
0000
0100
0001
0000
0000
1000
0000
0010
0000
1000
0000
,
0001
0000
0010
0000
0100
0000
0010
0001
0000
0000
1000
0000
0100
0000
1000
0000
,
0002
0000
0000
0000
0000
0000
0000
0000
0000
0000
0100
0000
0000
0100
0000
0000
,
0203
0000
0000
0000
0000
0000
0000
0000
0000
0000
0010
0000
0000
0010
0000
0000
,
0320
0000
0000
0000
0000
0000
0000
0000
0000
0000
1000
0000
0000
1000
0000
0000
,
2030
0000
0000
0000
0000
0000
0000
0000
0000
0000
0100
0000
0000
0100
0000
0000
,
3100
0000
1000
0100
1000
0000
0000
0000
0001
0100
0001
0000
0000
0100
0000
0000
,
0010
0000
1000
0010
1000
0000
0000
0000
0001
0010
0001
0000
0000
0010
0000
0000
,
0100
0000
1000
0010
1000
0000
0000
0000
0001
0100
0001
0000
0000
0100
0000
0000
,
0010
1000
0010
1000
0010
1000
0010
1000
0004
0000
0000
0000
0000
0000
0000
0000
,
1003
0000
0100
0000
0000
1000
0000
0010
0000
1000
0000
0000
0001
0000
1000
0000
,
0001
0000
0100
0000
0000
0010
0000
1000
0000
0010
0000
0000
1000
0000
0001
0000
,
1000
0000
0010
0000
0000
1000
0000
0100
0000
1000
0000
0000
0001
0000
1000
0000
,
0001
0000
0010
0000
0000
0100
0000
1000
0000
0100
0000
0000
1000
0000
0001
0000
,
1000
0000
0100
0000
0000
0010
0000
0100
0000
1000
0000
0000
0010
0000
0100
0000
,
0001
0000
0100
0000
0000
0010
0000
0100
0000
0001
0000
0000
0010
0000
0100
0000
,
1000
0000
0010
0000
0000
0100
0000
0010
0000
1000
0000
0000
0100
0000
0010
0000
,
0002
0000
M000
0000
0000
0M00
0000
00M0
0000
0000
0000
0000
0M00
0000
M000
0000
,
1003
0000
0100
0000
0000
1000
0000
0001
0000
1000
0000
0001
0010
0000
0100
0000
,
0010
0000
0001
0000
0000
1000
0000
0001
0000
1000
0000
0001
0100
0000
0010
0000
,
1000
0000
0010
0000
0000
1000
0000
0001
0000
1000
0000
0001
0100
0000
0010
0000
,
0100
0000
0001
0000
0000
1000
0000
0001
0000
1000
0000
0001
0010
0000
0100
0000
,
1000
0000
0100
0000
0000
1000
0000
0001
0000
0100
0000
0001
1000
0000
0100
0000
,
0010
0000
0001
0000
0000
1000
0000
0001
0000
0010
0000
0001
1000
0000
0010
0000
,
0100
0000
0010
0000
0000
1000
0000
0001
0000
0010
0000
0001
1000
0000
0010
0000
,
0100
0000
0001
0000
0000
1000
0000
0001
0000
0100
0000
0001
0010
0000
0100
0000
,
2000
0000
3002
0000
0003
0000
0000
0000
0000
0000
0000
0000
0000
0000
0000
0000
2000
0000
0000
0000
0000
0000
0000
0000
3001
0000
0000
0100
0000
0000
0010
0000
,
2000
0000
3000
0000
0000
0000
0000
0000
0000
0000
0000
0000
0001
0010
0001
0010
0002
0000
0000
0000
0000
0000
0000
0000
1003
0000
0000
0100
0000
0000
0010
0000
,
0002
2003
3000
0000
0000
0000
0000
0000
0002
0000
0000
1003
0001
0000
1000
0010
,
2000
0000
3000
0000
0000
0000
000M
0000
0000
0000
0000
0000
0000
0000
0000
0000
0200
0000
0000
0000
0000
0000
0310
0000
0100
0000
0000
0000
1000
0100
0000
1000
,
0200
0320
0030
0000
0000
0000
0000
0000
0000
0000
0000
0000
0000
0000
0000
0000
;

//---------------dance-single - ----------------
#NOTEDATA:;
#CHARTNAME:;
#STEPSTYPE:dance-single;
#DESCRIPTION:;
#CHARTSTYLE:;
#DIFFICULTY:Challenge;
#METER:9;
#RADARVALUES:0.578753,0.666751,0.089148,0.594318,0.797377,409.000000,400.000000,9.000000,60.000000,8.000000,0.000000,7.000000,0.000000,0.000000,0.578753,0.666751,0.089148,0.594318,0.797377,409.000000,400.000000,9.000000,60.000000,8.000000,0.000000,7.000000,0.000000,0.000000;
#CREDIT:;
#NOTES:
0000
0000
0000
0000
,
0000
0000
0000
0000
,
0000
0000
0000
0000
,
0000
0000
0000
0000
,
0001
1000
0000
0010
0000
1000
0001
0000
1000
0100
0000
0010
0000
0100
1000
0000
,
0004
0000
0000
0000
0000
0000
0000
0000
0203
0320
0030
0200
0300
0000
0002
0003
,
2000
3001
0000
0010
0000
0001
1000
0000
0001
0100
0000
0010
0000
0100
0001
0000
,
4000
0000
0000
0000
0000
0000
0000
0000
3200
0320
0030
0200
0300
0000
0020
0000
,
0032
1003
0000
0100
0000
1000
0001
0000
1000
0010
0000
0100
0000
0010
1000
0000
,
0004
0000
0000
0000
0000
0000
0203
0300
0020
0230
0300
0000
0002
0003
0020
0230
,
2300
3001
0000
0010
0000
0001
1000
0000
0001
0100
0000
0010
0000
0100
0001
0000
,
4000
0000
0000
0000
0000
0000
3200
0300
0020
0230
0300
0000
2000
3000
0002
0023
,
0130
0000
0000
0000
1100
0000
0000
0000
1000
0001
0000
0100
0000
0010
1000
0001
,
1000
0000
0000
0000
1010
0000
0000
0000
0010
1000
0001
1000
0000
0100
1000
0000
,
0100
0000
0010
0000
0011
0000
0000
0000
0001
0000
1000
0010
0000
1000
0010
0000
,
0100
0000
0000
0000
0001
0100
0001
0000
1000
0000
0100
0010
0000
0100
0010
0000
,
0001
0000
0000
0000
0011
0000
0000
0000
0001
1000
0000
0010
0000
0100
0001
0000
,
1000
0000
0000
0000
1010
0000
0000
0000
0010
1000
0001
1000
0000
0000
0100
0000
,
0110
0000
0000
0011
0000
0000
2002
0000
0000
0000
0000
0000
0000
0000
0000
0000
,
3003
0000
0000
0000
0000
0000
0000
0000
0000
0001
0000
1000
0100
0010
0100
1000
,
0001
0000
0100
0000
0010
0000
1000
0100
0000
0000
0010
0000
0100
0000
1000
0000
,
0010
0000
0100
0000
0001
0000
0010
0001
0000
0000
1000
0000
0010
0000
0100
0000
,
0001
0000
0010
0000
0100
0000
1000
0010
0000
0000
1000
0000
0100
0000
0010
0000
,
0001
0000
0100
0000
0010
0000
1000
0100
0000
0000
0010
0000
0100
0000
1000
0000
,
0010
0000
0100
0000
0001
0000
0010
0001
0000
0000
0100
0000
0001
0000
0010
0000
,
0100
0000
1000
0000
0010
0000
0100
0010
0000
0000
0100
0000
0001
0000
1000
0000
,
0100
0000
0010
0000
0100
0000
1000
0010
0000
0000
0100
0000
0010
0000
1000
0000
,
0100
0000
0010
0000
0001
0000
0100
0010
0000
0000
0100
0000
0001
0000
1000
0000
,
2100
0000
0000
0000
0000
0000
0000
0000
0000
0000
0100
0000
0000
0001
0000
0000
,
3020
0000
0000
0000
0000
0000
0000
0000
0000
0000
1000
0000
0000
0100
0000
0000
,
2030
0000
0000
0000
0000
0000
0000
0000
0000
0000
0010
0000
0000
0001
0000
0000
,
3200
0000
0000
0000
0000
0000
0000
0000
0000
0000
0010
0000
0000
1000
0000
0000
,
0310
0000
0100
1000
0100
0000
0010
0000
0100
1000
0100
0000
0010
0000
0001
0000
,
1000
0000
0001
0100
0001
0000
1000
0000
0001
0100
0001
0000
1000
0000
0010
0000
,
1000
0000
0001
0010
0001
0000
1000
0000
0001
0010
0001
0000
1000
0000
0010
0000
,
1000
0001
0100
0001
0010
0100
1000
0001
0400
0000
0000
0000
0000
0000
0000
0000
,
0301
0000
0010
0000
0000
0001
0000
1000
0000
0010
0000
1000
0100
0000
0010
0000
,
0100
0000
1000
0000
0000
0001
0000
1000
0000
0100
0000
1000
0010
0000
0100
0000
,
0001
0000
0100
0000
0000
0001
0000
1000
0000
0100
0000
1000
0010
0000
0100
0000
,
0010
0000
1000
0000
0000
0001
0000
1000
0000
0010
0000
1000
0100
0000
0010
0000
,
0001
0000
0010
0000
0000
0001
0000
1000
0000
0010
0000
1000
0100
0000
0010
0000
,
0100
0000
1000
0000
0000
0001
0000
1000
0000
0100
0000
1000
0010
0000
0100
0000
,
0001
0000
0100
0000
0000
0001
0000
1000
0000
0100
0000
1000
0010
0000
0100
0000
,
0002
0000
M000
0000
0000
0M00
0000
00M0
0000
0M00
0000
M000
0M00
0000
00M0
0000
,
1003
0000
0100
0000
0010
0001
0000
1000
0000
0001
0000
0100
0010
0000
0100
0000
,
0001
0000
0100
0000
0010
1000
0000
0001
0000
1000
0000
0100
0010
0000
0100
0000
,
1000
0000
0010
0000
0100
0001
0000
1000
0000
0001
0000
0010
0100
0000
0010
0000
,
0001
0000
0010
0000
0100
1000
0000
0001
0000
1000
0000
0010
0100
0000
0010
0000
,
1000
0000
0100
0000
0010
0001
0000
0100
0000
0010
0000
1000
0100
0000
1000
0000
,
0001
0000
0100
0000
0010
1000
0000
0100
0000
0010
0000
0001
0100
0000
0001
0000
,
1000
0000
0010
0000
0100
0001
0000
0010
0000
0100
0000
1000
0010
0000
1000
0000
,
0001
0000
0010
0000
0100
1000
0000
0010
0000
0100
0000
0001
0010
0000
0001
0000
,
2000
3000
2000
3000
0000
0000
0000
0000
0000
0000
0000
0000
0000
0000
0000
0000
0004
0000
0000
0000
0000
0000
0000
0000
0023
0230
0300
0020
0030
0000
0002
0003
,
2000
3000
0000
0000
0000
0000
0000
0000
0000
0000
0000
0000
0010
0100
0010
0100
0004
0000
0000
0000
0000
0000
0000
0000
0023
0230
0300
0020
0030
0000
0002
0003
,
2000
3000
2000
3000
0000
0000
0000
0000
0000
0000
0000
0000
0000
0000
0000
0000
0002
0003
0000
0000
0000
0000
2000
3000
0200
0320
0030
0000
0200
0300
2000
3020
,
2030
3000
0000
0000
0000
0000
M000
0000
0000
0000
0000
0000
0000
0000
0000
0000
0002
0003
0000
0000
0000
0000
2000
3000
0200
0320
0030
0000
0002
0203
0300
0002
,
0023
0030
0020
0030
0000
0000
0000
0000
0000
0000
0000
0000
0000
0000
0000
0000
0000
0000
0000
0000
0000
0000
0000
0000
0000
0000
0000
0000
0000
0000
0000
0000
;

//---------------dance-single - ----------------
#NOTEDATA:;
#CHARTNAME:;
#STEPSTYPE:dance-single;
#DESCRIPTION:;
#CHARTSTYLE:;
#DIFFICULTY:Medium;
#METER:6;
#RADARVALUES:0.390552,0.444253,0.336780,0.158485,0.123816,276.000000,242.000000,34.000000,16.000000,0.000000,0.000000,0.000000,0.000000,0.000000,0.390552,0.444253,0.336780,0.158485,0.123816,276.000000,242.000000,34.000000,16.000000,0.000000,0.000000,0.000000,0.000000,0.000000;
#CREDIT:;
#NOTES:
// measure 0
0000
0000
0000
0000
,  // measure 1
0000
0000
0000
0000
,  // measure 2
0000
0000
0000
0000
,  // measure 3
0000
0000
0000
0000
,  // measure 4
0001
0000
0010
0000
,  // measure 5
0002
0000
0000
0000
0000
0000
0000
0000
0100
0000
0000
0100
0000
0000
0103
0000
,  // measure 6
0101
0000
0000
0000
0000
0000
0000
0000
0001
0000
0000
0000
1000
0100
1000
0100
,  // measure 7
2000
0000
0000
0000
0000
0000
0000
0000
0100
0000
0000
0100
0000
0000
3100
0000
,  // measure 8
1100
1100
0000
0000
1000
0000
0000
0000
,  // measure 9
0002
0000
0000
0013
0000
0000
0001
0010
,  // measure 10
0011
0000
0001
0000
,  // measure 11
2000
0000
0000
3010
0000
0000
1000
0010
,  // measure 12
1000
0000
1100
0000
0100
0010
0001
0010
,  // measure 13
0100
0000
1100
0000
1000
0010
0100
0010
,  // measure 14
1000
0000
1010
0000
0010
1000
0001
1000
,  // measure 15
0100
0000
1100
0000
1000
0100
0010
0100
,  // measure 16
1000
0000
1100
0000
0100
0010
0001
1000
,  // measure 17
0010
0000
1010
0000
1000
0010
0100
0001
,  // measure 18
0010
0000
0000
0001
0000
0000
0202
0000
0000
0000
0000
0000
0000
0000
0000
0000
,  // measure 19
0303
0000
0000
0000
,  // measure 20
0001
0000
0000
0000
0011
0000
0000
0000
0000
0000
0010
0000
0000
0100
0000
0000
,  // measure 21
1000
0000
0000
0000
1100
0000
0000
0000
0000
0000
0100
0000
0000
1000
0000
0000
,  // measure 22
0010
0000
0000
0000
1010
0000
0000
0000
0000
0000
1000
0000
0000
0010
0000
0000
,  // measure 23
0100
0000
0000
0000
0101
0000
0000
0000
0000
0000
0001
0000
0000
1000
0000
0000
,  // measure 24
0100
0000
0000
0000
1100
0000
0000
0000
0000
0000
1000
0000
0000
0100
0000
0000
,  // measure 25
0010
0000
0000
0000
0011
0000
0000
0000
0000
0000
0001
0000
0000
1000
0000
0000
,  // measure 26
0010
0000
0000
0000
1010
0000
0000
0000
0000
0000
1000
0000
0000
0001
0000
0000
,  // measure 27
0100
0000
0000
0000
0101
0000
0000
0000
0000
0000
0001
0000
0000
1000
0000
0000
,  // measure 28
0200
0000
0000
0000
0000
0000
0000
0000
0000
0000
1000
0000
0000
1000
0000
0000
,  // measure 29
2300
0000
0000
0000
0000
0000
0000
0000
0000
0000
0100
0000
0000
0100
0000
0000
,  // measure 30
3200
0000
0000
0000
0000
0000
0000
0000
0000
0000
0010
0000
0000
0010
0000
0000
,  // measure 31
0320
0000
0000
0000
0000
0000
0000
0000
0000
0000
0100
0000
0000
0100
0000
0000
,  // measure 32
0130
0000
1000
0000
0100
0000
0000
0000
0000
0000
1000
0000
0000
1000
0000
0000
,  // measure 33
1000
0000
0001
0000
0010
0000
0000
0000
0000
0000
0001
0000
0000
0001
0000
0000
,  // measure 34
0001
0000
1000
0000
0010
0000
0000
0000
0000
0000
1000
0000
0000
1000
0000
0000
,  // measure 35
1000
0001
0100
0001
2000
0000
0000
0000
,  // measure 36
3001
0100
0001
0000
1010
0000
0001
0010
,  // measure 37
0001
0010
0001
0000
1100
0000
0001
0100
,  // measure 38
0001
0100
0001
0000
1010
0000
0001
0010
,  // measure 39
0001
0010
0001
0000
1100
0000
0001
0100
,  // measure 40
0010
0100
0001
0000
1010
0000
0001
0010
,  // measure 41
0100
0010
0001
0000
1100
0000
0001
0100
,  // measure 42
0010
1000
0001
0000
1010
0000
0001
0010
,  // measure 43
0200
0000
0000
0000
,  // measure 44
1300
0100
1000
0000
0011
0000
1000
0010
,  // measure 45
1000
0010
1000
0000
0101
0000
1000
0100
,  // measure 46
1000
0100
1000
0000
0011
0000
1000
0010
,  // measure 47
1000
0010
1000
0000
0101
0000
1000
0100
,  // measure 48
0010
0100
1000
0000
0011
0000
1000
0010
,  // measure 49
0100
0010
1000
0000
0101
0000
1000
0100
,  // measure 50
0010
0001
1000
0000
0011
0000
1000
0010
,  // measure 51
0100
0001
1000
0000
0101
0000
0000
0000
,  // measure 52
0001
0100
0000
0000
0000
0000
0000
0000
0002
0000
0000
0000
1003
0000
0000
0000
,  // measure 53
0001
0000
0000
0000
0000
0000
1000
0100
2000
0000
0000
0000
3001
0000
0000
0000
,  // measure 54
1000
0100
0000
0000
0000
0000
0000
0000
2000
0000
0000
0000
3010
0000
1000
0100
,  // measure 55
1000
0000
0000
0000
0002
0000
0013
0001
,  // measure 56
0100
0100
0000
0000
0000
0000
0000
0000
0000
0000
0000
0000
0000
0000
0000
0000
;

//---------------dance-single - ----------------
#NOTEDATA:;
#CHARTNAME:;
#STEPSTYPE:dance-single;
#DESCRIPTION:;
#CHARTSTYLE:;
#DIFFICULTY:Easy;
#METER:4;
#RADARVALUES:0.258953,0.332818,0.366496,0.099053,0.000000,183.000000,146.000000,37.000000,10.000000,0.000000,0.000000,0.000000,0.000000,0.000000,0.258953,0.332818,0.366496,0.099053,0.000000,183.000000,146.000000,37.000000,10.000000,0.000000,0.000000,0.000000,0.000000,0.000000;
#CREDIT:;
#NOTES:
// measure 0
0000
0000
0000
0000
,  // measure 1
0000
0000
0000
0000
,  // measure 2
0000
0000
0000
0000
,  // measure 3
0000
0000
0000
0000
,  // measure 4
0001
0000
0010
0000
,  // measure 5
0011
0000
0011
0000
,  // measure 6
0001
0000
0100
0000
,  // measure 7
0110
0000
0110
0000
,  // measure 8
0010
0000
1000
0000
,  // measure 9
1010
0000
1010
0000
,  // measure 10
1000
0000
0100
0000
,  // measure 11
1100
0000
1100
0000
,  // measure 12
1000
0100
1100
0000
,  // measure 13
0001
0100
0101
0000
,  // measure 14
1000
0010
1010
0000
,  // measure 15
0001
0010
0011
0000
,  // measure 16
1000
0100
0110
0000
,  // measure 17
0001
0100
0110
0000
,  // measure 18
2000
0000
0000
0000
,  // measure 19
3000
0000
0000
0000
,  // measure 20
0001
0011
0000
0010
,  // measure 21
0001
0101
0000
0010
,  // measure 22
1000
1100
0000
0100
,  // measure 23
0001
0011
0000
0100
,  // measure 24
1000
1010
0000
0001
,  // measure 25
1000
1100
0000
1000
,  // measure 26
0001
0101
0000
0001
,  // measure 27
1000
1010
0000
1000
,  // measure 28
0002
0000
0000
0000
,  // measure 29
0023
0000
0000
0000
,  // measure 30
0230
0000
0000
0000
,  // measure 31
2300
0000
0000
0000
,  // measure 32
3002
0000
0013
0000
,  // measure 33
0020
0000
0130
0000
,  // measure 34
0200
0000
1300
0000
,  // measure 35
2000
0000
3001
0000
,  // measure 36
1000
0010
1010
1000
,  // measure 37
0100
0010
0110
0100
,  // measure 38
0010
0001
0011
0001
,  // measure 39
1000
0010
1010
1000
,  // measure 40
0001
0100
0101
0001
,  // measure 41
1000
0100
1100
1000
,  // measure 42
0100
0010
0110
0010
,  // measure 43
0002
0000
1003
0000
,  // measure 44
0001
1000
1010
0010
,  // measure 45
1000
0100
1100
1000
,  // measure 46
0100
0010
0011
0001
,  // measure 47
0100
0010
0110
0100
,  // measure 48
0010
1000
1100
0100
,  // measure 49
0010
0001
1001
1000
,  // measure 50
0010
0100
0110
0010
,  // measure 51
0100
0001
1001
1000
,  // measure 52
0001
0000
1000
0100
,  // measure 53
1000
0000
0001
0100
,  // measure 54
0001
0000
1000
0010
,  // measure 55
1000
0000
0001
0010
,  // measure 56
0001
0000
0000
0000
;
