#TITLE:Frantic Wolf;
#SUBTITLE:;
#ARTIST:Jerico;
#TITLETRANSLIT:;
#SUBTITLETRANSLIT:;
#ARTISTTRANSLIT:;
#GENRE:;
#CREDIT:;
#BANNER:Frantic Wolf.png;
#BACKGROUND:Frantic Wolf-bg.png;
#LYRICSPATH:;
#CDTITLE:;
#MUSIC:Frantic Wolf.ogg;
#OFFSET:-0.642000;
#SAMPLESTART:22.174110;
#SAMPLELENGTH:15.000000;
#SELECTABLE:YES;
#DISPLAYBPM:178.000000;
#BPMS:0.000000=178.000000
,215.500000=356.000000
,216.500000=178.000000
;
#STOPS:
;
#BGCHANGES:;
#KEYSOUNDS:;
#ATTACKS:;

//---------------dance-single - ----------------
#NOTES:
     dance-single:
     :
     Hard:
     8:
     0.633855,0.607072,0.366029,0.303536,0.200870,422.000000,41.000000,34.000000,0.000000,0.000000,0.000000,0.633855,0.607072,0.366029,0.303536,0.200870,422.000000,41.000000,34.000000,0.000000,0.000000,0.000000:
// measure 0
0000
0000
0000
0000
,  // measure 1
0000
0000
0000
0000
,  // measure 2
0000
0000
0000
0000
,  // measure 3
0000
0000
0000
0000
,  // measure 4
1001
0000
0000
1000
0000
1000
0100
0000
0100
0010
0000
0010
,  // measure 5
0000
0000
0000
0001
0000
0001
0100
0010
0100
0010
1000
0010
,  // measure 6
1000
0000
0001
0000
0100
0010
1000
0000
0001
0000
0010
0100
,  // measure 7
1000
0001
1000
0001
0000
0001
0100
0000
,  // measure 8
0110
0001
1000
0001
,  // measure 9
1000
0001
1000
0001
,  // measure 10
1000
0100
0010
0001
,  // measure 11
0100
0010
0000
1010
0000
0001
0101
0000
,  // measure 12
0001
0100
0001
0100
0010
1000
0010
1000
,  // measure 13
0100
1000
0100
1000
0001
0010
0001
0010
,  // measure 14
0100
1000
0010
0100
0001
0010
0100
0010
,  // measure 15
0002
0000
0000
0000
,  // measure 16
1003
0000
0100
1000
0010
1000
0001
0100
,  // measure 17
0010
0100
0001
0010
0100
0000
1100
0000
,  // measure 18
0011
0000
0001
0100
0010
0100
0001
0010
,  // measure 19
0100
1000
0001
0100
0010
0000
1010
0000
,  // measure 20
0101
0000
0000
0000
0001
0000
0100
0000
0010
0000
0000
0010
1000
0000
0000
1000
,  // measure 21
0100
0000
0000
0100
0010
0000
0000
0010
0001
0000
0010
0000
1000
0000
0010
0000
,  // measure 22
0001
0000
1000
0100
0001
0100
1000
0000
,  // measure 23
0001
0100
0000
0100
0010
0000
1000
0000
,  // measure 24
0100
0010
0100
2000
0000
3001
0010
0000
,  // measure 25
0100
1000
0100
0020
0000
0031
0100
0000
,  // measure 26
0100
0010
0100
0002
0000
0013
0100
0000
,  // measure 27
2100
3001
0102
1003
,  // measure 28
0010
1000
0010
0200
0000
0301
0010
0001
,  // measure 29
1000
0010
1000
0200
0000
0310
0001
1000
,  // measure 30
1010
0000
0010
0110
0000
0100
0101
0000
,  // measure 31
0002
0023
0230
2300
,  // measure 32
3001
0100
0010
0000
0100
0001
0010
0100
,  // measure 33
0000
0010
0100
2000
0000
3002
0000
1003
,  // measure 34
0010
0000
0100
0001
0000
0100
0001
0020
,  // measure 35
0000
0100
0001
0130
,  // measure 36
1000
0010
0100
0000
0010
1000
0100
0010
,  // measure 37
0000
0100
1000
0002
0000
2003
0000
3001
,  // measure 38
0100
0000
0001
1000
0000
0100
1000
0020
,  // measure 39
0000
0100
1000
0130
,  // measure 40
0001
0000
0100
0010
0000
0010
0000
0120
,  // measure 41
0000
0000
0000
0130
0000
0000
0001
1000
,  // measure 42
0000
0011
0000
2100
0000
0000
3100
0010
,  // measure 43
0001
0000
0000
0001
0000
0000
1000
0001
,  // measure 44
0100
0000
0000
0101
0000
1001
0000
1100
,  // measure 45
0000
0000
1000
0001
0000
0000
0010
0001
,  // measure 46
0000
1000
0001
0010
0000
0000
1000
0010
,  // measure 47
0000
0011
0000
1001
0000
0000
0110
0000
,  // measure 48
1001
0000
0001
0100
0000
0100
0010
1000
,  // measure 49
0000
0100
1000
0001
0000
0001
0010
0100
,  // measure 50
0000
1000
0100
0010
0000
0001
1000
0010
,  // measure 51
0100
0000
0100
0010
0000
0010
0100
0001
,  // measure 52
1000
0000
0100
1000
0000
1100
0000
0012
,  // measure 53
0000
0000
0000
1003
0000
0001
0200
0020
,  // measure 54
0000
0000
0000
0330
,  // measure 55
1010
1001
0101
0110
,  // measure 56
1001
0000
0000
1000
0100
1000
0010
0000
0000
0001
0100
0001
,  // measure 57
0010
0000
0000
0100
1000
0001
0100
0000
0110
0000
0010
0000
,  // measure 58
1001
0000
0000
0001
0100
0010
1000
0000
0000
0001
1000
0100
,  // measure 59
0020
0000
0000
0130
,  // measure 60
1000
0001
0010
0001
0000
0100
0001
0100
,  // measure 61
0000
0010
1000
0010
0000
1000
0001
0100
,  // measure 62
0000
1010
0000
0101
0000
0001
0010
0100
,  // measure 63
1000
0000
0001
0010
0000
0100
1000
0010
,  // measure 64
0100
0000
0100
0001
0000
1001
0000
0101
,  // measure 65
0000
0001
1000
0100
0000
1000
0001
0010
,  // measure 66
0001
0000
0100
0010
0100
0000
0001
2000
,  // measure 67
0000
0100
0000
0001
0000
0000
3100
0000
,  // measure 68
0001
1000
0100
1000
0010
0100
0001
0020
,  // measure 69
0000
0000
0000
0031
1000
0010
0100
0020
,  // measure 70
0000
2030
0000
3002
0000
0103
0010
0000
,  // measure 71
1010
0000
0000
0000
0100
0010
0100
0000
0002
0000
0000
0000
0013
0000
0100
0000
,  // measure 72
1000
0000
0001
0010
0000
0001
1000
0010
,  // measure 73
0000
1000
0001
0100
0000
0002
0013
0000
,  // measure 74
0001
0100
0010
1000
0001
0000
1000
0200
,  // measure 75
0300
1001
0220
0330
,  // measure 76
1001
0000
0000
0001
0000
0001
0100
0000
0100
0010
0000
0010
,  // measure 77
0000
0000
0000
1000
0000
1000
0100
0010
0100
0010
0001
0010
,  // measure 78
0001
0000
1000
0000
0100
0010
0001
0000
1000
0000
0010
0100
,  // measure 79
0001
1000
0001
1000
0000
1000
0100
0000
,  // measure 80
0110
0000
0000
0000
;

//---------------dance-single - ----------------
#NOTES:
     dance-single:
     :
     Beginner:
     1:
     0.096928,0.142841,0.035710,0.000000,0.000000,72.000000,4.000000,0.000000,0.000000,0.000000,0.000000,0.096928,0.142841,0.035710,0.000000,0.000000,72.000000,4.000000,0.000000,0.000000,0.000000,0.000000:
0000
0000
0000
0000
,
0000
0000
0000
0000
,
0000
0000
0000
0000
,
0000
0000
0000
0000
,
1001
0000
0000
0000
,
0000
0000
0000
0000
,
0100
0000
0000
0000
,
0100
0000
0000
0000
,
0001
0000
0000
0000
,
1000
0000
0000
0000
,
0001
0000
0000
0000
,
0000
0000
0000
0000
,
1000
0000
0000
0000
,
0001
0000
0000
0000
,
1000
0000
0000
0000
,
0000
0000
0000
0000
,
1000
0000
0000
0000
,
0100
0000
0000
0000
,
1000
0000
0000
0000
,
0010
0000
0000
0000
,
0100
0000
0000
0000
,
0001
0000
0000
0000
,
0010
0000
0000
0000
,
0001
0000
0000
0000
,
0010
0000
0000
0000
,
0010
0000
0000
0000
,
0010
0000
0000
0000
,
0100
0000
0000
0000
,
0010
0000
0000
0000
,
0010
0000
0000
0000
,
0010
0000
0010
0000
,
0100
0000
0000
0000
,
1000
0000
0000
0000
,
1000
0000
0000
0000
,
0001
0000
0100
0000
,
0001
0000
0000
0000
,
0001
0000
0000
0000
,
0001
0000
0000
0000
,
1000
0000
0100
0000
,
0010
0000
0000
0000
,
1001
0000
0000
0000
,
0000
0000
0000
0000
,
0000
0000
0000
0000
,
0000
0000
0000
0000
,
0000
0000
0000
0000
,
0000
0000
0000
0000
,
0000
0000
0000
0000
,
0000
0000
0000
0000
,
1000
0000
0000
0000
,
0000
0000
0000
0000
,
0100
0000
0000
0000
,
0000
0000
0000
0000
,
0001
0000
0000
0000
,
0100
0000
0000
0000
0000
0000
0000
0010
,
0000
0000
0000
0000
,
0000
0000
0000
0000
,
0001
0000
0001
0000
,
0100
0000
0100
0000
,
0010
0000
0010
0000
,
1000
0000
0000
0000
,
1000
0000
0000
0000
,
0001
0000
0000
0000
,
0010
0000
0010
0000
,
0001
0000
0000
0000
,
0001
0000
0000
0000
,
1000
0000
0000
0000
,
0100
0000
0100
0000
,
1000
0000
0000
0000
,
1000
0000
0000
0000
,
0001
0000
0000
0000
,
0100
0000
0100
0000
,
0001
0000
0000
0000
,
0001
0000
0000
0000
,
1000
0000
0000
0000
,
0010
0000
0000
0000
,
0010
0000
0000
0000
,
1001
0000
0000
0000
,
0000
0000
0000
0000
,
0100
0000
0000
0000
,
0100
0000
0000
0000
,
1001
0000
0000
0000
;

//---------------dance-single - ----------------
#NOTES:
     dance-single:
     :
     Easy:
     3:
     0.225739,0.321391,0.026783,0.258899,0.000000,145.000000,3.000000,29.000000,0.000000,0.000000,0.000000,0.225739,0.321391,0.026783,0.258899,0.000000,145.000000,3.000000,29.000000,0.000000,0.000000,0.000000:
0000
0000
0000
0000
,
0000
0000
0000
0000
,
0000
0000
0000
0000
,
0000
0000
0000
0000
,
1001
0000
0000
0000
,
0000
0000
0000
0000
,
1000
0000
0001
0000
,
0100
0100
0000
0000
,
0000
1000
0000
1000
,
0000
0001
0000
0001
,
0000
1000
0000
1000
,
0000
0100
0010
0010
,
0000
0001
0000
0001
,
0000
1000
0000
1000
,
0000
0001
0000
0001
,
0000
0100
0200
0300
,
0001
0000
0100
0000
,
0010
0000
1000
0000
,
0100
0000
0010
0000
,
0001
0001
0001
0000
,
2000
3000
0200
0300
,
0020
0030
0002
0003
,
0200
0300
0020
0030
,
1000
1000
1000
0000
,
0020
0000
0030
0000
,
0020
0000
0030
0000
,
0020
0000
0030
0000
,
1000
0001
0001
1000
,
0200
0000
0300
0000
,
0200
0000
0300
0000
,
1000
0000
0001
0000
,
0100
0000
0010
0000
,
1000
0000
0010
0000
,
1000
0000
0001
0000
,
0010
0000
0001
0000
,
2000
0000
0000
3000
,
0001
0000
0100
0000
,
0001
0000
1000
0000
,
0100
0000
1000
0000
,
0020
0000
0000
0000
,
0130
0000
0000
0000
,
0000
0000
0000
0000
,
0000
0000
0000
0000
,
0000
0000
0000
0000
,
2000
0000
0000
3000
,
0002
0000
0000
0003
,
0200
0000
0000
0300
,
0020
0000
0000
0030
,
1000
0000
0010
0000
,
1000
0010
0010
0000
,
0100
0000
0001
0000
,
0100
0000
0001
0001
,
0010
0000
0001
0000
,
1000
0000
0000
0000
0100
0000
0000
0020
,
0000
0000
0000
0030
,
0001
0100
1000
0000
,
0100
0000
0100
0100
,
0010
0000
0010
0000
,
0100
0000
0010
0000
,
2002
0000
0000
3003
,
1000
0001
1000
0100
,
2000
3000
0002
0003
,
0001
0100
0001
0010
,
0002
0003
2000
3000
,
0100
0000
1000
0000
,
0001
0000
0100
0000
,
0010
0000
1000
0000
,
0001
0000
0010
0000
,
0001
0100
0001
1000
,
0020
0030
1000
0200
,
0000
0300
1000
0001
,
0200
0000
0300
0010
,
0010
0000
1000
0000
,
0001
0000
1000
0000
,
0001
0000
0001
0000
,
1000
1000
2000
0000
,
3100
0000
0000
0000
,
0010
0000
0000
0000
,
0001
0000
1000
0000
,
0100
0100
0000
0000
,
1001
0000
0000
0000
;

//---------------dance-single - ----------------
#NOTES:
     dance-single:
     :
     Medium:
     6:
     0.433623,0.535652,0.196406,0.491014,0.031246,263.000000,22.000000,55.000000,0.000000,0.000000,0.000000,0.433623,0.535652,0.196406,0.491014,0.031246,263.000000,22.000000,55.000000,0.000000,0.000000,0.000000:
0000
0000
0000
0000
,
0000
0000
0000
0000
,
0000
0000
0000
0000
,
0000
0000
0000
0000
,
2002
0000
0000
0000
,
0000
0000
0000
3003
,
2200
3300
0022
0033
,
0110
1001
0000
1001
,
0110
0001
1000
0001
,
1000
0001
1000
0001
,
1000
0100
0010
0001
,
0000
0001
0000
0100
0000
0100
0010
0000
,
1000
0100
2000
3000
,
0001
0100
0002
0003
,
1000
0010
0100
0001
,
0010
0010
0020
0030
,
0002
0100
1000
0103
,
1000
0010
0100
0010
,
2000
0100
0001
3010
,
0001
0100
0010
0100
,
0002
0203
0320
1030
,
2000
3200
0320
0032
,
0203
0310
0020
0130
,
0001
1000
0000
1000
0002
0000
1003
0000
,
0001
0100
0000
0200
0000
0000
0300
0000
,
0010
0100
0000
0200
0000
0000
0300
0000
,
1000
0100
0000
0200
0000
0000
0300
0000
,
0010
0100
0010
0000
,
1000
0100
0000
0200
0000
0000
0300
0000
,
0010
0100
0000
0200
0000
0000
0300
0000
,
0001
0000
0000
0100
0000
0000
1000
0000
,
0010
0010
0100
0100
,
0001
0100
0001
0100
,
0001
1000
0001
1000
,
0001
0000
0010
0000
0001
0000
0010
0200
,
0000
0000
0000
0300
,
1000
0010
1000
0010
,
1000
0001
1000
0001
,
1000
0000
0100
0000
1000
0000
0100
0020
,
0000
0000
0000
0000
,
0032
0000
0000
0100
0000
0000
0000
0100
,
0000
0000
0000
1000
0000
0000
0000
2003
,
0000
0000
0000
0100
0000
0000
0000
0000
,
0001
0000
0000
0100
0000
0000
3001
0000
,
0100
0000
0000
1000
0000
1000
0000
0010
,
0000
0000
0000
0100
0000
0000
0001
0010
,
0000
0000
0000
0100
0000
0000
1000
0002
,
0000
0010
0000
0010
0000
0000
0013
0000
,
0002
0103
0200
0310
,
0020
1030
2000
3100
,
0200
0310
0020
0031
,
0002
0000
1003
0000
2000
0000
3010
0100
,
0010
0000
0000
0100
0000
0100
0000
0010
,
0000
0000
0000
1000
0000
0000
0001
0020
,
0000
0000
0000
0030
,
0110
1001
0110
1001
,
1000
0000
0000
0001
0000
0001
1000
0000
0000
0100
0000
0100
,
1000
0000
0000
0010
0000
0010
0100
0000
0100
0000
0100
0000
,
0001
0000
0000
1000
0000
1000
0001
0000
0000
0100
0000
0100
,
0020
0000
0000
0030
,
1000
0100
0010
0100
,
1000
0000
0010
0000
0100
0000
0001
1000
,
0000
1001
0000
2200
0000
0000
3300
0000
,
0101
0000
0000
1100
0000
0000
0100
1000
,
0001
0001
0100
0100
,
1000
1000
0100
0100
,
0001
0001
0010
0010
,
0100
1000
2000
3001
,
0001
0100
0010
0100
,
0001
0000
0010
0000
0100
1000
0100
2000
,
0000
0001
0000
0001
3000
0001
0010
0000
,
0002
2003
3020
0230
,
0310
0000
1000
0000
0001
0000
0100
0001
,
0010
0000
0001
1000
0000
0100
0000
0000
,
0010
0001
1000
0010
,
1000
0010
1000
0000
0001
0100
0001
0000
,
2002
0000
0000
0000
,
0000
0000
0000
3003
,
0202
0303
2020
3030
,
0110
1001
0000
1001
,
0110
0000
0000
0000
;
