#TITLE:Find Me (feat. Birdy);
#SUBTITLE:;
#ARTIST:Sigma;
#TITLETRANSLIT:;
#SUBTITLETRANSLIT:;
#ARTISTTRANSLIT:;
#GENRE:;
#CREDIT:;
#BANNER:;
#BACKGROUND:;
#LYRICSPATH:;
#CDTITLE:;
#MUSIC:Find Me.ogg;
#OFFSET:-0.444444;
#SAMPLESTART:48.468430;
#SAMPLELENGTH:14.222221;
#SELECTABLE:YES;
#BPMS:0.000000=135.000000
,240.000000=132.000000
,248.000000=130.000000
;
#STOPS:
;
#BGCHANGES:;
#KEYSOUNDS:;
#ATTACKS:;

//---------------dance-single - ----------------
#NOTES:
     dance-single:
     :
     Beginner:
     1:
     0.000000,0.000000,0.000000,0.000000,0.000000,0.000000,0.000000,0.000000,0.000000,0.000000,0.000000,0.000000,0.000000,0.000000,0.000000,0.000000,0.000000,0.000000,0.000000,0.000000,0.000000,0.000000:
0000
0000
0000
0000
;

//---------------dance-single - ----------------
#NOTES:
     dance-single:
     :
     Hard:
     8:
     0.487592,0.655324,0.290117,0.836220,0.200522,400.000000,366.000000,34.000000,98.000000,0.000000,0.000000,0.487592,0.655324,0.290117,0.836220,0.200522,400.000000,366.000000,34.000000,98.000000,0.000000,0.000000:
// measure 0
0000
0000
0000
0000
,  // measure 1
0000
0000
0000
0000
,  // measure 2
0000
0000
0000
0000
,  // measure 3
0000
0000
0000
0000
,  // measure 4
2010
0000
0000
0001
0000
0000
0001
0000
0000
0000
0100
0000
3100
0000
0000
0000
,  // measure 5
0002
0000
0000
0100
0000
0000
1000
0000
0000
0000
0000
0000
0003
0000
0001
0000
,  // measure 6
2000
0000
0000
0100
0000
0000
0100
0000
0000
0000
0000
0000
3001
0000
0001
0000
,  // measure 7
0200
0000
0000
0300
,  // measure 8
0001
0000
0000
0001
0000
0000
0002
0000
0000
0000
0100
0000
0103
0000
0000
0000
,  // measure 9
1000
0000
0000
1000
0000
0000
2000
0000
0000
0000
0010
0000
3020
0000
0000
0000
,  // measure 10
0100
0000
0000
0100
0000
0000
0130
0000
0000
0000
0000
0000
0001
0000
2000
0000
,  // measure 11
0000
3200
0000
0302
0000
0023
0000
0030
,  // measure 12
0101
0100
0000
0100
1000
0000
0001
0000
,  // measure 13
1100
0100
0000
0100
0001
1000
0001
0000
,  // measure 14
0110
0010
0000
0010
1000
0000
0001
0000
,  // measure 15
2000
0000
0100
0000
3010
1000
0001
0000
,  // measure 16
1010
0010
0000
0010
0001
0000
1000
0000
,  // measure 17
0011
0010
0000
0010
1000
0001
1000
0000
,  // measure 18
0110
0100
0000
0100
0001
0000
1000
0000
,  // measure 19
0002
0000
0010
0000
0103
0001
1000
0000
,  // measure 20
0010
0100
0001
0010
0100
1000
0010
0000
,  // measure 21
0100
0001
1000
0010
0100
0000
0001
0000
,  // measure 22
0010
0100
1000
0010
0100
0001
0010
0000
,  // measure 23
0100
1000
0001
0100
0010
0000
0100
0000
,  // measure 24
0001
0100
0000
0010
1000
0001
1001
0000
,  // measure 25
1000
0100
0000
0010
0001
1000
1001
0000
,  // measure 26
1000
0010
0001
0010
0100
0001
1000
0000
,  // measure 27
0001
0000
0001
0000
0100
0000
0100
0000
0010
0000
0010
0000
1000
0000
1000
0100
,  // measure 28
0010
0000
0010
0000
0011
0000
0000
1000
0000
0010
0100
0000
0101
0000
1000
0001
,  // measure 29
0100
0000
0100
0000
0110
0000
0000
1000
0000
0001
0010
0000
0110
0000
0010
0001
,  // measure 30
2000
0000
0200
3000
0002
0300
2000
0003
0020
3000
0002
0030
0020
0003
2000
0030
,  // measure 31
0002
3000
0200
0003
1000
0300
1000
0000
0110
0000
0010
0000
1001
0000
0001
0100
,  // measure 32
0010
0000
0010
0000
1010
0000
0000
0001
0000
0010
0100
0000
1100
0000
0001
1000
,  // measure 33
0100
0000
0100
0000
0110
0000
0000
0001
0000
1000
0010
0000
0110
0000
0010
1000
,  // measure 34
0002
0000
0200
0003
2000
0300
0002
3000
0020
0003
2000
0030
0020
3000
0002
0030
,  // measure 35
2000
0003
0200
3000
0001
0300
0001
0000
1010
0000
0100
0000
0101
0000
0000
0000
,  // measure 36
2000
0000
0000
0000
0000
0000
3200
0000
0002
0300
0000
0000
0000
0000
2003
0000
,  // measure 37
0020
3000
0000
0000
0000
0000
0032
0000
2000
0003
0000
0000
0000
0000
3000
0002
,  // measure 38
0000
0000
0000
0100
0000
0000
0000
0010
0000
0000
0003
0000
0000
0000
2000
0000
,  // measure 39
0100
0000
0000
0001
0000
0000
0020
0000
3000
0000
0000
0000
0130
0000
0000
0000
,  // measure 40
0002
0000
0000
0000
0000
0000
0203
0000
2000
0300
0000
0000
0000
0000
3002
0000
,  // measure 41
0020
0003
0000
0000
0000
0000
2030
0000
0002
3000
0000
0000
0000
0000
0003
2000
,  // measure 42
0000
0000
0000
0100
0000
0000
0000
0010
0000
0000
3000
0000
0000
0000
0002
0000
,  // measure 43
0100
0000
0000
1000
0000
0000
0020
0000
0003
0000
0000
0000
0130
0000
0000
0000
,  // measure 44
2020
0000
3030
0022
0000
0033
2002
0000
,  // measure 45
3003
1000
0100
0010
0001
0000
0110
0000
,  // measure 46
0202
0000
0303
2200
0000
3300
0220
0000
,  // measure 47
0330
1000
0001
0100
0010
0000
1001
0000
,  // measure 48
0100
0000
0001
0000
0100
0000
0000
0000
0010
1000
0010
0000
1000
0000
0000
0000
,  // measure 49
0100
0000
1000
0000
0100
0000
0000
0000
0010
0001
0010
0000
0001
0000
0000
0000
,  // measure 50
1000
0100
0010
0010
0001
1000
0010
0010
,  // measure 51
0100
0000
0100
0000
0001
0000
0001
0000
1000
0001
1000
0001
0100
0000
0010
1000
,  // measure 52
0001
0000
0001
0000
0010
0000
0100
1000
0100
1000
0100
0000
0010
0000
0001
1000
,  // measure 53
0010
0000
0010
0000
0100
0000
0001
1000
0001
1000
0001
0000
0100
0000
0010
1000
,  // measure 54
0002
0000
0020
0003
2000
0030
0002
3000
0200
0003
2000
0300
0200
3000
0002
0300
,  // measure 55
2000
0003
0020
3000
0001
0030
0001
0000
0110
0000
0100
0000
1001
0000
1000
0100
,  // measure 56
0010
0000
0010
0000
0001
0000
0100
0001
0100
0001
0200
0000
2300
0000
3002
0000
,  // measure 57
0013
0000
0010
0000
1000
0000
0100
1000
0100
1000
0200
0000
0302
0000
2003
0000
,  // measure 58
3010
0000
0010
0000
0100
0000
1000
0001
1000
0001
1000
0000
0010
0000
0100
0001
,  // measure 59
1000
1000
0220
0330
2020
3030
0202
0303
,  // measure 60
2000
0000
3100
0200
0000
1300
0002
0000
,  // measure 61
2003
0000
3010
0020
0000
0130
0002
0000
,  // measure 62
2003
0000
0000
3020
0000
0000
0230
0000
,  // measure 63
0002
0300
0000
0000
2000
0000
0000
0000
,  // measure 64
3003
0000
0000
0000
;
