#VERSION:0.83;
#TITLE:Diamonds;
#SUBTITLE:;
#ARTIST:Keith Ape ft. Jedi P;
#TITLETRANSLIT:;
#SUBTITLETRANSLIT:;
#ARTISTTRANSLIT:;
#GENRE:Hip-Hop;
#ORIGIN:;
#CREDIT:;
#BANNER:diamonds-bn.png;
#BACKGROUND:diamonds-bg.png;
#PREVIEWVID:;
#JACKET:diamonds-jacket.png;
#CDIMAGE:;
#DISCIMAGE:;
#LYRICSPATH:;
#CDTITLE:cdtitle.png;
#MUSIC:diamonds.ogg;
#OFFSET:-0.116000;
#SAMPLESTART:14.634000;
#SAMPLELENGTH:14.500000;
#SELECTABLE:YES;
#BPMS:0.000=130.000;
#STOPS:;
#DELAYS:;
#WARPS:;
#TIMESIGNATURES:0.000=4=4;
#TICKCOUNTS:0.000=4;
#COMBOS:0.000=1;
#SPEEDS:0.000=1.000=0.000=0;
#SCROLLS:0.000=1.000;
#FAKES:;
#LABELS:0.000=Song Start;
#BGCHANGES:;
#KEYSOUNDS:;
#ATTACKS:
;

//---------------dance-single - ----------------
#NOTEDATA:;
#CHARTNAME:X-Scale 13;
#STEPSTYPE:dance-single;
#DESCRIPTION:;
#CHARTSTYLE:;
#DIFFICULTY:Hard;
#METER:9;
#RADARVALUES:0.546744,0.586193,0.104966,0.113040,0.222043,474.000000,461.000000,13.000000,14.000000,0.000000,0.000000,11.000000,0.000000,0.000000,0.546744,0.586193,0.104966,0.113040,0.222043,474.000000,461.000000,13.000000,14.000000,0.000000,0.000000,11.000000,0.000000,0.000000;
#CREDIT:;
#NOTES:
// measure 0
0000
0000
0000
0000
,  // measure 1
0000
0000
0000
0000
,  // measure 2
0000
0000
0000
0000
,  // measure 3
0000
0000
0000
0000
,  // measure 4
1100
1000
0000
1000
0001
1000
0000
0000
,  // measure 5
0100
0010
0000
0010
1000
0001
0000
0400
,  // measure 6
0300
0100
0000
0001
0100
0010
0000
0000
,  // measure 7
0010
0001
0000
0010
0100
1000
0000
0004
,  // measure 8
0103
0001
0100
0000
0001
0010
0100
0010
,  // measure 9
0100
1000
0001
0000
1000
0100
0010
0400
,  // measure 10
0310
0100
1000
0001
1000
0010
1000
0001
,  // measure 11
0010
0001
0100
0000
0001
1000
0010
4000
,  // measure 12
3100
1000
0010
0010
1000
0001
1000
1000
,  // measure 13
0100
0010
0001
0000
1000
0010
0100
0004
,  // measure 14
1003
1000
1000
0000
0001
0100
0010
1000
,  // measure 15
0001
0010
0100
0000
0100
0010
0001
1000
,  // measure 16
1001
0001
1000
0000
1000
0100
0001
0100
,  // measure 17
1000
0001
0010
0000
0001
1000
0001
0040
,  // measure 18
0031
0010
0001
0001
1000
0100
0001
0100
,  // measure 19
0010
0001
1000
0000
1000
0100
0010
0100
,  // measure 20
1000
0001
1000
0000
0001
0010
0100
0010
,  // measure 21
0100
1000
0100
0000
1000
0001
1000
0040
,  // measure 22
0130
0100
0100
0000
0001
0010
0100
0000
,  // measure 23
0010
0000
0000
0000
0002
0000
0000
0003
2000
0000
0000
3000
0002
0000
0000
0003
,  // measure 24
1001
0000
1000
0000
0010
1000
0000
0000
0010
1000
0000
0000
0100
0010
0000
0000
,  // measure 25
0100
0010
0000
0000
0010
0001
0010
0000
0001
0000
0001
0000
0001
1000
0000
0000
,  // measure 26
0001
1000
0000
0000
0100
0010
0100
0000
0100
0010
0100
0000
1000
0100
1000
0000
,  // measure 27
0001
1000
0000
0000
0001
1000
0000
0000
0100
0000
0100
0000
0100
1000
0100
0000
,  // measure 28
1100
0000
0010
0000
1000
0010
0000
0000
0100
0000
0100
0000
0010
0100
0000
0000
,  // measure 29
0001
0010
0100
0000
0010
0000
0001
0000
1000
0000
1000
0000
0001
0100
0000
0000
,  // measure 30
0001
0100
0000
0000
0010
1000
0000
0000
0001
0000
0001
0000
1000
0100
0000
0000
,  // measure 31
1000
0100
0000
0000
0010
0000
0001
0000
0010
0000
0100
0000
0010
0000
0001
0000
,  // measure 32
0011
0000
0001
1000
0010
0010
0002
0000
,  // measure 33
0023
0000
1030
0010
1000
1000
0020
0000
,  // measure 34
2030
0000
3010
1000
0001
0001
1000
0010
,  // measure 35
1000
0100
1000
0100
0001
0100
0010
0001
,  // measure 36
0011
0000
0100
0001
1000
1000
0001
0010
,  // measure 37
0001
0100
0010
1000
0010
0010
0100
0001
,  // measure 38
0010
0100
0010
0001
1000
1000
0001
0100
,  // measure 39
0010
1000
0001
1000
0100
0010
0100
0000
,  // measure 40
0110
0000
0100
0010
0100
1000
0001
0010
,  // measure 41
0100
0100
0010
0001
1000
0010
0100
0400
,  // measure 42
0310
0000
0010
0100
0010
0000
1000
0001
,  // measure 43
1000
0100
0010
0000
1000
0100
0010
0100
,  // measure 44
0110
0000
0000
0000
0000
0000
0010
0000
0000
0001
0000
0000
0010
0000
0000
0000
0000
0000
0100
0000
0000
0000
0010
0000
,  // measure 45
1000
0001
1000
0100
0010
0000
0100
0040
,  // measure 46
0130
0000
0100
0000
0100
0000
0010
0000
0001
0000
0000
0000
2000
3000
2000
3000
,  // measure 47
0002
0000
0000
0003
0000
0000
0002
0000
0000
0000
0000
0000
1003
0000
0000
0000
0000
0000
0001
0000
0000
0000
0000
0000
0010
0000
0100
0000
0010
0000
0100
0000
0000
0000
0000
0000
0020
0000
0000
0000
0000
0000
0030
0000
0000
0000
0000
0000
,  // measure 48
0011
0000
0000
0000
0000
0000
0001
0000
0000
1000
0000
0000
0001
0000
1000
0000
0100
0000
1000
0000
0001
0000
1000
0000
,  // measure 49
0010
0000
0100
0000
0010
0000
1000
0000
0001
0000
1000
0000
0100
0000
0000
0100
0000
0000
0010
0000
0000
0010
0000
0000
,  // measure 50
0001
0000
0010
0000
1000
0000
0010
0000
0000
0001
0000
0000
1000
0000
0000
0100
0000
0000
0010
0000
0000
0001
0000
0000
,  // measure 51
1000
0000
0010
0000
0100
0000
0001
0000
0000
0000
0000
0000
0020
0000
0000
0100
0000
0000
0001
0000
0000
0000
0000
0000
,  // measure 52
0031
0010
0100
1000
0000
0000
0001
1000
0001
1000
0000
0000
,  // measure 53
1000
0100
0010
0001
0000
0000
1000
0010
0100
0001
0010
0000
,  // measure 54
0001
0100
0010
1000
0100
0000
0010
0001
0100
0001
0000
0000
,  // measure 55
0010
0000
0100
0000
0010
0000
0001
0000
0000
0000
0000
0000
0001
0000
0010
0000
0100
0000
1000
0000
0000
0010
0000
0000
,  // measure 56
0110
0100
0001
0100
0001
1000
0010
0001
,  // measure 57
0010
0000
0010
0000
1000
0000
0100
0000
1000
0000
0010
0000
1000
0010
1000
0000
,  // measure 58
0100
1000
0100
0001
0100
0010
0001
1000
,  // measure 59
0010
1000
0010
0100
0001
1000
0100
4000
,  // measure 60
3001
0010
0100
1000
1001
0001
1000
0010
,  // measure 61
0001
0010
0100
0001
1000
0100
1100
0000
,  // measure 62
1010
1000
0010
0000
1000
0001
0010
0001
,  // measure 63
0100
0010
1000
0100
0001
0100
0010
0004
,  // measure 64
1003
0000
0001
1000
0001
0001
0010
0000
,  // measure 65
0100
0010
0100
0000
1000
1000
0200
0000
,  // measure 66
0300
0000
0000
0000
;

//---------------dance-single - ----------------
#NOTEDATA:;
#CHARTNAME:X-Scale 9;
#STEPSTYPE:dance-single;
#DESCRIPTION:;
#CHARTSTYLE:;
#DIFFICULTY:Medium;
#METER:7;
#RADARVALUES:0.467155,0.532903,0.104966,0.161486,0.129189,405.000000,392.000000,13.000000,20.000000,0.000000,0.000000,3.000000,0.000000,0.000000,0.467155,0.532903,0.104966,0.161486,0.129189,405.000000,392.000000,13.000000,20.000000,0.000000,0.000000,3.000000,0.000000,0.000000;
#CREDIT:;
#NOTES:
0000
0000
0000
0000
,
0000
0000
0000
0000
,
0000
0000
0000
0000
,
0000
0000
0000
0000
,
1001
0000
1000
0000
0001
0100
0010
0000
,
0100
0000
0010
0000
1000
0001
0100
0000
,
0010
0000
1000
0000
0001
0010
0001
0000
,
0100
0000
0010
0000
1000
0100
1000
0000
,
1100
0000
0100
0000
0010
0001
0010
0000
,
0001
0100
1000
0000
1000
0100
0010
0000
,
0100
0000
0001
0010
1000
0010
0001
0000
,
0100
0010
0100
0000
0001
1000
0001
0000
,
1000
0000
0010
0100
1000
0100
0010
0000
,
0100
0001
1000
0000
1000
0010
1000
0000
,
0001
0001
0001
0000
1000
0100
0010
0000
,
0010
0100
0000
0100
1000
0100
0000
0010
,
0110
0000
0010
0000
0001
0100
0001
0000
,
1000
0001
0100
0000
0002
0000
0013
0000
,
0100
0000
0001
1000
0200
0000
1300
0000
,
0100
0010
0001
0000
2000
0000
3010
0000
,
1000
0000
0001
0100
0020
0000
0130
0000
,
0001
0100
0010
0000
2000
0000
3010
0000
,
1000
1000
1000
0000
0002
0000
0203
0000
,
0310
0000
0000
0000
0020
0000
0000
0030
0020
0000
0000
0030
0020
0000
0000
0030
,
0110
0000
0010
1000
0001
0000
0100
0000
,
0100
0010
0000
0000
1000
0000
0010
0000
1000
0000
1000
0000
0001
0000
0000
0000
,
0001
0010
0000
0000
0100
0000
0010
0000
0100
0000
1000
0000
0100
0000
0010
0000
,
0001
1000
0001
0000
0100
0010
0100
0000
,
0110
0000
0001
0000
0100
0010
0100
0000
,
0001
0000
1000
0000
0100
0010
0100
0000
,
1000
0000
0010
0000
0100
0001
0100
0000
,
0010
1000
0010
0000
0100
0000
0001
0010
,
0011
0000
0001
0010
0001
0001
1000
0000
,
1000
0000
0001
0010
0001
0001
0100
0000
,
0100
0000
0001
0010
0001
0000
1000
0010
,
1000
1000
0010
0100
0001
0001
0010
0100
,
0110
0000
0100
0010
0100
0000
1000
0010
,
1000
0000
0001
0010
0001
0000
0010
0100
,
0010
0000
1000
0010
0001
0001
1000
0100
,
1000
0010
0010
0001
0010
0100
0020
0000
,
0130
0000
0010
0001
1000
0001
1000
0100
,
0010
0100
0010
0001
1000
0010
0200
0000
,
0301
0000
0010
0100
0010
0000
0001
0010
,
1000
0010
0001
0000
1000
0100
1000
0100
,
1100
0000
0000
0000
0000
0000
1000
0000
0000
0001
0000
0000
1000
0000
0000
0000
0000
0000
0100
0000
0000
0000
0010
0000
,
1000
0000
1000
0001
1000
0000
0100
0040
,
0130
0100
0100
0010
0001
0000
2000
3001
,
0002
0203
0000
0300
0010
0100
0020
0030
,
0110
0000
0000
0000
0000
0000
0010
0000
0000
0100
0000
0000
0001
0000
1000
0000
0001
0000
0010
0000
0001
0000
1000
0000
,
0010
0000
0100
0000
0001
0000
0010
0000
0000
0000
0000
0000
0100
0000
0000
0100
0000
0000
1000
0000
0000
1000
0000
0000
,
0100
0000
0010
0000
0100
0000
0010
0000
0000
0000
0000
0000
0001
0000
0000
1000
0000
0000
0001
0000
0000
0010
0000
0000
,
0100
0000
1000
0000
0001
0000
1000
0000
0000
0000
0000
0000
2000
0000
0000
0010
0000
0000
0010
0000
0000
0000
0000
0000
,
3010
1000
0001
0010
0000
0000
0001
1000
0001
1000
0000
0000
,
0010
0100
0010
0100
0000
0000
0001
0010
0100
1000
0010
0000
,
1000
0100
0010
0001
0100
0000
0010
1000
0001
0100
0000
0000
,
0010
0000
0100
0000
0001
0000
1000
0000
0000
0000
0000
0000
1000
0000
0010
0000
0100
0000
0001
0000
0000
0010
0000
0000
,
0011
0010
0001
0000
0001
1000
0001
0010
,
0100
0000
0100
0000
1000
0000
0000
0000
0001
0000
0010
0000
0001
0010
0001
0000
,
1000
0001
1000
1000
0010
0100
0001
0100
,
0010
1000
1000
0000
0001
1000
0100
0040
,
0130
0010
0001
1000
1001
0000
0001
0100
,
1000
0100
0010
0000
1000
0100
1100
0000
,
1001
0001
0010
0000
0001
0010
1000
0010
,
0100
1000
0100
0000
1000
0001
1000
0040
,
0230
0000
0301
0100
0001
0100
0002
0000
,
0013
0001
0010
0000
0001
1000
0002
0000
,
0003
0000
0000
0000
;

//---------------dance-single - ----------------
#NOTEDATA:;
#CHARTNAME:X-Scale 6;
#STEPSTYPE:dance-single;
#DESCRIPTION:;
#CHARTSTYLE:;
#DIFFICULTY:Easy;
#METER:4;
#RADARVALUES:0.347194,0.373032,0.024223,0.169560,0.000000,301.000000,298.000000,3.000000,21.000000,0.000000,0.000000,0.000000,0.000000,0.000000,0.347194,0.373032,0.024223,0.169560,0.000000,301.000000,298.000000,3.000000,21.000000,0.000000,0.000000,0.000000,0.000000,0.000000;
#CREDIT:;
#NOTES:
0000
0000
0000
0000
,
0000
0000
0000
0000
,
0000
0000
0000
0000
,
0000
0000
0000
0000
,
0011
0000
0000
0001
1000
0001
0000
0000
,
0100
0000
0000
0010
0001
0010
0000
0000
,
1000
0000
0000
0100
0010
0100
0000
0000
,
0010
0000
0000
0001
1000
0001
0000
0000
,
1001
0000
0001
0010
,
0000
0001
0001
0000
1000
0000
0010
0000
,
1000
0000
0000
0010
0010
0000
1000
0000
,
0000
0100
0100
0000
0001
0000
0100
0000
,
1000
0000
0000
0001
0001
0000
1000
0000
,
0000
0100
0100
0000
0010
0000
0100
0000
,
1000
0001
1000
0010
,
0000
0100
0000
0001
0010
0100
0000
0000
,
0100
0000
0000
0000
1000
0100
1000
0000
,
0001
0000
1000
0000
0001
0010
0001
0000
,
0100
0000
0001
0000
1000
0100
1000
0000
,
0001
0000
0010
0000
0001
0010
0001
0000
,
0100
0000
0010
0000
1000
0100
1000
0000
,
0100
0000
0010
0000
0001
0010
0001
0000
,
1000
0000
0010
0000
1000
0100
1000
0000
,
0010
0100
0020
0000
,
0130
0000
0000
0010
1000
0000
0100
0000
,
1000
0000
0001
0000
0100
0010
0001
0000
,
0010
0000
1000
0000
0001
1000
0001
0000
,
1000
0000
0100
0000
1000
0010
1000
0000
,
0001
0000
0010
0000
0100
0010
0100
0000
,
1000
0000
0001
0000
0010
0100
0010
0000
,
0001
0000
0100
0000
0001
1000
0001
0000
,
1000
0010
1000
0000
0100
0000
0010
0100
,
1000
0000
0001
0000
1000
0100
2000
3000
,
2000
3000
0001
0000
0100
0010
0200
0300
,
0200
0300
0001
0000
0010
0100
0010
0000
,
0001
1000
0001
0000
1000
0100
1000
0000
,
0001
0000
1000
0000
0100
0100
0001
0000
,
0100
0000
1000
0000
0001
0001
1000
0000
,
0010
0000
0100
0000
0010
0010
0001
0000
,
0010
1000
0100
2000
,
3001
0000
1000
0000
0001
1000
0001
0010
,
0100
0000
0010
0000
0001
0100
0002
0000
,
1003
0000
0001
0000
1000
0000
0010
0100
,
0001
0000
0010
0000
0001
0000
1000
0100
,
1000
0100
0010
0100
,
1000
0001
1000
0000
0001
0000
0010
0000
,
0001
0100
0001
0000
0010
0000
0002
1000
,
2003
0100
3200
0000
0320
0000
1000
0000
,
0031
0000
0010
0000
0001
0010
0001
0000
,
1000
0000
0100
0000
1000
0100
1000
0000
,
0001
0000
0100
0000
0010
0001
0010
0000
,
0010
1000
0010
0000
0200
0000
1000
0000
,
0310
0000
0100
0000
0001
0100
0001
0000
,
0010
0000
0100
0000
1000
0100
1000
0000
,
0100
0000
0001
0000
0100
1000
0100
0000
,
1000
0001
1000
0000
0002
0000
0000
1000
,
1003
0000
1000
0000
0001
0010
0001
0000
,
1000
0100
1000
0000
0001
0010
0001
0000
,
1000
0100
0010
0000
0010
0100
1000
0000
,
0001
0010
0100
0000
0100
0010
0001
0000
,
1000
0010
1000
0000
1010
0000
0000
0001
,
0100
0001
0100
0000
0001
0000
0100
0000
,
0010
0010
0010
0000
1000
0001
1000
0000
,
0001
0010
0001
0000
1000
0100
1000
0000
,
0200
2300
3002
0023
,
2030
3020
0032
2003
,
3000
0000
0000
0000
;

//---------------dance-single - ----------------
#NOTEDATA:;
#CHARTNAME:X-Scale 4;
#STEPSTYPE:dance-single;
#DESCRIPTION:;
#CHARTSTYLE:;
#DIFFICULTY:Beginner;
#METER:2;
#RADARVALUES:0.213392,0.266451,0.040371,0.201857,0.000000,185.000000,180.000000,5.000000,25.000000,0.000000,0.000000,0.000000,0.000000,0.000000,0.213392,0.266451,0.040371,0.201857,0.000000,185.000000,180.000000,5.000000,25.000000,0.000000,0.000000,0.000000,0.000000,0.000000;
#CREDIT:;
#NOTES:
0000
0000
0000
0000
,
0000
0000
0000
0000
,
0000
0000
0000
0000
,
0000
0000
0000
0000
,
0011
0000
1000
0000
,
0100
0000
0001
0000
,
0100
0000
1000
0000
,
0010
0000
0100
0000
,
0110
0000
0001
0000
,
1000
0001
1000
0000
,
0010
0000
0100
0000
,
0001
0010
0001
0000
,
1000
0000
0100
0000
,
0010
0100
0010
0000
,
0001
0000
0100
0000
,
0001
0000
0010
0000
,
0011
0000
1000
0000
,
0001
1000
0002
0003
,
0100
0000
0020
0030
,
0001
0010
0200
0300
,
0001
0000
2000
3000
,
0010
1000
0020
0030
,
1000
0100
2000
3002
,
0003
0200
0000
0000
,
0301
0100
0001
0010
,
0100
0001
0100
1000
,
0010
1000
0001
0010
,
0001
1000
0100
0010
,
0100
1000
0001
0100
,
0010
1000
0100
0010
,
0001
0100
0001
0010
,
0001
1000
0100
0010
,
1000
0000
0010
0000
0001
0000
2000
3000
,
2000
3000
0001
0000
0100
0000
0002
0003
,
0002
0003
1000
0000
0001
0000
0010
0000
,
0001
0100
0010
1000
,
0001
1000
0100
1000
,
0010
0001
0010
1000
,
0100
0010
0001
0100
,
0001
0010
0100
1000
,
1100
0100
1000
0001
,
1000
0010
0100
0001
,
0010
0001
1000
0010
,
0001
0010
1000
0100
,
1000
0001
1000
0010
,
0100
0001
0001
0010
,
0002
0000
2003
0000
,
3200
0000
2300
0000
,
3100
0000
1000
0000
,
0001
0000
1000
0000
,
0100
0000
0010
0000
,
0001
0000
0002
0000
,
0013
0000
0001
0000
,
1000
0000
0100
0000
,
1000
0000
0001
0000
,
0010
0000
0002
0000
,
0013
0000
0001
0000
,
1000
0000
0001
0010
,
0001
0000
1000
0000
,
0001
0010
0001
0000
,
1000
0000
2001
0000
,
3002
0000
2003
0000
,
3010
1000
0001
0000
,
1000
0100
0010
0001
,
0002
0000
2003
0000
,
3200
0000
0320
0000
,
0030
0000
0000
0000
;
