#TITLE:Crow;
#SUBTITLE:;
#ARTIST:BoA;
#TITLETRANSLIT:;
#SUBTITLETRANSLIT:;
#ARTISTTRANSLIT:;
#GENRE:J-POP;
#CREDIT:;
#BANNER:[Zoology] - Crow.png;
#BACKGROUND:[Zoology] - Crow-bg.png;
#LYRICSPATH:;
#CDTITLE:CDTitle.png;
#MUSIC:[Zoology] - Crow.ogg;
#OFFSET:-1.552570;
#SAMPLESTART:44.283955;
#SAMPLELENGTH:12.307693;
#SELECTABLE:YES;
#BPMS:0.000000=156.000000
;
#STOPS:
;
#BGCHANGES:;
#KEYSOUNDS:;
#ATTACKS:;

//---------------dance-single - ----------------
#NOTES:
     dance-single:
     :
     Hard:
     8:
     0.508828,0.607242,0.266026,0.591169,0.036948,482.000000,446.000000,36.000000,80.000000,0.000000,0.000000,0.508828,0.607242,0.266026,0.591169,0.036948,482.000000,446.000000,36.000000,80.000000,0.000000,0.000000:
// measure 0
0000
0000
0000
0000
,  // measure 1
0000
0000
0000
0000
,  // measure 2
0000
0000
0000
0000
,  // measure 3
0000
0000
0000
0000
,  // measure 4
1000
0010
1000
0010
1000
0010
1000
0010
,  // measure 5
0100
0000
0000
0100
0000
0001
0010
0100
,  // measure 6
0010
0001
0010
0001
0010
0001
1000
0010
,  // measure 7
0002
0000
0013
1000
0100
0000
0110
0000
,  // measure 8
1002
0000
1003
0010
0000
0010
0100
0010
,  // measure 9
1000
0001
0000
1000
0000
0001
0100
0001
,  // measure 10
1000
0001
1000
0000
0000
0000
1001
0000
0000
0000
0001
0000
0000
0000
0001
0000
,  // measure 11
0100
0010
0000
1000
0000
0001
2001
0000
,  // measure 12
3001
0100
0010
1000
0002
0003
0001
0001
,  // measure 13
1000
0000
1000
1000
0010
0100
0020
0000
,  // measure 14
2030
0001
3001
0100
0002
0003
0000
0001
,  // measure 15
0100
0100
0010
1000
0200
0000
0300
0000
,  // measure 16
1000
0010
0100
0001
2000
0001
3001
1000
,  // measure 17
0010
1000
0010
0010
1000
0100
2000
0000
,  // measure 18
3020
0100
0130
0001
2000
3000
0000
0001
,  // measure 19
1000
0000
1000
0010
0002
0000
0010
0013
,  // measure 20
1000
0000
1000
0001
1000
0000
0001
0100
,  // measure 21
0000
0001
0010
0100
0020
0000
0032
0000
,  // measure 22
1003
0000
0010
1000
0010
0000
0100
0010
,  // measure 23
0000
0010
1000
0001
0200
0000
0302
0000
,  // measure 24
2003
0100
3100
0010
0001
0000
0001
1000
,  // measure 25
0010
0000
0010
1000
0100
1000
0002
0000
,  // measure 26
0023
0000
0000
0130
0010
0100
2000
0000
,  // measure 27
3020
0000
0000
0100
0230
0000
0301
0001
,  // measure 28
1000
0010
0100
0001
0010
0010
0100
0100
,  // measure 29
0010
0001
0100
0010
1000
1000
0001
0001
,  // measure 30
0201
0000
0001
0301
0000
0100
0000
0100
,  // measure 31
0002
0000
0010
0013
0000
0100
1000
0010
,  // measure 32
0001
0010
1000
0100
0010
0010
0100
0100
,  // measure 33
1000
0001
0100
0010
0100
0100
0010
0010
,  // measure 34
0120
0000
1000
1030
0000
0001
0000
0010
,  // measure 35
0200
0010
0310
0001
0000
1000
1100
0000
,  // measure 36
0012
0000
1003
2010
0000
3001
0100
0000
,  // measure 37
0110
0100
0001
0102
0000
1000
1003
0000
,  // measure 38
1200
0000
0310
0011
0000
1001
0000
0220
,  // measure 39
0000
0300
0000
1030
0000
0001
0010
0100
,  // measure 40
1000
0100
0010
0001
1000
1000
0001
0001
,  // measure 41
1000
0010
0100
0001
1000
1000
0001
0001
,  // measure 42
1002
0000
1000
2003
0000
3010
0000
0100
,  // measure 43
0102
0000
0010
0023
0000
0130
1200
0000
,  // measure 44
2300
0000
0000
0000
,  // measure 45
3020
0000
0000
0000
,  // measure 46
0230
0000
0000
0000
0000
0000
0000
0000
0000
0000
0000
0000
0000
0000
0000
0000
0000
0000
0000
0000
0000
0000
0000
0000
0000
0000
0000
0000
0000
0000
0000
0000
0000
0000
0000
0000
0000
0000
0000
0000
0000
0000
0000
0000
0000
0000
0000
0000
0000
0000
0000
0000
0000
0000
0000
0000
0000
0000
0000
0000
0000
0000
0000
0000
0000
0000
0000
0000
0000
0000
0000
0000
0000
0000
0000
0000
0000
0000
0000
0000
0000
0000
0000
0000
0000
0000
0000
0000
0000
0000
0000
0000
0000
0000
0000
0000
0000
0000
0000
0000
0300
0002
0000
0000
0000
0000
0000
0000
0000
0000
0000
0000
0000
0000
0000
0000
0000
0000
0000
0000
0000
0000
0000
0000
0000
0000
0000
0000
0000
0000
0000
0000
0000
0000
0000
0000
0000
0000
0000
0000
0000
0000
0000
0000
0000
0000
0000
0000
0000
0000
0000
0000
0000
0000
0000
0000
0000
0000
0000
0000
0000
0000
0000
0000
0000
0000
0000
0000
0000
0000
0000
0000
0000
0000
0000
0000
0000
0000
0000
0000
0000
0000
0000
0000
0000
0000
0000
0000
0000
0000
0000
0000
,  // measure 47
0023
0000
0000
0000
,  // measure 48
0030
0000
0000
0100
0010
0100
0010
0100
,  // measure 49
2000
0000
0000
0000
0000
0000
0000
0000
0000
0010
0000
0000
0000
3020
0000
0000
0000
0000
0000
0000
0000
0000
0130
0000
0000
0000
0000
0000
0000
0000
0000
0000
,  // measure 50
0000
0000
0000
0000
0000
0000
0001
0000
0000
0000
0000
0000
0000
0000
0000
0000
0000
0000
0000
0000
0000
0000
0000
0000
0000
0000
0000
0000
0000
0000
0002
0000
0000
0000
0000
0000
0000
0000
0000
0000
0000
0000
0000
0000
0000
0000
0000
0000
0000
0000
0000
0000
0000
0000
0000
0000
0000
0000
0000
0000
0000
0000
0000
0000
0000
0000
0000
0000
0000
0000
0000
0000
0000
0000
0000
0000
0000
0000
0000
0000
0000
0000
1003
0000
0000
0000
0000
0000
0000
0000
0000
0000
0000
0000
0000
0000
0000
0000
0000
0000
0000
0000
0000
0000
0000
0000
0002
0000
0000
0000
0000
0000
0000
0000
0000
0000
0000
0000
0000
0000
0000
0000
0000
0000
0000
0000
0000
0000
0000
0000
0000
0000
0000
0000
0000
0000
0000
0000
0000
0000
0000
0000
0000
0000
0000
0000
0000
0000
0000
0000
0000
0000
0000
0000
0000
0000
0013
0000
0000
0000
0000
0000
0000
0000
0000
0000
0000
0000
0000
0000
0000
0000
0000
0000
0000
0000
0000
0000
0000
0000
0000
0000
0000
0000
0000
0000
0000
0000
0000
0000
0000
0000
,  // measure 51
0020
0000
0000
0000
,  // measure 52
0000
0000
0000
0000
,  // measure 53
0000
0000
0000
0000
,  // measure 54
0230
0000
1000
0000
,  // measure 55
2300
3020
0230
0302
,  // measure 56
2003
0100
0001
0100
,  // measure 57
3002
0100
1000
0100
,  // measure 58
2003
0000
0100
0000
,  // measure 59
3200
2300
3020
0230
,  // measure 60
0302
1000
0010
1000
,  // measure 61
0203
0001
0010
1000
,  // measure 62
0320
0000
0000
0000
0000
1030
0001
1000
,  // measure 63
0010
0001
0010
1000
0001
0001
1000
1000
,  // measure 64
0100
0001
0100
1000
0010
0010
0100
0100
,  // measure 65
0201
0000
0000
0000
0001
0000
0302
0000
0000
0000
1000
0003
0100
0000
1000
0000
,  // measure 66
1020
0000
1000
2030
0000
3010
0010
0100
,  // measure 67
1000
0100
0001
0100
0010
0010
1000
1000
,  // measure 68
0100
0010
0100
0001
0100
0100
1000
1000
,  // measure 69
2100
0000
0001
3002
0000
1003
0000
0010
,  // measure 70
0200
0001
0301
1000
0000
0001
0011
0000
,  // measure 71
1002
0000
1003
2010
0000
0010
3010
0000
,  // measure 72
0110
0100
0001
0021
0000
0001
0031
0000
,  // measure 73
0101
0000
1000
1100
0000
0110
0000
0011
,  // measure 74
1000
0001
0100
0110
0000
1010
0001
0001
,  // measure 75
0010
0100
0001
0100
1000
1000
0010
0010
,  // measure 76
0100
0010
0001
0010
1000
1000
0001
0001
,  // measure 77
1002
0000
0100
0203
0000
0310
1000
0100
,  // measure 78
0210
0000
0310
0120
0000
0031
1002
0000
,  // measure 79
1003
0100
1000
0100
1000
0100
1000
0100
,  // measure 80
0010
0000
0000
0010
0000
0001
0010
1000
,  // measure 81
0010
0001
0010
0001
1000
0000
1000
0001
,  // measure 82
0100
0000
0000
0100
0000
0000
0000
0000
,  // measure 83
0010
1000
0100
0010
0001
0100
0000
0002
,  // measure 84
0000
0013
0100
1000
0001
0000
0000
0000
,  // measure 85
1000
0001
0100
0010
0100
0001
0000
2000
,  // measure 86
0000
3010
0100
0001
1000
0000
0000
0000
;

//---------------dance-single - ----------------
#NOTES:
     dance-single:
     :
     Medium:
     5:
     0.340978,0.511362,0.007390,0.480325,0.000000,323.000000,322.000000,1.000000,65.000000,0.000000,0.000000,0.340978,0.511362,0.007390,0.480325,0.000000,323.000000,322.000000,1.000000,65.000000,0.000000,0.000000:
0000
0000
0000
0000
,
0000
0000
0000
0000
,
0000
0000
0000
0000
,
0000
0000
0000
0000
,
0001
0000
0001
0000
0010
0100
0010
0100
,
2000
0000
0000
3001
0000
0100
0010
0000
,
1000
0000
1000
0000
0100
0010
0100
0010
,
0002
0000
0000
1000
2000
0000
3003
0000
,
0110
0000
0000
0100
0000
0001
0010
0100
,
0010
0000
0000
0001
0000
1000
0100
1000
,
0010
0000
0000
0010
0000
0100
0001
0010
,
0001
0000
0000
0010
0000
0100
2000
0000
,
3002
0000
0000
0000
1003
0000
0010
0100
,
0010
0000
1000
0001
1000
0000
0100
0000
,
0020
0000
0000
0000
0031
0000
0000
1000
,
0100
0000
0100
1000
0200
0000
0000
0000
,
2300
0000
0000
0000
3010
0000
0100
0001
,
0100
0000
0001
0010
0001
0000
1000
0000
,
2000
0000
0000
0000
3010
0000
0000
1000
,
0001
0000
0001
0010
0002
0000
1003
0100
,
1000
0000
0100
0010
0100
0000
0010
0001
,
0000
1000
0001
0000
0010
0000
0010
0000
,
0100
0000
1000
0000
0001
0000
1000
0010
,
0000
1000
0100
0000
0010
0000
0010
0000
,
0200
0000
1300
0001
,
0001
0000
0100
0100
0010
1000
0010
0000
,
0200
0000
0000
0301
1000
0001
2000
0000
,
0002
0000
0000
3000
0003
0000
1000
0001
,
0100
0000
1000
0000
0100
0001
1000
0000
,
0100
0000
0001
0000
0100
1000
0001
0000
,
0020
0000
0000
0130
0000
0010
0000
0001
,
2000
0000
0000
3010
0000
0100
0001
0000
,
1000
0000
0010
0000
0001
0010
1000
0000
,
0001
0000
0010
0000
1000
0010
0001
0000
,
2000
0000
0000
3010
0000
0100
0000
0001
,
2000
0000
0000
3100
0000
0010
0001
0000
,
2000
0000
0000
3002
0000
0013
0100
0000
,
0020
0000
0001
0032
0000
0103
0010
0000
,
2000
0000
3010
0100
0000
0001
0000
0020
,
0000
0000
0000
0130
0000
0010
0001
0000
,
1000
0000
0010
0000
0100
0001
1000
0000
,
0010
0000
1000
0000
0100
1000
0001
0000
,
0020
0000
0000
0031
0000
1000
0000
0100
,
0020
0000
0000
0130
0000
1000
0001
0000
,
0200
0000
0000
0000
,
0302
0000
0000
0000
,
2003
0000
3200
0000
,
0320
0000
0000
0000
,
0032
0000
0000
0000
,
0000
0000
0000
0000
,
0203
0000
0000
0000
,
0320
0000
0000
0000
,
0000
0000
0000
0000
,
0000
0000
0000
0000
,
2030
0000
0000
0000
,
3200
0320
0230
0320
,
0032
0000
0000
0000
,
0203
0000
0000
0000
,
0320
0000
0000
0000
,
0230
0302
0203
0302
,
2003
0000
0000
0000
,
0200
0000
0000
0000
,
3300
0000
0000
0000
0000
0010
0010
0001
,
0001
1000
0001
1000
0100
1000
0100
0000
,
0010
0001
0010
0001
0100
0001
0100
0000
,
0020
0000
0000
1030
0000
0001
0000
0100
,
0002
0000
0000
1003
0000
1000
0100
0000
,
0010
0001
0010
0001
1000
0001
1000
0000
,
0100
1000
0100
1000
0001
1000
0001
0000
,
0200
0000
0000
0310
0000
1000
0000
0001
,
0020
0000
0000
0130
0000
0010
0001
0000
,
2000
0000
0000
3020
0000
0130
0001
0000
,
2000
0000
0001
3002
0000
0013
0100
0000
,
0010
0000
0001
1000
0000
0010
0000
0200
,
0000
0000
0000
0310
0000
1000
1000
0000
,
0001
0100
0001
0100
0010
1000
0010
0000
,
1000
0100
1000
0100
0010
0001
0010
0000
,
0002
0000
0000
2003
0000
3001
0000
0100
,
0020
0000
0000
0230
0000
0301
1000
0000
,
0001
0100
0001
0000
0001
1000
0001
0000
,
0010
0000
0000
0010
0000
0100
0100
0000
,
1000
0010
1000
0010
1000
0000
1000
0100
,
1000
0000
0000
1000
0000
0000
0000
0000
,
0001
0100
0001
0000
2000
3000
0000
0020
,
0000
0000
0130
0001
1000
0000
0000
0000
,
0001
0010
0001
0000
2000
3000
0000
0200
,
0000
0000
0310
0001
1000
0000
0000
0000
;

//---------------dance-single - ----------------
#NOTES:
     dance-single:
     :
     Easy:
     3:
     0.196353,0.287641,0.014779,0.332533,0.000000,186.000000,184.000000,2.000000,45.000000,0.000000,0.000000,0.196353,0.287641,0.014779,0.332533,0.000000,186.000000,184.000000,2.000000,45.000000,0.000000,0.000000:
0000
0000
0000
0000
,
0000
0000
0000
0000
,
0000
0000
0000
0000
,
0000
0000
0000
0000
,
1000
1000
1000
1000
,
0010
0000
0000
0010
0000
0000
0100
0000
,
0001
0001
0001
1000
,
0200
0000
0000
0300
,
1001
0000
0000
1000
0000
1000
0000
0000
,
0001
0000
0000
0100
0000
0100
0000
0000
,
0010
0000
0000
1000
0000
1000
0000
0000
,
0001
0000
0000
0010
0000
0100
0000
0000
,
0020
0000
0030
0001
,
0002
0000
0103
0010
,
2000
0000
3010
0000
,
0100
0100
0002
0000
,
2003
0000
3100
0000
,
0010
0010
0001
1000
,
0002
0000
1003
0000
,
0020
0100
0200
0330
,
0001
0001
1000
0000
,
0100
0100
1000
0000
,
0001
0010
0100
0000
,
0010
0010
0001
0000
,
2000
0000
3010
0000
,
0100
0100
0001
1000
,
0002
0000
1000
1000
,
2000
0000
3003
0000
,
0001
0010
0100
0100
,
1000
0010
0100
0100
,
0020
0000
0000
1030
0000
0000
0000
0000
,
0002
0000
0000
1003
0000
0000
0001
0000
,
0010
0001
1000
1000
,
0010
0100
0001
0001
,
0200
0000
0000
0310
0000
0000
0000
0000
,
0020
0000
0000
0130
0000
0000
0000
0000
,
2001
0000
0000
0001
0000
0000
0000
0000
,
3002
0000
0000
1000
0000
0000
0000
0000
,
1003
0000
0000
0010
0000
0010
0000
0020
,
0000
0000
0000
0030
0000
0000
1000
0000
,
0001
0010
0100
0100
,
1000
0010
0100
0100
,
0020
0000
0000
0030
0000
0000
0000
0000
,
2000
0000
0000
3000
0000
0000
0000
0000
,
0002
0000
0000
0000
,
0023
0000
0000
0000
,
0230
0000
0000
0000
,
2300
0000
0000
0000
,
3002
0000
0000
0000
,
0000
0000
0000
0000
,
2003
0000
0000
0000
,
0200
0000
0000
0000
,
0000
0000
0000
0000
,
0000
0000
0000
0000
,
3300
0000
0000
0000
,
0010
0000
0010
0000
,
0002
0000
0000
0000
,
0000
0000
0000
0000
,
0003
0000
0000
0000
,
0100
0000
0100
0000
,
0020
0000
0000
0000
,
0000
0000
0000
0000
,
0030
0000
0000
0000
,
1000
0001
1000
1000
,
0010
0100
0010
0010
,
0200
0000
0000
0300
0000
0000
0000
0000
,
0002
0000
0000
0003
0000
0000
0010
0000
,
0100
0100
0010
0010
,
0001
0001
1000
1000
,
0020
0000
0000
0130
0000
0000
0000
0000
,
0002
0000
0000
1003
0000
0000
0000
0000
,
0002
0000
0000
0200
0000
0000
0303
0000
,
0020
0000
0000
2000
0000
0000
3030
0000
,
0100
0000
0000
0010
0000
0010
0000
0020
,
0000
0000
0000
0031
0000
0000
0001
0000
,
1000
0010
0100
0100
,
0001
0100
0010
0010
,
2000
0000
0000
3000
0000
0000
0000
0000
,
0002
0000
0000
0003
0000
0000
0000
0000
,
1000
1000
1000
1000
,
0010
0000
0000
0010
0000
0000
0100
0000
,
0001
0001
0001
0001
,
1000
0000
0000
1000
0000
0000
0000
0000
,
0200
0000
0000
0000
0300
0000
0000
0020
,
0000
0000
0030
0000
,
0002
0000
0000
0000
0003
0000
0000
2000
,
0000
0000
3000
0000
;
