#TITLE:A House Cat;
#SUBTITLE:;
#ARTIST:Taros;
#TITLETRANSLIT:;
#SUBTITLETRANSLIT:;
#ARTISTTRANSLIT:;
#GENRE:Rave;
#CREDIT:TiKAL;
#MUSIC:[Zoology] - A House Cat.ogg;
#BANNER:[Zoology] - A House Cat.png;
#BACKGROUND:[Zoology] - A House Cat-bg.png;
#CDTITLE:cdtitle.png;
#SAMPLESTART:58.300;
#SAMPLELENGTH:18.858;
#SELECTABLE:YES;
#OFFSET:-0.010;
#BPMS:0.000=139.990
,274.000=150.000
;
#STOPS:;
#DISPLAYBPM:140.000;
#BGCHANGES:;
#FGCHANGES:;

//--------------- dance-single - TiKAL '99 ----------------
#NOTES:
     dance-single:
     TiKAL '99:
     Easy:
     3:
     0,0,0,0,0:
0000
0000
0000
0000
,
0000
0000
0000
0000
,
0000
0000
0000
0000
,
0000
0000
0000
0000
,
1000
0000
0100
0010
,
0001
0000
0100
0010
,
1000
0000
0010
0100
,
0001
0000
0010
0100
,
1001
0000
0000
0000
,
0000
0000
0000
0000
,
0000
0000
0000
0000
,
0000
0000
0000
0000
,
1000
0001
0000
0001
,
0100
0010
0000
0010
,
1000
0100
0010
0001
,
1000
0010
0100
0001
,
1000
0000
0000
1001
,
1000
0000
0001
0100
,
0001
0000
1000
0100
,
1000
0000
0001
0010
,
0100
1000
0100
0010
,
0001
0000
1000
0010
,
1000
0000
0001
0010
,
0001
0000
1000
0100
,
0010
0001
0010
0100
,
1000
0000
0001
0010
,
0001
0000
1000
0010
,
1000
0000
0001
0100
,
0010
1000
1001
0000
,
0001
0000
1000
0100
,
1000
0000
0001
0100
,
0001
1000
0100
1000
,
1001
0000
0000
0000
,
0110
0000
0000
0000
,
1000
0100
0010
0001
,
1000
0100
0010
0001
,
1000
0100
0010
0001
,
1000
0010
0100
0001
,
0001
0010
0100
1000
,
0001
0010
0100
1000
,
0001
0100
0010
1000
,
0001
0000
1000
0001
,
1001
0000
0001
1000
,
1001
0000
0000
0000
0000
0000
0000
0110
,
0000
0000
0000
1001
,
0001
0100
0010
1000
,
0001
0100
0010
1000
,
0001
0100
0010
1000
,
0001
0010
0100
1000
,
1000
0010
0100
0001
,
1000
0010
0100
0001
,
1000
0100
0010
0001
,
1000
0000
0001
1000
,
1001
0000
1000
0001
,
0011
0000
0000
0000
0000
0000
0000
1010
,
0000
0000
0000
1100
,
0101
0000
0000
0000
0000
0000
0000
1001
,
0000
0000
0110
0000
,
1001
0000
0000
0000
,
0000
0000
0000
0000
,
1000
0000
0000
0000
,
0001
0000
0000
0000
,
1000
0001
0000
0001
,
0100
0010
0000
0010
,
1000
0100
0010
0001
,
1000
0010
0100
0001
,
1010
0000
0000
0000
0000
0000
0000
0011
,
0000
0000
0101
1100
,
0000
0000
0000
0000
0000
1001
0000
0000
;

//--------------- dance-single - TiKAL '99 ----------------
#NOTES:
     dance-single:
     TiKAL '99:
     Medium:
     5:
     0,0,0,0,0:
0000
0000
0000
0000
,
0000
0000
0000
0000
,
0000
0000
0000
0000
,
0000
0000
0000
0000
,
1001
0000
1000
0000
0100
0010
0001
0000
,
1000
0000
0001
0000
0100
0010
1000
0000
,
1001
0000
0001
0000
0010
0100
1000
0000
,
0001
0000
1000
0000
0010
0100
0001
0000
,
1001
0000
0000
0000
,
0000
0000
0000
0000
,
0000
0000
0000
0000
,
0000
0000
0000
0000
,
1100
0000
0100
0000
0010
0001
1000
0000
,
0001
0000
0100
0000
0010
1000
0001
0000
,
1000
0000
0010
0000
0100
0001
1000
0000
,
0011
0000
0010
0000
0100
1000
0001
0000
,
1000
0000
0000
0100
0000
0000
0010
0000
0000
0001
0000
0000
1000
0000
0000
0000
,
0001
0100
1000
0000
0100
0001
1000
0000
,
1000
0100
0001
0000
0100
1000
0001
0000
,
1000
0010
0001
0000
0010
1000
0001
0000
,
1000
0100
0010
0001
,
1000
0100
0001
0000
0100
1000
0001
0000
,
0001
0100
1000
0000
0100
0001
1000
0000
,
0001
0010
1000
0000
0010
0001
1000
0000
,
0001
0100
0010
1000
,
0001
0010
0100
0000
0010
0100
1000
0000
,
1000
0010
0100
0000
0010
0100
0001
0000
,
1000
0100
0010
0000
0100
0010
0001
0000
,
1000
0001
1000
0000
1001
0000
0000
0000
,
1000
0010
0100
0000
0010
0100
0001
0000
,
0001
0010
0100
0000
0010
0100
1000
0000
,
0001
0000
0000
0000
0100
0000
0000
0000
0010
0000
0000
0000
1000
0000
0000
1001
,
0000
0000
0000
0000
,
0100
0000
0010
0000
0100
0000
0000
0110
0000
0000
0000
0000
0000
0000
0000
0000
,
0001
1000
0001
0000
0010
0000
0100
0000
,
1000
0001
1000
0000
0010
0000
0100
0000
,
0001
1000
0001
0000
0100
0000
0010
0000
,
1000
0100
0010
0001
,
1000
0001
1000
0000
0010
0000
0100
0000
,
0001
1000
0001
0000
0010
0000
0100
0000
,
1000
0001
1000
0000
0010
0100
0010
0000
,
1000
0100
0010
0001
,
1001
0000
1000
0001
,
1000
0100
0001
0100
,
1000
0010
0001
0010
,
1000
0001
1000
0000
0100
0000
0010
0000
,
0001
1000
0001
0000
0100
0000
0010
0000
,
1000
0001
1000
0000
0010
0000
0100
0000
,
0001
0010
0100
1000
,
0001
1000
0001
0000
0100
0000
0010
0000
,
1000
0001
1000
0000
0100
0000
0010
0000
,
0001
1000
0001
0000
0100
0010
0100
0000
,
0001
0010
0100
1000
,
1001
0000
0001
1000
,
0001
0010
1000
0010
,
0001
0100
1000
0100
,
0001
0010
1000
0010
,
0001
0100
1000
0100
,
0001
0000
0000
0000
,
0010
0000
0000
0000
,
0100
0000
0000
0000
,
1000
0000
0000
0001
,
0101
0000
0100
0000
0010
1000
0001
0000
,
1000
0000
0100
0000
0010
0001
1000
0000
,
0001
0000
0010
0000
0100
1000
0001
0000
,
1010
0000
0010
0000
0100
0001
1000
0000
,
0001
0010
1000
0010
,
0001
0100
1000
0100
,
0001
0000
0000
0000
0000
1001
0000
0000
;

//--------------- dance-single - TiKAL '99 ----------------
#NOTES:
     dance-single:
     TiKAL '99:
     Hard:
     7:
     0,0,0,0,0:
0000
0000
0000
0000
,
0000
0000
0000
0000
,
0000
0000
0000
0000
,
0000
0000
0000
0000
,
1001
0000
1000
0100
1000
0100
0010
0000
,
0001
0000
0001
0100
0001
0100
0010
0000
,
1001
0000
1000
0100
1000
0001
0000
0000
,
0100
0000
0010
1000
0001
1000
0100
0000
,
0110
0000
0000
0000
,
1000
0000
0000
0000
,
0001
0000
0000
0000
,
0100
0000
0000
0010
,
1001
0000
1000
0000
0001
0010
0100
1000
,
0001
0000
1000
0000
0001
0100
0010
1000
,
0001
0000
1000
0100
0010
0001
1000
0000
,
1001
0000
0000
0000
0000
0000
0000
0110
0000
0000
0000
0000
1000
0000
0001
0000
,
1000
0000
0000
0100
0000
0000
0010
0000
0000
0001
0000
0000
1000
0000
0000
0000
,
1001
0000
0000
0000
1000
0000
0000
0001
0000
0000
0100
0000
0010
0000
0100
0000
,
0000
0000
0001
0000
0001
0000
0000
1000
0000
0000
0100
0000
0010
0000
0100
0000
,
0000
0000
1000
0000
1000
0000
0000
0001
0000
0000
0010
0000
0100
0000
0010
0000
,
0001
0000
0000
0000
1000
0000
0000
0000
0010
0000
0000
0100
0000
0000
0010
0000
,
0110
0000
0000
0000
0001
0000
0000
1000
0000
0000
0100
0000
0010
0000
0100
0000
,
0000
0000
1000
0000
1000
0000
0000
0001
0000
0000
0100
0000
0010
0000
0100
0000
,
0000
0000
0001
0000
0001
0000
0000
1000
0000
0000
0010
0000
0100
0000
0010
0000
,
1000
0000
0000
0000
0001
0000
0000
0000
0010
0000
0000
0100
0000
0000
0010
0000
,
0110
0000
0000
0000
1000
0000
0000
0001
0000
0000
0010
0000
0010
0000
0100
0000
,
0000
0000
1000
0000
1000
0000
0000
0001
0000
0000
0100
0000
0100
0000
0010
0000
,
0000
0000
1000
0000
1000
0000
0000
0001
0000
0000
0010
0000
0010
0000
0100
0000
,
1000
0000
0001
0000
1000
0000
0000
1001
0000
0000
0000
0000
0000
0000
0000
0000
,
0110
0000
0000
0000
0001
0000
0000
1000
0000
0000
0010
0000
0010
0000
0100
0000
,
0000
0000
0001
0000
0001
0000
0000
1000
0000
0000
0100
0000
0100
0000
0010
0000
,
0001
0000
0000
0000
1000
0000
0000
0000
0010
0000
0100
0000
0001
0000
0000
1001
,
0000
0000
0000
0000
1000
0100
0010
0001
,
1000
0000
0010
0000
0100
0000
0001
1000
0000
0000
0000
0000
0000
0000
0000
0000
,
0011
0000
0010
0000
0100
0000
0010
0000
0001
0000
0000
0010
0000
0000
0100
0000
,
1000
0000
0100
0000
0010
0000
0100
0000
1000
0000
0000
0100
0000
0000
0010
0000
,
0001
0000
0100
0000
0010
0000
0100
0000
0001
0000
0000
0100
0000
0000
0010
0000
,
1000
0000
0000
0010
0000
0000
0100
0000
0001
0000
0000
0100
0000
0000
0010
0000
,
1000
0000
0100
0000
0010
0000
0100
0000
1000
0000
0000
0100
0000
0000
0010
0000
,
0001
0000
0010
0000
0100
0000
0010
0000
0001
0000
0000
0010
0000
0000
0100
0000
,
1000
0010
0100
0010
1000
0010
0100
0001
,
1001
0000
0000
0000
1000
0000
0000
0000
0001
0000
0000
0100
0000
0000
0010
0000
,
1000
0000
0000
0000
0001
0000
0010
0000
0100
0000
0000
1000
0000
0000
0001
0000
,
1001
0000
1000
0000
0100
0000
0000
0000
0001
0000
0000
0100
0000
0000
1100
0000
,
0000
1000
0010
0000
0001
0010
0100
0001
,
1100
0000
0100
0000
0010
0000
0100
0000
1000
0000
0000
0100
0000
0000
0010
0000
,
0001
0000
0010
0000
0100
0000
0010
0000
0001
0000
0000
0010
0000
0000
0100
0000
,
1000
0000
0010
0000
0100
0000
0010
0000
1000
0000
0000
0010
0000
0000
0100
0000
,
0001
0000
0000
0100
0000
0000
0010
0000
1000
0000
0000
0010
0000
0000
0100
0000
,
0001
0000
0010
0000
0100
0000
0010
0000
0001
0000
0000
0010
0000
0000
0100
0000
,
1000
0000
0100
0000
0010
0000
0100
0000
1000
0000
0000
0100
0000
0000
0010
0000
,
0001
0100
0010
0100
0001
0100
0010
1000
,
1001
0000
0000
0000
0001
0000
0000
0000
1000
0000
0000
0010
0000
0000
0100
0000
,
0001
0000
0000
0000
1000
0000
0100
0000
0010
0000
0000
0001
0000
0000
1000
0000
,
1001
0000
0001
0000
0010
0000
0000
0000
1000
0000
0000
0010
0000
0000
0011
0000
,
0000
0001
0100
0000
1000
0100
0010
1000
,
0000
0000
0001
0000
0010
0000
0000
0000
1000
0000
0000
0010
0000
0000
0011
0000
,
0000
0001
0100
0000
1000
0100
0010
1000
,
0001
0001
0001
0001
,
0010
0010
0010
0010
,
0100
0100
0100
0100
,
1000
0000
1000
0000
1000
0001
0100
0010
,
0110
0000
0001
0000
1000
0100
0010
0001
,
1000
0000
0001
0000
1000
0010
0100
0001
,
1000
0000
0001
0010
0100
1000
0001
0000
,
1001
0000
0000
0000
0000
0000
0000
0110
0000
0000
0000
0000
0001
0000
1000
0000
,
1001
0000
0001
0000
0100
0000
0000
0000
1000
0000
0000
0100
0000
0000
0101
0000
,
0000
0001
0010
0000
1000
0010
0100
1000
,
0001
1000
0001
0100
0000
0110
0000
0000
;

//--------------- dance-single - TiKAL '02 ----------------
#NOTES:
     dance-single:
     TiKAL '02:
     Challenge:
     10:
     0,0,0,0,0:
0000
0000
0000
0000
,
0000
0000
0000
0000
,
0000
0000
0000
0000
,
0000
0000
0000
0000
,
1002
0000
0000
1003
0100
1000
0100
1000
0001
0000
0001
0000
2000
0000
3010
0000
,
0200
0000
0300
0001
1000
0001
1000
0001
0010
0100
0010
0100
2000
0000
3000
0000
,
2001
0000
0000
3001
0100
0001
0100
0001
1000
0000
2000
0000
0000
0000
3000
0000
,
0100
0020
0000
0000
0031
0000
1000
0001
1000
0001
0100
0010
0200
0000
0000
0300
,
0110
0000
0000
0000
1000
0000
0000
0001
0000
0000
0010
0000
0100
0000
0010
0000
,
0001
0000
0000
0000
0001
0000
0000
1000
0000
0000
0010
0000
0100
0000
0010
0000
,
1000
0000
0000
0000
1000
0000
0000
0001
0000
0000
0100
0000
0010
0000
0100
0000
,
0001
0000
0000
0000
0001
0000
0000
1000
0000
0000
0100
0000
0010
0000
0100
0000
,
1001
0000
0000
0000
0001
0100
0001
0100
0000
0010
1000
0010
1000
0001
1000
0000
,
0200
0000
0000
0000
0310
0001
0010
0001
0000
1000
0001
1000
0001
0100
0001
0000
,
1000
0100
1000
0100
1000
0000
0001
0000
0100
0010
0100
0010
1000
0001
0000
0000
,
0011
0000
0000
0000
0001
0000
0000
1100
0000
0000
1000
0100
0010
0001
0100
0010
,
1000
0001
0000
1000
0001
0000
0100
0010
0000
0100
0010
0000
0110
0000
0000
0000
,
1001
0000
0001
0000
1000
0000
0100
0020
0000
0000
0031
0000
0010
0000
0100
0000
,
0000
0000
1000
0000
1000
0000
0010
0200
0000
0000
0301
0000
0100
0000
0010
0000
,
0000
0000
1000
0000
1000
0000
0001
0020
0000
0000
0130
0000
1000
0000
0001
0000
,
1001
0000
0000
0000
0110
0000
0000
0000
1010
0000
0000
1001
0000
0000
0011
0000
,
0110
0000
1000
0000
0001
0000
0100
0020
0000
0000
1030
0000
0010
0000
0100
0000
,
0000
0000
0001
0000
0001
0000
0010
0200
0000
0000
1300
0000
0100
0000
0010
0000
,
0000
0000
0001
0000
0001
0000
1000
0020
0000
0000
0130
0000
0001
0000
1000
0000
,
1001
0000
0000
0000
0110
0000
0000
0000
0011
0000
0000
1001
0000
0000
1010
0000
,
0110
0000
0001
0000
0001
0000
1000
0200
0000
0000
0310
0000
0010
0000
0100
0000
,
0000
0000
1000
0000
1000
0000
0001
0100
0000
0100
0010
0000
1000
0000
0001
0000
,
0000
0000
1000
0000
1000
0000
0001
0020
0000
0000
0130
0000
1000
0000
0001
0000
,
0100
0000
0010
0000
1000
0001
0000
1001
0000
0000
0000
0000
0001
1000
0001
0000
,
0110
0000
1000
0000
1000
0000
0001
0200
0000
0000
0310
0000
0010
0000
0100
0000
,
0000
0000
0001
0000
0001
0000
1000
0100
0000
0100
0010
0000
0001
0000
1000
0000
,
1010
0000
0000
0000
0011
0000
0000
0000
0001
0000
0100
0000
0010
0000
2000
0002
,
0000
0000
3000
0000
1003
0000
0000
0000
0001
0000
0010
0000
0100
1000
0001
1000
,
0010
0100
0001
1000
0100
0010
0001
2000
0000
0000
3010
0000
0010
0000
0100
0000
,
0101
0000
0001
0000
1000
0000
0001
0000
0020
0000
0000
0230
0000
0000
1300
0000
,
0010
0000
1000
0000
0001
0000
1000
0000
0200
0000
0000
0320
0000
0000
0031
0000
,
0010
0000
0001
0000
1000
0000
0001
0000
0200
0000
0000
0320
0000
0000
1030
0000
,
0001
1000
0010
0200
0000
0000
0301
0000
2000
0000
0000
3200
0000
0000
0310
0000
,
0001
0000
1000
0000
1001
0000
0001
0000
0200
0000
0000
0320
0000
0000
1030
0000
,
0100
0000
1000
0000
0001
0000
1000
0000
0020
0000
0000
0230
0000
0000
0301
0000
,
0100
0001
1000
0001
0010
0100
1000
0001
,
1002
0000
0000
0000
0203
0000
0000
0000
0320
0000
0000
2030
0000
0000
3001
0000
,
1000
0100
1000
0000
0001
0000
0010
0000
0200
0000
0000
2300
0000
0000
3001
0000
,
1001
0000
0001
0100
0010
1000
0000
1000
0001
0000
0001
0010
0000
0000
0110
0000
,
0000
0100
1000
0010
0100
0001
0000
0001
1000
0000
0001
0010
0001
1000
0010
0100
,
0001
0000
1000
0000
0001
0000
0010
0000
0200
0000
0000
2300
0000
0000
3001
0000
,
0010
0000
0001
0000
1000
0000
0001
0000
0200
0000
0000
0320
0000
0000
1030
0000
,
0010
0000
1000
0000
0001
0000
1000
0000
0200
0000
0000
0320
0000
0000
0031
0000
,
1000
0001
0010
0200
0000
0000
1300
0000
0002
0000
0000
0203
0000
0000
0310
0000
,
1000
0000
0001
0000
1001
0000
1000
0000
0200
0000
0000
0320
0000
0000
0031
0000
,
0100
0000
0001
0000
1000
0000
0001
0000
0020
0000
0000
0230
0000
0000
1300
0000
,
0100
1000
0001
1000
0010
0100
0001
1000
,
2001
0000
0000
0000
3200
0000
0000
0000
0320
0000
0000
0032
0000
0000
1003
0000
,
0001
0100
0001
0000
1000
0000
0010
0000
0200
0000
0000
0302
0000
0000
1003
0000
,
1001
0000
1000
0100
0010
0001
0000
0001
1000
0000
1000
0010
0000
0000
0110
0000
,
0000
0100
0001
0010
0100
1000
0000
1000
0001
0000
1000
0010
1000
0001
0010
0100
,
1000
0100
0010
0001
1000
0010
0000
0010
0100
0000
0100
0001
0000
0000
1001
0000
,
0000
1000
0100
0010
0001
0100
0000
0100
0010
0000
1000
0001
0100
0010
1000
0001
,
0020
0000
0000
0000
0001
0000
0000
0032
0000
0000
1000
0003
1000
0000
0010
0000
,
0200
0000
0000
0000
0001
0000
0000
0302
0000
0000
1003
0000
1000
0000
0100
0000
,
2000
0000
0000
0000
0010
0000
0000
3020
0000
0000
0100
0030
0100
0000
0001
0000
,
2000
0000
0000
0000
0000
0000
0000
0000
0000
0000
0000
0000
0100
0000
0000
0000
0000
0000
0000
0000
0000
3100
0000
0000
0010
0000
0001
0000
0010
0000
0100
0000
0000
1000
0000
0000
0001
0000
0000
0100
0000
0000
0010
0000
0000
0000
0000
0000
,
1002
0000
0000
0000
0103
0000
0000
0010
1000
0000
1000
0000
0001
0000
0010
0000
,
2001
0000
0000
0000
3100
0000
0000
0010
0001
0000
0001
0000
1000
0000
0010
0000
,
1002
0000
0000
0000
0013
0000
0000
0100
1000
0000
1000
0000
0001
0000
0100
0000
,
1010
0000
0000
0000
0010
0000
0000
0101
0000
0000
0001
0100
0010
1000
0100
0010
,
0001
0010
0100
1000
0001
0100
0000
0100
0010
0000
0010
1000
0000
0000
1001
0000
,
0000
0001
0010
0100
1000
0010
0000
0010
0100
0000
0001
1000
0010
0100
0001
1000
,
0100
0010
0100
0010
0100
0010
0100
0010
0000
0000
1001
0000
0000
0000
0000
0000
;
