#TITLE:Two DAYS OF LOVE;
#SUBTITLE:;
#ARTIST:tiger YAMATO with マイク吉川 feat.ma-sa;
#TITLETRANSLIT:;
#SUBTITLETRANSLIT:;
#ARTISTTRANSLIT:tiger YAMATO with Maiku Yoshikawa feat.ma-sa;
#CREDIT:TonyAkita & SupremeX;
#BANNER:twodaysoflove-bn.png;
#BACKGROUND:twodaysoflove-bg.png;
#LYRICSPATH:;
#CDTITLE:cdtitle.png;
#MUSIC:twodaysoflove.ogg;
#OFFSET:-2.002;
#SAMPLESTART:54.402;
#SAMPLELENGTH:12.800;
#SELECTABLE:YES;
#BPMS:0.000=150.000;
#STOPS:;
#BGCHANGES:;

//---------------dance-single - ----------------
#NOTES:
     dance-single:
     :
     Hard:
     7:
     0.486,0.481,0.095,0.301,0.069:
0000
0000
0000
0000
,
0000
0000
0000
0000
,
0010
0000
0001
1000
0100
1000
0001
0000
,
0100
0010
1000
0001
1000
0100
0010
0000
,
0001
0010
0100
1000
0100
0010
0001
0010
,
0100
0010
0001
1000
1000
0000
0100
1000
,
0001
1000
0100
1000
0001
0100
0001
0000
,
1000
0010
0100
0001
0000
1000
0010
0100
,
0000
0100
0001
1000
0200
0000
0320
0001
,
0031
0000
0010
0000
0100
0000
0000
1000
0000
0000
0100
0000
0010
0000
0000
0000
,
0001
0000
0000
0100
0000
0000
0001
0000
0000
0000
0000
0000
1000
0000
0100
0000
,
2000
0000
3200
0000
0320
0000
0031
0001
,
0000
0110
0000
0000
1100
0000
0000
0010
,
0010
0000
0001
0000
1000
0000
0000
1000
0000
0000
1000
0000
0010
0000
0100
0000
,
0002
0000
0100
0103
0000
0000
0010
1000
,
0020
0000
0000
0000
0230
0000
0000
0000
0301
0000
0000
1000
0000
0000
0001
0000
,
0100
0000
0000
0000
0100
0000
0001
0000
1000
0001
1000
0000
0010
0100
0010
0000
,
0100
0000
0000
0000
0001
0000
0000
0001
0000
0000
0001
0000
0010
0000
0100
0000
,
1000
0000
0000
1000
0000
0000
1000
0000
0000
0000
0000
0000
0010
0000
0100
0000
,
0002
0000
2003
0000
3200
0000
0300
0020
,
0000
0031
0000
0000
1001
0000
0000
0010
,
1000
0000
1000
0010
0100
0001
0100
0010
,
1000
0000
0010
0010
0000
0000
0100
0001
,
0100
0000
0000
0000
0010
0000
0000
0010
0000
0000
0010
0000
0000
0000
1000
0000
,
0020
0000
0000
0230
0000
0300
0001
0100
,
0002
0000
0000
0000
0003
0000
1000
0100
,
0000
1000
0000
0110
0000
1001
0000
0010
,
0100
0000
0100
0001
0000
1000
0000
0101
,
0000
1010
0000
0101
0000
0000
0000
1000
,
1000
0000
0000
0100
0000
0000
0010
0000
0100
0000
0000
0000
0000
0000
0001
0000
,
0001
0000
0000
0010
0000
0000
0100
0000
0010
0000
0000
0000
0110
0000
0000
0000
,
1010
0000
0000
0000
0000
1000
0001
1000
,
0020
0000
0130
0100
0000
0000
0001
0010
,
0200
0000
0300
0000
1000
0100
0010
0002
,
0000
0000
2003
0000
0000
3000
0000
0001
,
0100
0000
0100
0000
0010
0000
0010
0200
,
0000
0001
0301
0000
0000
0000
1000
0100
,
2000
0000
0000
0000
3100
0000
0000
0000
1000
0000
0000
0001
0000
0000
1000
0000
,
0002
0000
0100
0103
0000
0000
0010
1000
,
0010
0000
0000
0000
0100
0000
0001
0000
1000
0000
0000
0010
0000
0000
1000
0000
,
0001
0000
0100
0100
0000
0000
0010
1000
,
0001
0000
0001
0000
1000
0100
1000
0100
,
0000
0010
0020
0000
0031
0000
0001
1000
,
0010
0000
1000
0000
1001
0000
0100
0010
,
0000
0010
0200
0000
0310
0000
1000
0001
,
1000
0000
0000
0000
0000
0000
0010
0000
0100
0000
0000
0100
0000
0000
0100
0000
,
0001
0000
1000
0001
0000
0000
0100
0010
,
0100
0000
0000
0000
0001
0000
1000
0000
0010
0000
0000
0010
0000
0000
1000
0000
,
0002
0000
0003
0100
0100
0000
0010
0000
,
1000
0000
0000
2000
0000
0000
0100
0000
0100
0000
0000
0000
0000
0000
0001
0000
,
0000
0100
0000
0001
0000
3100
0000
0000
,
0010
0010
0000
0001
0001
0000
0000
1000
,
0000
0010
0000
1000
0000
0001
0010
0100
,
1000
0000
0100
0100
0000
1000
0010
2000
,
0000
3000
0000
0100
0020
0000
0031
0000
,
0010
0000
0001
0000
1000
0100
1000
0200
,
0000
0300
0010
0010
0000
0000
0001
1000
,
0010
0000
0100
0100
0000
0010
1000
0002
,
0000
0003
0000
1000
0010
0000
0010
0000
,
1000
0000
0001
2000
0000
0000
0000
0000
,
0000
0000
0000
3000
,
0001
1000
0100
1000
0002
0000
0103
0001
,
0200
0320
2030
3001
,
0100
0001
0100
0010
1000
0000
1000
0001
,
0100
0001
1000
0001
0100
0000
0010
0000
,
1000
0100
0010
0001
1000
0000
0100
0000
,
1000
0001
0100
0010
1000
0000
0001
0010
,
0100
0010
0001
1000
0100
0010
1000
0000
,
1000
0000
0010
0010
0000
0100
0001
0000
,
0001
1000
0010
0000
0010
1000
0001
0001
;

//---------------dance-single - ----------------
#NOTES:
     dance-single:
     :
     Medium:
     5:
     0.369,0.451,0.198,0.172,0.000:
0000
0000
0000
0000
,
0000
0000
0000
0000
,
0010
0001
1000
0100
,
1000
0001
1000
0000
0010
1000
0010
0000
,
0101
0000
1001
0000
0010
0001
0010
0001
,
1000
0100
1000
0001
,
1000
0010
1000
0001
,
0010
0001
0010
0001
0000
1000
0100
1000
,
0000
0010
1000
0010
0000
0100
0001
0100
,
0001
1000
0001
0010
,
0020
0000
0000
0031
0000
0000
1000
0000
,
2000
0000
3002
0000
,
0013
0000
0110
0000
,
1001
0100
1000
0100
,
0020
0000
0031
0000
,
0002
0000
2003
0000
,
3010
0000
0000
0000
1000
0100
0010
0001
,
0010
0000
0001
0010
0000
0001
0010
0000
,
0001
0000
1000
0010
0000
1000
0010
0000
,
2000
0000
3002
0000
,
0103
0000
1001
0000
,
1000
0000
0100
0010
0000
0100
0010
0000
,
0001
0000
0100
0010
0000
0100
0010
0000
,
0110
0000
1001
0000
,
0020
0000
0030
0010
,
2000
0000
0000
0000
3000
0000
0010
1000
,
0100
0000
0010
0000
0100
0000
0010
0001
,
0100
0000
0010
0000
1000
0000
0001
1000
,
0001
0000
0010
0000
0001
0000
0000
0010
,
0020
0000
0000
0000
0030
0000
0000
0100
,
0200
0000
0300
0000
,
1001
0000
0010
0100
,
0220
0000
0330
0000
,
1010
0000
1000
0000
0001
0010
0001
0010
,
0001
1000
0100
0010
,
1001
1000
1010
0100
,
0012
0000
0000
0000
1003
0000
0001
1000
,
0010
1000
0001
0100
,
0001
1000
0010
1000
,
0002
0000
0010
0000
,
1003
0000
0000
0000
0110
0000
0001
0010
,
0100
0000
0010
0000
0100
1000
0100
1000
,
0100
0010
0001
1000
,
1010
0001
1010
0100
,
0012
0000
0000
0000
1003
0000
0010
1000
,
0010
0100
0001
0100
,
0010
1000
0100
0010
,
0200
0000
0001
0000
,
0310
0000
0001
1000
,
1001
0000
0000
0010
0010
0000
0000
1000
,
0000
0001
0000
1000
0000
0100
0000
0000
,
1000
1000
0000
0001
0001
0000
0000
0010
,
0000
0001
0000
1000
0000
0001
0000
0000
,
1010
0000
0000
0000
0000
0001
0000
0001
,
0000
0000
0010
0001
,
1000
0000
0001
0000
0000
0100
0000
0100
,
0000
0000
0001
1000
,
1010
0000
0000
0000
0000
1000
0000
0001
,
0000
0000
0100
0100
,
0001
0010
0100
1000
,
0022
0000
0000
0033
,
1000
0001
1000
0010
,
1000
0100
0010
0001
,
1000
0001
0010
0001
,
1000
0100
1000
0000
0001
1000
0001
0000
,
0110
0000
1001
0000
0010
1000
0010
1000
,
0100
0010
0001
1000
,
0001
0010
0001
0100
,
0010
1000
0010
1000
0000
0001
1000
0001
,
0000
0010
0001
0010
0000
0001
1000
0001
;

//---------------dance-single - ----------------
#NOTES:
     dance-single:
     :
     Challenge:
     9:
     0.623,0.632,0.310,0.413,0.254: // measure 1
0000
0000
0000
0000
,  // measure 2
0000
0000
0000
0000
,  // measure 3
0010
0000
0001
1000
0000
0010
1000
0010
1000
0000
0002
0000
0000
0000
1000
0000
,  // measure 4
1003
0100
1000
0001
0100
0001
1000
0001
,  // measure 5
0020
0001
0031
1000
0100
0010
0001
0010
,  // measure 6
0100
1000
0100
0010
0100
1000
0001
0010
,  // measure 7
0001
0000
1000
0000
0010
1000
0010
0000
0100
0000
0001
0000
0010
0000
0001
0000
,  // measure 8
1000
0001
0010
0002
0000
0013
0100
1000
,  // measure 9
0100
0010
2000
0000
3001
0010
0100
1000
,  // measure 10
1000
0000
0100
0000
0010
0000
0001
0010
0000
0000
0001
0000
0001
0000
0010
0000
,  // measure 11
0200
0000
0000
1000
0000
0000
1300
0000
0000
0000
0000
0000
0100
0000
1000
0000
,  // measure 12
0020
0000
2030
0000
3002
0000
1003
0010
,  // measure 13
0000
0000
0010
0000
1000
0000
0001
0100
0001
0100
0001
0100
0001
0000
1000
0000
,  // measure 14
0010
0000
0100
0000
0001
0000
1000
0001
0000
0000
0010
0000
0100
0000
1000
0000
,  // measure 15
2000
0000
0100
3100
0000
0000
0010
0001
,  // measure 16
0020
0000
0000
0000
0001
0000
0000
0000
0032
0000
0000
1000
0000
0000
1000
0000
,  // measure 17
1003
0000
0000
0000
0001
0000
0001
0000
1000
0100
1000
0000
0100
1000
0100
0000
,  // measure 18
0010
0001
0010
0100
1000
0010
0100
0001
,  // measure 19
1000
0000
0000
1010
0000
0000
0101
0000
0000
0000
0000
0000
0010
0000
1000
0000
,  // measure 20
0200
0000
0320
0000
0031
0010
0100
1000
,  // measure 21
0000
0000
0110
0000
0000
0000
1000
0000
0100
0010
0100
0000
0010
0001
0010
0000
,  // measure 22
0001
0000
1000
0000
0100
0000
0000
1100
0000
0000
1000
0000
0010
0000
0100
0000
,  // measure 23
0002
0000
1000
1003
0000
0000
0010
0100
,  // measure 24
0020
0000
0000
0000
1030
0000
0000
1001
0000
0000
0010
0000
0000
1010
0000
0000
,  // measure 25
2000
0000
0000
3001
0000
0000
1000
0010
,  // measure 26
0200
0000
0000
0001
0000
0000
0301
0000
0000
0000
1000
0000
0000
0001
0010
0000
,  // measure 27
0002
0000
0000
1000
0000
0000
1003
0000
0000
0000
0010
0000
0000
1000
0010
0000
,  // measure 28
0100
0000
0001
0000
0100
0000
0010
0000
0000
0000
1000
0000
0000
0001
1000
0000
,  // measure 29
0010
0000
1000
0000
0001
0000
1000
0000
0000
0000
0100
0000
0000
1000
0100
0000
,  // measure 30
0020
0000
0000
0001
0000
0000
0031
0000
1001
0000
0000
0000
0000
0000
1000
0000
,  // measure 31
0020
0000
0000
1000
0000
0000
1030
0000
1001
0000
0000
0000
0110
0000
0000
0000
,  // measure 32
2002
0000
0000
3003
,  // measure 33
1010
0000
0000
0101
0000
0000
0000
0000
,  // measure 34
1000
0000
0000
0001
0000
0000
1000
0000
0010
0000
0100
0000
0001
0000
2000
0000
,  // measure 35
0000
0100
3100
0000
0010
0000
0020
0001
,  // measure 36
0031
0000
1000
0010
1000
0010
0100
0010
,  // measure 37
0000
0000
1001
0000
0000
0011
0000
0000
1001
0000
0000
1010
0000
0000
0001
0000
,  // measure 38
0100
0000
0000
0010
0000
0000
0100
0000
0002
0000
0000
1000
0000
0000
1000
0000
,  // measure 39
0103
0000
0000
0010
0000
0000
1001
0000
0000
0000
0000
0000
0010
0000
0100
0000
,  // measure 40
0001
0000
1000
0000
0001
0000
1000
0000
0020
0000
0000
0100
0000
0000
0130
0000
,  // measure 41
1000
0000
0000
1000
0000
0010
0100
0000
0010
0100
0000
0001
0000
0000
0001
0000
,  // measure 42
1000
0000
0000
0010
0000
0000
1000
0000
0001
0000
0100
0000
1000
0000
0100
0000
,  // measure 43
0001
0100
0020
0000
2030
0000
3002
0010
,  // measure 44
0013
0000
0001
1000
0001
1000
0010
1000
,  // measure 45
0000
0000
1001
0000
0000
0101
0000
0000
1010
0000
0000
1001
0000
0000
0010
0000
,  // measure 46
0100
0000
0000
0001
0000
0000
1000
0000
0200
0000
0000
0010
0000
0000
0010
0000
,  // measure 47
0310
0000
0000
0001
0000
0000
1000
0000
0000
0000
0000
0000
0010
0000
0100
0000
,  // measure 48
0010
0000
1000
0000
0001
0000
1000
0000
2000
0000
0000
0010
0000
0000
3010
0000
,  // measure 49
1010
0000
0000
0100
0001
0010
0100
1000
,  // measure 50
2100
0000
0000
0100
0000
0000
0100
0000
3200
0000
0000
0000
0000
0000
0010
0000
,  // measure 51
0000
0000
0310
0000
0000
0000
1001
0000
0000
0000
0110
0000
0000
0110
0000
0000
,  // measure 52
1020
1000
0000
0100
0230
0000
0000
0001
,  // measure 53
0000
0000
0301
0000
0000
0000
1001
0000
0000
0000
1010
0000
0000
0011
0000
0000
,  // measure 54
1000
0000
1000
0001
0000
0011
0000
2002
,  // measure 55
0000
3003
0000
0010
0100
0010
0100
0000
,  // measure 56
0020
0000
0000
0000
1030
0001
1000
0002
,  // measure 57
0000
0000
0100
0000
0103
0000
0010
1000
,  // measure 58
0001
0000
0001
1000
0000
1001
0000
0202
,  // measure 59
0000
0303
0000
1000
0100
0010
0001
0000
,  // measure 60
0020
0000
1000
2000
0000
0000
3030
0000
,  // measure 61
1001
0000
0000
0000
,  // measure 62
0010
0000
1000
0010
0000
1000
0001
1000
0002
0000
0000
0000
0100
0000
0100
0000
,  // measure 63
0203
0000
0320
0000
2030
0000
3001
1000
,  // measure 64
0010
0000
0100
0001
0000
1000
0010
0100
0010
0000
1000
0000
0001
0000
1000
0000
,  // measure 65
0010
0100
0010
1000
0001
1000
0100
0010
,  // measure 66
0002
1000
0013
0100
1000
0100
0010
0001
,  // measure 67
1000
0000
0001
0000
0100
0010
0100
0010
0000
1000
0001
1000
0001
0000
1000
0000
,  // measure 68
0010
0000
0100
0000
0001
1000
0001
0000
0100
0000
0010
0000
0100
0000
0001
0000
,  // measure 69
1000
0010
0100
0100
0001
1000
0100
0010
,  // measure 70
0100
1000
0001
0001
1000
0100
1000
1001
;

//---------------dance-single - ----------------
#NOTES:
     dance-single:
     :
     Beginner:
     2:
     0.164,0.181,0.112,0.000,0.000:
0000
0000
0000
0000
,
0000
0000
0000
0000
,
0010
0000
0010
0000
,
0001
0000
0001
0000
,
0010
0000
0010
0000
,
1000
0000
1000
0000
,
0010
0000
0010
0000
,
0110
0000
0000
0000
,
1001
0000
0000
0000
,
1000
0000
1000
0000
,
1000
0000
0010
0000
,
0001
0000
0001
0000
,
0001
0000
0100
0000
,
0001
0000
0001
0000
,
0001
0000
0010
0000
,
1000
0000
1000
0000
,
1001
0000
0000
0000
,
0010
0000
0010
0000
,
0010
0000
1000
0000
,
0010
0000
0010
0000
,
0010
0000
0001
0000
,
0100
0000
0100
0000
,
0100
0000
0001
0000
,
1000
0000
0001
0000
,
1001
0000
0000
0010
,
0010
0000
0000
0000
,
1000
0000
1000
0000
,
0010
0000
0100
0000
,
0001
0000
0001
0000
,
0010
0000
0000
0000
,
0100
0000
0000
0000
,
1001
0000
0000
0000
,
0110
0000
0000
1000
,
1000
0000
0010
0000
,
0010
0000
0001
0001
,
0001
0000
0000
0000
,
0100
0000
0010
0000
,
0100
0000
0001
0000
,
1000
0000
0001
0000
,
0010
0000
0010
0000
,
0010
0000
1001
0000
,
0100
0000
0100
0000
,
0100
0000
1000
1000
,
1000
0000
0000
0000
,
0001
0000
1000
0000
,
0010
0000
0010
0000
,
0100
0000
0100
0000
,
0001
0000
0001
0000
,
0001
0000
1000
1000
,
1000
0000
0000
0000
,
0000
0000
0000
0000
,
0110
0000
0000
0000
,
0000
0000
0000
0000
,
1001
0000
0000
0001
,
0001
0000
0000
0000
,
0010
0000
0010
0000
,
0010
0000
0000
1000
,
1000
0000
0000
0100
,
0100
0000
0000
0000
,
1000
0000
0001
0000
,
1001
0000
0000
0000
,
0010
0000
0010
0000
,
1000
0000
1000
0000
,
0010
0000
0010
0000
,
0001
0000
0001
0000
,
0100
0000
0100
0000
,
0001
0000
0001
0000
,
0100
0000
0100
0000
,
1001
0000
0000
0000
,
0110
0000
0000
0000
,
1001
0000
0000
0000
;

//---------------dance-single - ----------------
#NOTES:
     dance-single:
     :
     Easy:
     3:
     0.242,0.270,0.095,0.034,0.000:
0000
0000
0000
0000
,
0000
0000
0000
0000
,
0000
0000
0000
0000
,
1000
0010
1000
0001
,
0100
0100
0010
1000
,
0001
0100
0001
1000
,
0010
0100
0001
1000
,
0001
0000
0100
0010
0000
0000
1000
0000
,
0001
0000
0100
0010
0000
0000
1000
0000
,
0001
0001
0001
0001
,
1000
0000
0000
1100
0000
0000
0000
0000
,
0001
0000
0100
0000
0001
0000
0000
0001
,
0000
0000
0110
0000
,
1000
0010
1000
0010
,
0100
0000
0100
0000
,
0001
0000
0001
0000
,
1000
0000
1001
0000
,
0010
0100
0010
1000
,
0001
0000
0110
0000
,
1000
0000
0110
0000
,
0001
0000
1000
0000
,
0010
0100
0001
1000
,
0001
0000
0100
0000
,
0001
1000
0010
0000
,
1000
0010
0100
0001
,
2000
0000
0000
0000
3000
0000
0000
0010
,
0000
0000
0000
0010
0000
0000
0000
0000
,
0100
0001
0010
0100
,
1000
0010
0010
0000
,
0100
0000
0101
0000
,
0010
0000
1010
0000
,
0100
0000
0000
0000
,
0001
0000
0001
0000
,
1000
0000
0001
1000
,
0010
0000
0200
0000
0000
0300
0000
0000
,
0001
0000
1000
0000
0001
0000
0000
0100
,
0000
0100
0000
0010
,
0010
0000
1000
0000
,
0001
0000
0000
0001
0000
0000
1000
0000
,
0001
0100
0010
0000
,
1001
0000
0110
0001
,
1000
0000
0000
0000
0010
0000
0000
0100
,
0000
0100
0000
0000
,
0010
0000
1000
0000
0001
0000
0000
1000
,
0000
1000
0000
0010
,
0010
0000
0100
0001
,
1000
0000
0110
0000
,
0001
0010
0100
1000
,
0001
0000
0100
0000
,
2000
0000
0000
0000
,
0000
0000
0000
0000
,
3001
0000
0100
0000
,
0010
0000
1000
0000
,
0001
0000
0100
0000
,
0010
0000
1000
0010
,
0100
0000
0100
0000
,
0001
0000
0000
0001
0000
0000
0000
0000
,
1000
0010
0100
0001
,
0000
0000
1000
1000
,
0010
0000
0000
0200
0000
0000
0000
0000
,
0000
0000
0000
0000
0000
0000
0000
0300
,
0001
0000
0001
0000
,
1000
0100
0010
0001
,
1000
1000
0010
0010
,
0100
0001
0100
0000
,
0010
1000
0001
1000
,
0010
0100
0001
0000
,
1000
0100
0010
0001
,
1000
0000
0001
0100
0000
0000
0010
0000
,
1000
0000
0001
1000
0000
0000
1001
0000
;
