#TITLE:Time Goes By;
#SUBTITLE:;
#ARTIST:Nitro Fun;
#TITLETRANSLIT:;
#SUBTITLETRANSLIT:;
#ARTISTTRANSLIT:;
#GENRE:Complextro;
#CREDIT:Feraligatr x Loodee;
#BANNER:TGB-bn.png;
#BACKGROUND:TGB-bg-wide.png;
#LYRICSPATH:;
#CDTITLE:collab.png;
#MUSIC:time-goes-by.ogg;
#OFFSET:-0.154;
#SAMPLESTART:105.163;
#SAMPLELENGTH:15.000;
#SELECTABLE:YES;
#DISPLAYBPM:128.000;
#BPMS:0.000=128.000;
#STOPS:;
#BGCHANGES:;
#KEYSOUNDS:;

//---------------dance-single - Feraligatr x Loodee----------------
#NOTES:
     dance-single:
     Feraligatr x Loodee:
     Challenge:
     11:
     0.877,1.000,0.182,0.606,1.000:
0000
0000
0000
0000
,
0000
0000
0000
0000
,
0000
0000
0000
0000
,
0000
0000
0000
0000
,
0000
0000
0000
0000
,
0000
0000
0000
0000
,
0000
0000
0000
0000
,
0000
0000
0000
0000
0000
0001
0010
0100
,
1000
0001
0100
0010
1000
0100
0000
0000
1000
0001
1000
0100
0000
0000
1000
0001
,
0100
0001
1000
0010
1000
0100
0000
0000
0010
0001
0010
0100
0000
0000
0010
0001
,
1000
0001
0100
0010
1000
0100
0000
0000
0010
0001
1000
0100
0000
0000
1000
0001
,
0100
0001
1000
0010
1000
0100
0000
0000
1000
0001
1000
0100
0000
0000
0010
0001
,
0100
0001
1000
0100
1000
0010
0100
0001
1000
0100
1000
0010
0100
0001
1000
0100
,
0010
0001
1000
0010
1000
0100
0010
0001
1000
0010
1000
0100
0010
0001
1000
0010
,
0100
0001
1000
0001
0010
0100
1000
0001
1000
0010
0100
0010
1000
0001
1000
0100
0010
0001
1000
0001
0100
0010
0100
0001
,
1000
0100
1000
0001
0100
0010
0100
0001
0100
0010
1000
0200
0010
0000
0300
0000
,
1004
0000
0000
0003
0021
0000
0000
0000
0130
0000
0100
0000
0100
0000
0100
0000
,
0120
0000
0000
0000
0000
0000
0000
0000
0031
0000
1000
0100
1000
0000
0001
0000
0100
0000
0010
0000
1000
0000
0100
0000
0001
0000
0100
0000
0010
0000
0001
0000
,
2000
0000
0000
0000
0000
0000
3100
0000
1000
0001
0000
1000
0010
0000
0000
0010
0000
0000
0010
0000
0000
M001
0000
0000
,
0120
0000
0000
0000
0000
0000
0000
0000
1030
0000
0001
0100
0001
0000
1000
0000
0100
0000
1000
0000
0010
0000
1000
0000
010M
0000
010M
0000
010M
0000
010M
0000
,
0002
0000
0000
0000
0000
0000
0003
0000
2001
0000
0000
0000
3100
00M0
0100
0000
0002
0000
0000
0000
0013
0000
0000
0000
0010
0000
0000
0000
0010
0000
0000
0000
,
0210
0000
0000
0000
0000
0000
0000
0000
1300
0000
0001
0100
0020
0000
0000
0000
1030
0000
0010
0000
1000
0000
0100
0000
0001
0000
0100
0000
0010
0000
0001
0000
,
2000
0000
0000
0000
0000
0000
3001
0000
1000
0010
0010
0010
1000
0010
0010
0010
,
0200
0000
0000
0300
0200
0000
0000
0300
0200
0000
0000
0300
0201
0000
0000
0300
,
0001
0000
0000
0000
0000
0000
0000
0000
1000
0000
0000
0000
0000
0000
0000
0000
0001
0000
0000
0000
0000
0000
0000
0000
0010
0000
0000
0000
0000
0000
0000
0000
0100
0000
0000
0000
0000
0000
0000
0000
1000
0000
0000
0000
0000
0000
0000
0000
0002
0000
0000
0000
0000
0000
0000
0000
0000
0000
0000
0000
0000
0000
0000
0000
0000
0000
0000
0000
0000
0000
0000
0000
0000
0000
0000
0000
0000
0000
0000
0000
0000
0000
0000
0000
0000
0000
0000
0000
0000
0000
0000
0000
0000
0000
0000
0000
1003
0000
0000
0000
0000
0000
0000
0000
0000
0000
0000
0000
0010
0000
0000
0000
0000
0000
0000
0000
0000
0000
0000
0000
0100
0000
0000
0000
0000
0000
0000
0000
0000
0000
0000
0000
0001
0000
0000
0000
0000
0000
0000
0000
0000
0000
0000
0000
0020
0000
0000
0000
0000
0000
0000
0000
0000
0000
0000
0000
0000
0000
0000
0000
0000
0000
0000
0000
0000
0000
0000
0000
0130
0000
0000
0000
0000
0000
M000
0000
0000
0000
0000
0000
0100
0000
0000
0000
0000
0000
0000
0000
0000
0000
0000
0000
,
0002
0000
0000
0000
0000
0000
0000
0000
1003
0000
0001
0100
0002
0000
0000
0000
1003
0000
0010
0000
1000
0000
0100
0000
0001
0000
0100
0000
0010
0000
0001
0000
,
4000
0000
0000
0000
0000
0000
3000
0000
1002
0000
0000
0000
0103
00M0
0100
0000
1000
0000
0010
0000
0100
0000
0001
0000
0020
0000
0000
0000
0000
0000
0030
0000
,
0210
0000
0000
0000
0000
0000
0000
0000
1300
0000
0001
0100
0001
0000
1000
0000
0100
0000
1000
0000
0010
0000
1000
0000
010M
0000
010M
0000
010M
0000
010M
0000
,
0004
0000
0000
0000
0000
0000
0003
0000
2001
0000
0000
0000
3010
0M00
0010
0000
0001
0000
0100
0000
0010
0000
1000
0000
0200
0000
0000
0000
0000
0000
0300
0000
,
0120
0000
0000
0000
0000
0000
0000
0000
0031
0000
1000
0100
0020
0000
0000
0000
0031
0000
0010
0000
0001
0000
0100
0000
1000
0000
0100
0000
0010
0000
1000
0000
,
0002
0000
0000
0000
0000
0000
1003
0000
0001
0100
0100
0100
0001
0100
0100
0100
,
0010
1000
0001
0100
0010
1000
0001
0100
0010
1000
0001
0100
0010
1000
0010
1000
,
0200
0000
1300
0002
0000
0000
0103
0001
,
2000
3020
2030
3200
0000
0320
0000
0130
,
2000
0000
3001
0200
0000
0000
0310
1000
,
0002
0203
0302
0023
0000
2030
3020
0130
,
2000
0000
3001
0200
0000
0000
0310
1000
,
0002
0023
0032
0203
0000
0320
0000
1030
,
0002
0000
0013
0200
0000
2300
0000
0000
,
3002
0000
0000
0000
0000
0000
0000
0000
0103
0000
0010
0000
1010
0000
1000
0001
,
0010
0000
0100
1000
0001
0000
0100
0000
0000
0010
1000
0001
0010
0000
0100
0000
,
1000
0000
0100
0010
0001
0000
0200
0000
0000
0301
1000
0001
0010
0000
0100
0000
,
1000
0000
0001
1000
0100
0000
0010
0000
0000
0100
1000
0001
0100
0000
0010
0000
,
1000
0000
0010
0100
0001
0000
0020
0000
0000
0130
1000
0010
0100
0000
0001
0000
,
1001
0000
1000
0100
0010
0000
0001
0000
0000
1000
0001
1000
0010
0000
0100
0000
,
0001
0000
0100
0010
1000
0000
0200
0000
0000
0310
0001
1000
0010
0000
0100
0000
,
0001
0000
1000
0001
0010
0000
0100
0000
0000
0010
0001
1000
0010
0000
1000
0000
,
0200
0000
0000
0000
0000
0000
0000
0000
0310
0000
0000
0000
0200
0000
0000
0000
1300
0000
0000
0000
0010
0000
0000
0000
0100
0000
0000
0000
0001
1000
0001
1000
,
0100
0000
0010
0000
0001
0000
1000
0000
0001
0000
0100
0000
0010
0000
1000
0000
0001
0000
1000
0000
0100
0000
0010
0000
0100
0000
1000
0000
0001
0010
0001
0000
,
1000
0010
1000
0001
0010
0100
1000
0001
0010
0001
1000
0010
0100
0001
1000
0100
,
1000
0000
0001
0000
0010
0000
0001
0000
1000
0000
0010
0000
0100
0000
0010
0000
1000
0000
0001
0000
1000
0000
0100
0000
0010
0000
0100
0000
1000
0001
1000
0000
,
0100
0010
0001
1000
0010
1000
0001
0100
0001
1000
0100
0010
0001
1000
0010
0100
,
0001
0010
0001
1000
0010
0100
0001
1000
0100
1000
0010
0100
0001
0100
0010
1000
,
0001
0010
0001
0100
0010
1000
0001
0010
0100
1000
0010
0100
0001
0010
0001
0100
,
0010
1000
0001
1000
0100
0010
0001
1000
0001
0100
0010
0100
0001
1000
0001
0010
0100
0010
0001
1000
0010
1000
0001
0100
,
0010
1000
0001
1000
0100
0010
0100
1000
0100
0010
0001
0200
0010
0000
0300
0000
,
1004
0000
0000
0003
0021
0000
0000
0000
0031
1000
0010
0000
0010
0000
0010
0000
,
0120
0000
0000
0000
0000
0000
0000
0000
1030
0000
0001
0100
0001
0000
1000
0000
0100
0000
0010
0000
0001
0000
0100
0000
1000
0000
0100
0000
0010
0000
1000
0000
,
0002
0000
0000
0000
0000
0000
0000
0000
0000
0000
0000
0000
0103
0000
0000
0000
0010
0000
1000
0000
0000
0000
0001
0000
1000
0000
0000
0100
0000
0000
0010
0000
0000
0000
0000
0000
0010
0000
0000
0000
0000
0000
1M00
0000
0000
0000
0000
0000
,
0120
0000
0000
0000
0000
0000
0000
0000
0031
0000
1000
0100
1000
0000
0001
0000
0010
0000
0001
0000
0100
0000
0001
0000
M010
0000
M010
0000
M010
0000
M010
0000
,
2000
0000
0000
0000
0000
0000
3000
0000
1002
0000
0000
0000
0103
00M0
0100
0000
1000
0000
0001
0000
0100
0000
0000
0000
0100
0000
0000
0000
0100
0000
0000
0000
,
0120
0000
0000
0000
0000
0000
0000
0000
0130
0000
0010
1000
0002
0000
0000
0000
1003
0000
0100
0000
1000
0000
0010
0000
0001
0000
0010
0000
0100
0000
0001
0000
,
2000
0000
0000
0000
0000
0000
3001
0000
1000
0100
0100
0100
1000
0100
0100
0100
,
0020
0000
0000
0030
0020
0000
0000
0030
0020
0000
0000
0030
0021
0000
0000
0030
,
4001
0000
0000
0000
0000
0000
3000
0000
1020
0000
0000
0000
0000
0000
0000
0000
1030
0000
0001
0000
0010
0000
0100
0000
1000
0000
0001
0100
0001
0000
1000
0000
,
0200
0000
0000
0000
0000
0000
0000
0000
0310
0000
0100
1000
0002
0000
0000
0000
1003
0000
0010
0000
1000
0000
0100
0000
0001
0000
0100
0000
0010
0000
0001
0000
,
4000
0000
0000
0000
0000
0000
0000
0000
0000
3000
0000
0000
0010
0000
0000
0000
1000
0000
0001
0000
0000
0000
1000
0000
0100
0000
0000
0000
0010
0000
0100
0000
0000
0000
1000
0000
0020
0000
0000
0000
0000
0000
0000
0000
0000
0030
0000
0000
,
0210
0000
0000
0000
0000
0000
0000
0000
0301
0000
1000
0100
1000
0000
0001
0000
0100
0000
0001
0000
0010
0000
0001
0000
M100
0000
M100
0000
M100
0000
M100
0000
,
4000
0000
0000
0000
0000
0000
3000
0000
1002
0000
0000
0000
0103
00M0
0100
0000
1000
0000
0010
0000
0100
0000
0001
0000
0020
0000
0000
0000
0000
0000
0030
0000
,
0210
0000
0000
0000
0000
0000
0000
0000
0310
0000
0100
1000
0002
0000
0000
0000
1003
0000
0010
0000
1000
0000
0100
0000
0001
0000
0100
0000
0010
0000
0001
0000
,
2000
0000
0000
0000
0000
0000
3001
0000
1000
0100
0100
0100
1000
0100
0100
0100
,
0010
0001
1000
0100
0010
0001
1000
0100
0010
0001
1000
0100
0010
0001
1000
0010
,
0200
0000
0000
0000
,
0300
0000
0000
0000
;

//---------------dance-single - Ferligatr x ----------------
#NOTES:
     dance-single:
     Ferligatr x:
     Edit:
     11:
     0.000,0.000,0.000,0.000,0.000:
;

//---------------dance-single - Feraligatr SH----------------
#NOTES:
     dance-single:
     Feraligatr SH:
     Hard:
     10:
     0.636,0.852,0.073,0.715,0.507:
0000
0000
0000
0000
,
0000
0000
0000
0000
,
0000
0000
0000
0000
,
0000
0000
0000
0000
,
0000
0000
0000
0000
,
0000
0000
0000
0000
,
0000
0000
0000
0000
,
0000
0000
0000
0000
,
1000
0100
1000
0100
1000
0100
0000
0000
0010
0001
0010
0001
0000
0000
1000
0010
,
0100
0001
0100
0001
0100
0001
0000
0000
1000
0010
1000
0010
0000
0000
0100
0001
,
1000
0100
1000
0100
1000
0100
0000
0000
0010
0001
0010
0001
0000
0000
1000
0010
,
0100
0001
0100
0001
0100
0001
0000
0000
1000
0010
1000
0010
0000
0000
0100
0001
,
1000
0100
1000
0100
1000
0001
0000
0000
1000
0010
1000
0001
0000
0000
1000
0100
,
0010
0001
0010
0001
0010
0100
0000
0000
1000
0001
1000
0010
0000
0000
1000
0010
,
0400
0004
0000
0000
0000
0000
0000
0000
0000
0000
0000
0000
0000
0000
0000
0300
,
2003
0000
0000
3100
,
0120
0000
0000
0030
1002
0000
0000
0000
0103
0000
0100
0000
0100
0000
0100
0000
,
0020
0000
0000
0000
0430
0000
0310
1000
0001
0010
0100
1000
0001
0100
0010
1000
,
0002
0000
0000
0000
0043
0000
0000
0030
0100
0000
0100
0000
0100
0000
0001
0000
,
0200
0000
0000
0000
0340
0000
0031
1000
0001
0010
0100
1000
0040
0000
0000
0030
,
0200
0000
0000
0000
0302
0000
1003
0100
0020
0000
0031
0000
0001
0000
0001
0000
,
2000
0000
0000
0000
3004
0000
0203
0000
0301
0100
0010
1000
0001
0010
0100
1000
,
0002
0000
0000
0000
0000
0000
0013
0000
0001
1000
0100
1000
0000
0001
0100
0001
,
2000
0000
0000
3000
2000
0000
0000
3000
2000
0000
0000
3000
2000
0000
0000
3000
,
0400
0000
0000
0300
0120
0000
0000
0000
0031
1000
0001
0100
0020
0000
1030
0010
,
0200
0000
0000
0000
0304
0000
2003
0000
3001
0010
0100
1000
0001
0100
0010
1000
,
0002
0000
0000
0000
2003
0000
3010
1000
0001
0010
0100
1000
0002
0000
0000
0000
,
0203
0000
0000
0000
0340
0000
1030
0001
1000
0100
0010
0001
0400
0000
0000
0300
,
0020
0000
0000
0000
2030
0000
3001
1000
0100
1000
0001
0100
0020
0000
0000
0000
,
0230
0000
0000
0000
0304
0000
2003
0000
3001
0100
0010
1000
0001
0010
0100
1000
,
0002
0000
0000
0000
0000
0000
0013
0000
0001
1000
0100
1000
0000
0001
0100
0001
,
1000
0000
0010
0000
1000
0000
0010
0000
1000
0000
0010
0000
0100
0001
0100
0001
,
2000
0000
0000
3200
0000
0000
0300
0010
,
0002
2003
3002
0203
0000
0320
0000
0000
,
2030
0000
0000
3200
0000
0000
0300
1000
,
0002
0203
0302
0023
0000
2030
3020
0000
,
0032
0000
0000
2003
0000
0000
3000
0010
,
0200
0302
0203
0320
0000
2030
0000
0000
,
3002
0000
0000
0023
0000
0230
0000
0000
,
2300
0000
0000
0000
0000
0000
0000
0000
0000
0000
3001
0000
1001
0000
1000
0010
,
0100
0001
1000
0100
0000
0100
0010
0001
,
1000
0010
1000
0100
0000
0100
0010
0001
,
1000
0010
0100
0001
0000
0001
1000
0100
,
0010
0001
0010
0100
0000
0100
1000
0001
,
0101
0100
0010
1000
0000
1000
0001
0010
,
0100
1000
0100
0010
0000
0010
0001
1000
,
0010
0100
0001
1000
0000
1000
0001
0010
,
0200
0000
1300
0200
1300
0010
0100
0004
,
2003
3010
0000
0200
0301
0000
2000
3100
,
0000
0000
0020
0031
0000
2000
3001
0000
,
0200
0310
0000
2000
3001
0000
0020
0130
,
0000
0000
2000
3001
0000
2000
3010
0000
,
0100
0001
0100
0001
0100
0001
1000
0010
1000
0010
1000
0010
1000
0001
1000
0001
,
1000
0001
1000
0001
0010
0001
0010
0001
0010
0001
1000
0100
1000
0100
1000
0100
,
4000
0004
0000
0000
0000
0000
0000
0000
0000
0000
0000
0000
0000
0000
0000
3000
,
0023
0000
0000
0130
,
1002
0000
0000
0003
0201
0000
0000
0000
0310
0000
0010
0000
0010
0000
0010
0000
,
2000
0000
0000
0000
3400
0000
1300
0001
1000
0100
0010
0001
1000
0010
0100
0001
,
2000
0000
0000
0000
3040
0000
0000
0030
0100
0001
0100
0000
0100
0000
1000
0000
,
0200
0000
0000
0000
0340
0000
1030
0001
1000
0010
0100
0001
0040
0000
0000
0030
,
0200
0000
0000
0000
2300
0000
3001
1000
0010
0100
0001
0000
0001
0000
0001
0000
,
2000
0000
0000
0000
3004
0000
0203
0000
0301
0100
0010
1000
0001
0010
0100
1000
,
0002
0000
0000
0000
0000
0000
0103
0000
0001
1000
0010
1000
0000
0001
0010
0001
,
2000
0000
0000
3000
2000
0000
0000
3000
2000
0000
0000
3000
2000
0000
0000
3000
,
1200
0000
0000
0300
0120
0000
0000
0000
0031
1000
0001
0100
0040
0000
0000
0030
,
0200
0000
0000
0000
0304
0000
2003
0000
3001
0010
0100
1000
0001
0100
0010
1000
,
0002
0000
0000
0000
0000
0000
0043
0000
0000
0000
0000
0000
0130
0000
1000
0001
0000
1000
0020
0000
0000
0000
0000
0000
,
0230
0000
0000
0000
0340
0000
1030
0001
1000
0100
0010
0001
0400
0000
0000
0300
,
0020
0000
0000
0000
2030
0000
3010
1000
0001
0010
0001
1000
0200
0000
0000
0000
,
0320
0000
0000
0000
0034
0000
2003
0000
3001
0100
0010
1000
0001
0010
0100
1000
,
0002
0000
0000
0000
0000
0000
0013
0000
0001
1000
0010
1000
0000
0001
0010
0001
,
1000
0100
1000
0100
1000
0010
1000
0010
,
2002
0000
0000
0000
,
3003
0000
0000
0000
;

//---------------dance-single - Loodee----------------
#NOTES:
     dance-single:
     Loodee:
     Medium:
     7:
     0.480,0.506,0.044,0.533,0.128:
0000
0000
0000
0000
,
0000
0000
0000
0000
,
0000
0000
0000
0000
,
0000
0000
0000
0000
,
0000
0000
0000
0000
,
0000
0000
0000
0000
,
0000
0000
0000
0000
,
0000
0000
0000
0000
,
0001
1000
0001
1000
0001
0000
0000
0000
0100
0000
0010
0000
1000
0000
0000
0000
,
0001
0010
0001
0010
0001
0000
0000
0000
0100
0000
0010
0000
1000
0000
0000
0000
,
0001
0100
0001
0100
0001
0000
0000
0000
1000
0000
0100
0000
0010
0000
0000
0000
,
0100
1000
0100
1000
0100
0000
0000
0000
0010
0000
0001
0000
0010
0000
0000
0000
,
0001
1000
0010
0100
0001
0010
0001
1000
,
0010
0100
0001
0010
0100
1000
0010
0100
,
0002
0000
0000
0000
,
0043
0000
0000
0000
0030
0100
1100
0000
,
2000
0000
0000
3000
1002
0000
0000
0000
0103
0000
0100
0000
0100
0000
0100
0000
,
0020
0000
0000
0000
1030
0000
0001
1000
0001
0000
0010
0000
1000
0000
0010
0000
,
0200
0000
0000
0000
0310
0001
0010
0000
0001
0000
0001
0000
0001
0000
1000
0000
,
0020
0000
0000
0000
0130
0000
0001
0100
0001
0000
1000
0000
0400
0000
0000
0000
,
0320
0000
0000
0000
0031
0000
1000
0010
1000
0000
0001
0000
0001
0000
0001
0000
,
0020
0000
0000
0000
0031
1000
0001
0000
0100
0000
0010
0000
0001
0000
0010
0000
,
2000
0000
0000
3100
0100
0010
0001
0010
,
0200
1000
1000
1300
,
0001
0000
0000
0000
0201
0000
0000
0000
0310
1000
0010
0000
1000
0000
0001
0000
,
0020
0000
0000
0000
0130
1000
0100
0000
1000
0000
0010
0000
0001
0000
0010
0000
,
0200
0000
0000
0000
0301
0000
0001
0000
1000
0100
1000
0000
0200
0000
0000
0000
,
0320
0000
0000
0000
0031
1000
0001
0000
0100
0000
0010
0000
4000
0000
0000
0000
,
3200
0000
0000
0000
0310
0000
0001
0010
0001
0000
1000
0000
0020
0000
0000
0000
,
0230
0000
0000
0000
0301
1000
0001
0000
0010
0000
0100
0000
0001
0000
0100
0000
,
2000
0000
0000
3010
0010
0000
0100
0000
,
0001
0000
1000
0000
0001
0000
1000
0000
0001
0000
0010
0000
0100
1000
0100
1000
,
0002
0000
0000
0203
0000
0000
0000
0000
,
0310
1000
0001
0020
0000
0230
0000
0000
,
0320
0000
0000
0032
0000
0000
0000
0000
,
1003
0010
0100
0020
0000
0031
0020
0000
,
2030
0000
0000
3002
0000
0000
0000
0000
,
0013
0100
1000
0200
0000
2300
0000
0000
,
3002
0000
0000
0203
0000
0320
0000
0000
,
2030
0000
0000
0000
0000
0000
0000
0000
0000
0000
0000
0000
3001
0000
0001
0010
,
0100
0000
0010
0001
0000
1000
0001
0100
,
0010
0100
0001
0010
0000
0100
0010
0000
,
0100
0000
1000
0001
0000
1000
0010
0100
,
0001
1000
0100
0020
0000
1030
0010
0000
,
0100
0000
1000
0001
0000
0100
0010
1000
,
0001
0010
0100
0010
0000
0001
1000
0000
,
0010
0000
0100
0010
0000
0100
0001
0000
,
2000
0000
3000
2000
0000
3001
0100
0010
,
2000
0000
3000
0002
0000
0003
0020
0000
,
0030
0000
0002
0000
0003
2000
0000
3000
,
0020
0000
0030
0200
0000
0300
0002
0000
,
0003
0000
2000
0000
3000
0200
0000
0300
,
0010
0001
1000
0001
0100
0010
1000
0001
,
0100
0010
0100
0001
1000
0001
0010
0100
,
2000
0000
0000
0000
,
3001
0000
0100
0000
0001
1000
1001
0000
,
0002
0000
0000
0003
0021
0000
0000
0000
0130
1000
0100
0000
0010
0000
0010
0000
,
0002
0000
0000
0000
1003
0010
0100
0000
0004
0000
0000
0000
0013
0000
0100
0000
,
2000
0000
0000
0000
3001
0100
0001
0000
1000
0000
1000
0000
1000
0000
0100
0000
,
0020
0000
0000
0000
0130
0010
0001
0000
2000
0000
0000
0000
3040
0000
0000
0000
,
0230
0000
0000
0000
0301
0000
1000
0001
1000
0000
0100
0000
0100
0000
0100
0000
,
0020
0000
0000
0000
0130
1000
0001
0000
0400
0000
0000
0000
0310
0000
1000
0000
,
0002
0000
0000
0013
0010
0100
0010
0100
,
2000
3002
2003
3001
,
0200
0000
0000
0300
0120
0000
0000
0000
1030
0001
1000
0001
0010
0000
0000
0000
,
0200
0000
0000
0000
0310
0001
0010
0000
0100
0000
1000
0000
0001
0000
1000
0000
,
0020
0000
0130
0001
1000
0100
0020
0000
,
0230
0000
0000
0000
1300
0001
1000
0001
0200
0000
0000
0000
0340
0000
0000
0000
,
0230
0000
0000
0000
0301
0000
1000
0001
0010
0000
0100
0000
0020
0000
0000
0000
,
0032
0000
0000
0000
1003
0010
1000
0000
0001
0000
0010
0000
0100
0000
0010
0000
,
0002
0000
0000
1003
1000
0000
0010
0000
,
0100
0001
0100
0001
1000
0001
1000
0001
,
0020
0000
0000
0000
,
0030
0000
0000
0000
;

//---------------dance-single - Loodee----------------
#NOTES:
     dance-single:
     Loodee:
     Easy:
     5:
     0.347,0.394,0.022,0.445,0.000:
0000
0000
0000
0000
,
0000
0000
0000
0000
,
0000
0000
0000
0000
,
0000
0000
0000
0000
,
0000
0000
0000
0000
,
0000
0000
0000
0000
,
0000
0000
0000
0000
,
0000
0000
0000
0000
,
0001
1000
0001
0100
,
0010
1000
0010
1000
,
0001
0010
0001
1000
,
0100
0010
0100
1000
,
0002
0000
0000
0000
,
2003
0000
0000
0000
,
0200
0000
0000
0000
0000
0000
0000
3300
,
0010
0000
0001
1001
,
1000
0000
0020
0000
0130
0001
0100
0001
,
2000
0000
3100
0000
0010
0100
1000
0000
,
0020
0000
0130
0000
0001
1000
0001
0010
,
0200
0000
0310
0000
0001
1000
0010
0000
,
0200
0000
0301
0000
1000
0100
1000
0100
,
0020
0000
0130
0000
1000
0001
1000
0000
,
0020
0000
0130
0100
,
0002
2003
3002
1003
,
0100
0000
0020
0000
0130
1000
0001
0001
,
2000
0000
3010
0000
0100
0001
0010
0000
,
0200
0000
1300
0000
0001
0100
0020
0000
,
2030
0000
3100
0000
0010
0100
1000
0000
,
0002
0000
0103
0000
0010
1000
0200
0000
,
0320
0000
0130
0000
1000
0001
0100
0000
,
0020
0000
0000
0000
1030
1000
0001
0000
,
0010
0100
0010
0100
0010
0100
0010
0000
,
0002
0000
0000
2003
0000
0000
3000
0000
,
0010
1000
0001
1000
0000
0100
0000
0000
,
2000
0000
0000
3020
0000
0000
0030
0000
,
1000
0001
0010
0001
0000
1000
0001
0000
,
0200
0000
0000
0320
0000
0000
0030
0000
,
1000
0010
1000
0001
0000
0010
0000
0000
,
0002
0000
0000
0103
0000
0000
0000
0000
,
0020
0000
0030
1000
,
1100
0000
0100
0010
0000
0100
1000
0000
,
0001
0000
1000
0001
0000
1000
0001
0000
,
0010
0000
0100
1000
0000
0001
1000
0000
,
0010
0000
0100
0010
0000
0100
0001
0000
,
1000
0000
0100
0010
0000
0100
0010
0000
,
0001
0000
1000
0010
0000
1000
0010
0000
,
0100
0000
0001
1000
0000
0001
0010
0000
,
0200
0000
0300
0200
0000
0300
0000
0000
,
2000
0000
0000
0000
,
0000
0000
0000
0000
,
0000
0000
0000
0000
,
3000
0000
0001
0000
0000
0001
0000
0000
,
0002
0000
0000
0000
,
0023
0000
0000
0000
,
0230
2300
3002
0203
,
0310
0010
0010
1001
,
0002
0000
0023
0000
0130
1000
0100
1000
,
0002
0000
0103
0000
0010
1000
0100
0010
,
0200
0000
1300
0000
0001
0100
0010
1000
,
0200
0000
0310
0000
0100
1000
0002
0000
,
0203
0000
0310
0010
1000
0001
0010
0010
,
0200
0000
1300
0000
0001
0100
0010
1000
,
0002
0000
1003
1000
,
0200
0320
0230
0310
,
0001
0000
2000
0000
3010
0100
0001
0100
,
0020
0000
1030
0000
0001
1000
0100
0010
,
0200
0000
0310
0000
0001
1000
0020
0000
,
2030
0000
3001
0000
0010
0100
2000
0000
,
3020
0000
0130
0000
0001
1000
0002
0000
,
0023
0000
0130
0000
0010
0001
1000
0001
,
0200
0000
0000
0000
0310
0010
1000
0000
,
0001
1000
0001
1000
0001
0010
0001
0010
,
0100
0000
0000
0000
;

//---------------dance-single - Loodee----------------
#NOTES:
     dance-single:
     Loodee:
     Beginner:
     2:
     0.107,0.131,0.000,0.080,0.000:
0000
0000
0000
0000
,
0000
0000
0000
0000
,
0000
0000
0000
0000
,
0000
0000
0000
0000
,
0000
0000
0000
0000
,
0000
0000
0000
0000
,
0000
0000
0000
0000
,
0000
0000
0000
0000
,
0001
0000
0000
0000
,
0001
0000
0000
0000
,
1000
0000
0000
0000
,
1000
0000
0000
0000
,
0100
0000
0000
0000
,
0010
0000
0000
0000
,
0001
0000
0000
0000
,
2000
0000
3000
0000
,
0001
0000
0000
0000
,
0010
0000
0001
0001
,
0001
0000
0000
0000
,
1000
0000
0010
0000
,
1000
0000
0000
0000
,
0001
0000
0010
0010
,
0010
0000
0000
0000
,
0100
0000
0100
0000
,
1000
0001
0000
0000
,
0001
0000
1000
1000
,
1000
0000
0000
0000
,
0100
0000
0010
0000
,
0100
0000
0000
0000
,
1000
0000
0001
0001
,
0001
0000
0000
0000
,
0100
0100
0100
0100
,
0200
0000
0000
0000
,
0300
0000
0000
0000
,
0020
0000
0000
0000
,
0030
0000
0000
0000
,
2000
0000
0000
0000
,
3000
0000
0000
0000
,
0002
0000
0000
0000
,
0003
0000
0000
0000
,
0010
0000
0000
0100
,
0100
0000
0000
1000
,
1000
0000
0000
0001
,
0001
0000
0000
0100
,
0100
0000
0000
0010
,
0010
0000
0000
1000
,
1000
0000
0000
0000
,
1000
0000
0000
0000
,
0002
0000
0000
0000
,
0000
0000
0000
0000
,
0000
0000
0000
0000
,
0003
0000
0000
0000
,
2000
0000
0000
0000
,
0000
0000
0000
0000
,
3002
0000
0000
0000
,
0103
0000
0000
0010
,
1000
0001
0000
0000
,
1000
0000
0100
0100
,
0100
0000
0000
0000
,
1000
0000
0001
0001
,
0001
0000
0000
0000
,
0100
0000
0001
0001
,
0001
0000
0000
0000
,
2000
0000
0000
0000
,
3100
0010
0000
0000
,
0100
0000
1000
1000
,
1000
0000
0000
0000
,
0001
0000
1000
1000
,
1000
0000
0000
0000
,
0010
0000
0100
0000
,
0020
0000
0000
0000
,
2030
0000
0000
0000
,
3001
0000
0000
0000
;
