#VERSION:0.82;
#TITLE:Sunset Drive;
#SUBTITLE:(Summer FestaMix);
#ARTIST:5l1n65h07 remixed by dj VERTICAI;
#TITLETRANSLIT:;
#SUBTITLETRANSLIT:;
#ARTISTTRANSLIT:;
#GENRE:;
#ORIGIN:;
#CREDIT:;
#BANNER:Sunset Drive (Summer FestaMix)-bn.png;
#BACKGROUND:Sunset Drive (Summer FestaMix)-bg.png;
#PREVIEWVID:;
#JACKET:Sunset Drive (Summer FestaMix)-jacket.png;
#CDIMAGE:;
#DISCIMAGE:;
#LYRICSPATH:;
#CDTITLE:cdtitle.png;
#MUSIC:Sunset Drive (Summer FestaMix).ogg;
#OFFSET:-0.020000;
#SAMPLESTART:25.430008;
#SAMPLELENGTH:15.000000;
#SELECTABLE:YES;
#BPMS:0.000=170.000;
#STOPS:;
#DELAYS:;
#WARPS:;
#TIMESIGNATURES:0.000=4=4;
#TICKCOUNTS:0.000=4;
#COMBOS:0.000=1;
#SPEEDS:0.000=1.000=0.000=0;
#SCROLLS:0.000=1.000;
#FAKES:;
#LABELS:0.000=Song Start;
#BGCHANGES:;
#KEYSOUNDS:;
#ATTACKS:
;

//---------------dance-single - ----------------
#NOTEDATA:;
#CHARTNAME:;
#STEPSTYPE:dance-single;
#DESCRIPTION:;
#CHARTSTYLE:;
#DIFFICULTY:Challenge;
#METER:10;
#RADARVALUES:0.801939,0.851832,0.349251,0.306660,0.506840,582.000000,41.000000,36.000000,0.000000,0.000000,0.000000,0.000000,0.000000,0.801939,0.851832,0.349251,0.306660,0.506840,582.000000,41.000000,36.000000,0.000000,0.000000,0.000000,0.000000,0.000000;
#CREDIT:;
#NOTES:
0000
0000
0000
0000
,
0000
0000
0000
0000
,
0000
0000
0000
0000
,
0000
0000
0000
0000
,
0000
0000
0000
0000
,
0000
0000
0000
0000
,
0000
0000
0000
0000
,
2002
0000
0000
3003
,
1000
0100
0010
0000
0001
0010
0100
0000
,
1000
0010
0100
0000
0001
0100
0010
0000
,
1000
0001
0010
0000
0001
1000
0100
0000
,
1000
0001
0100
0000
0001
1000
0010
0000
,
1000
0100
0010
0100
1000
0100
0001
0100
,
1000
0001
0100
0001
1000
0010
0001
0010
,
0100
0000
0001
1000
0000
1000
0001
0000
0010
0000
0100
0000
0010
0000
0100
0000
,
1000
0000
0010
0100
0000
0100
0010
0000
1000
0000
0001
0000
0100
0000
0100
0000
,
0220
0000
0000
0000
,
0000
0000
0000
0000
0000
0000
0000
0000
0330
0000
0000
0000
0100
0010
0100
0010
,
1000
0001
0100
0010
1000
0010
0001
0010
,
1000
0001
0010
0100
1000
0100
0001
0100
,
1000
0000
0001
1000
0000
0001
1000
0000
0001
0000
0100
0000
0010
0000
0100
0000
,
0001
0000
1000
0001
0000
1000
0001
0000
1100
0000
1000
0000
1001
0000
0001
0000
,
0100
0001
1000
0001
0100
1000
0100
0001
,
0100
0001
1000
0100
0010
1000
0010
0001
,
0010
0000
0001
1000
0000
0001
1000
0000
0010
0000
0100
0000
0001
0000
0010
0000
,
0001
0000
0100
0001
0100
0001
0100
0001
0100
0000
0001
0000
1001
0000
1000
0000
,
0001
0020
0031
2000
3001
0200
0301
2000
,
3001
0000
0010
0100
0000
0010
0100
0000
1000
0000
0100
0000
0001
0000
0100
0000
,
1000
0002
1003
0200
1300
0002
1003
0020
,
1030
0000
0010
0100
0000
0100
0010
0000
1000
0000
0100
0000
0010
0000
0001
0000
,
1000
0200
1300
0002
0103
0020
0130
0002
,
0013
0200
0310
2000
3010
0002
1003
0020
,
0130
0000
0001
1000
0000
0001
0100
0000
0010
0000
1000
0000
0001
0000
1000
0000
,
0100
0000
1000
0001
0000
1000
0100
0000
0010
0000
0100
0000
1000
0000
1000
0000
,
0002
0000
0103
0000
0010
0000
0100
0000
0001
1000
0000
0010
0000
1000
0001
0000
,
1000
0000
0001
0000
0010
0000
0001
0000
1000
0100
0000
0010
0000
0010
0001
0000
,
2000
0000
3010
0000
0100
0000
0010
0000
1000
0001
0000
0010
0000
0001
1000
0000
,
0001
1000
0010
0100
0001
0102
0103
0010
,
2010
0000
3010
0000
0100
0000
0010
0000
1000
0001
0000
0010
0000
0001
0100
0000
,
0001
0000
0010
0000
0100
0000
0010
0000
0001
1000
0000
0010
0000
0000
1000
0100
,
1000
0000
0001
0000
0100
0000
0001
0000
0010
0000
0000
0001
0000
0000
0100
0010
,
0100
0000
0000
0010
0000
1000
0000
0010
0000
0100
0001
0000
0010
0000
0000
0000
,
0011
0000
1000
0000
0020
0000
0000
0030
0110
0000
0001
0000
1000
0001
1000
0001
,
1000
0100
0001
0100
2000
0000
0001
0001
,
3001
0000
1000
0100
0000
0000
0100
0010
0000
0000
0010
0001
0000
0000
0001
1000
,
0000
0000
1000
0010
0000
0000
0010
0100
0000
0000
0100
0001
0000
0000
0001
1000
,
0001
0000
0001
1000
0000
0000
1000
0001
0000
0000
0001
0010
0000
0000
0010
0100
,
0000
0000
0100
1000
0000
0000
1000
0100
0000
0000
0100
0010
0000
0000
0010
0001
,
0010
0000
0010
0001
0000
0000
0001
0100
0000
0000
0100
0010
0000
0000
0010
1000
,
0010
0000
0100
0001
0100
0000
0001
0010
0001
0000
1000
0001
1000
0001
0100
0000
,
0101
0000
0000
1001
0000
0000
0101
0000
0000
0000
1001
0000
0000
1100
0000
0000
,
0101
0000
0000
1001
0000
0000
1100
0000
0000
0110
0000
0000
0011
0000
0000
0000
,
1010
0000
0000
1001
0000
0000
0101
0000
0000
0000
1001
0000
0000
0011
0000
0000
,
1010
0000
1000
0000
0100
1000
0100
0000
1000
0000
0001
0000
0010
0000
0100
0000
,
1100
0000
0000
1100
0000
0000
0101
0000
0000
0101
0000
0000
0011
0000
0000
0011
,
0000
0000
1010
0000
0000
1010
0000
0000
1000
0000
0001
0000
0020
0000
0000
0000
,
0031
0100
0010
0100
0001
0100
0010
0100
,
0001
0000
1000
0000
0001
0000
1000
0000
0100
0000
0100
0000
1000
0100
1000
0100
,
0020
0000
0000
0000
,
0000
0000
0000
0000
0001
0001
0031
0001
,
1000
0000
0010
0100
0000
0010
0100
0000
0001
0000
0100
0000
1000
0000
0100
0000
,
0001
0000
0100
0010
0000
0100
0010
0000
1000
0000
0010
0000
0001
0000
0010
0000
,
1000
0000
0001
0010
0000
0001
0010
0000
0001
0000
0010
0000
1000
0000
0010
0000
,
0001
0000
1000
0100
0000
1000
0100
0000
1100
0000
1000
0000
1010
0000
0010
0000
,
0110
0000
0100
0010
0000
0100
0010
0000
1000
0000
0001
0000
0100
0000
0001
0000
,
0010
0000
0001
1000
0000
0001
1000
0000
0001
0000
0010
0000
1000
0000
0010
0000
,
0001
0000
1000
0100
0000
1000
0100
0000
1000
0000
0010
0000
0001
0000
0010
0000
,
1000
0000
0001
1000
0001
0000
0100
0001
0100
0000
0001
0000
1001
0000
1000
0000
,
1000
0100
0010
0001
1000
0000
0020
0000
0031
0000
0020
0000
1030
0000
0200
0000
,
0301
0200
1300
0002
0013
2000
3010
0002
,
0013
0000
0001
0100
0000
0100
0001
0000
1000
0000
0010
0000
0100
0000
0010
0000
,
1000
0000
0100
1000
0000
1000
0100
0000
1100
0000
1000
0000
1001
0000
0001
0000
,
0100
0000
0001
1000
0001
0000
0100
0000
0001
0100
0000
0100
0001
0000
0001
0000
,
1000
0000
0010
1000
0010
0000
1000
0000
0100
0010
0000
0010
0100
0000
0100
0000
,
0010
0100
1000
0100
0010
0001
0100
0010
,
1000
0001
0010
0000
0001
1000
0010
0000
1000
0010
0000
0100
0001
0100
0010
1000
,
0001
0000
0021
0130
0010
0001
0010
0100
,
0010
0001
0010
1000
0010
0001
0010
0100
,
1000
0010
0001
1000
0100
0001
1000
0100
,
1000
0000
0010
0000
0001
0000
0010
0000
1000
0001
0000
0001
1000
0000
0100
0000
,
1001
0000
0000
0000
;

//---------------dance-single - ----------------
#NOTEDATA:;
#CHARTNAME:;
#STEPSTYPE:dance-single;
#DESCRIPTION:;
#CHARTSTYLE:;
#DIFFICULTY:Easy;
#METER:4;
#RADARVALUES:0.285972,0.374806,0.136293,0.153330,0.000000,201.000000,16.000000,18.000000,0.000000,0.000000,0.000000,0.000000,0.000000,0.285972,0.374806,0.136293,0.153330,0.000000,201.000000,16.000000,18.000000,0.000000,0.000000,0.000000,0.000000,0.000000;
#CREDIT:;
#NOTES:
0000
0000
0000
0000
,
0000
0000
0000
0000
,
0000
0000
0000
0000
,
0000
0000
0000
0000
,
0000
0000
0000
0000
,
0000
0000
0000
0000
,
0000
0000
0000
0000
,
2002
0000
0000
3003
,
0001
0000
1000
0000
,
0001
0000
0010
0100
,
0010
0000
0001
0000
,
0100
0000
0001
1000
,
0001
0000
0010
0001
,
0010
0000
0001
1000
,
0001
0100
0010
0100
,
0001
0000
1000
0001
,
2002
0000
0000
0000
,
0000
0000
0000
3003
,
1000
0010
1000
0000
,
0001
0100
0001
0000
,
0010
0000
0001
0000
,
1000
0010
1000
0010
,
1000
0100
1000
0000
,
0001
1000
0001
0000
,
1000
0000
0001
0000
,
0010
0001
1000
1001
,
0001
0000
1000
0000
,
0010
0000
1000
0100
,
1000
0000
0001
0000
,
0100
0000
0001
0010
,
0001
1000
0001
1000
,
0010
0100
0010
0100
,
0001
0000
1000
0000
,
0010
0100
0010
1000
,
0001
0011
0000
0000
,
1000
1100
0000
0000
,
0010
1010
0000
0000
,
1000
0001
0001
0010
,
0001
0101
0000
0000
,
0001
0011
0000
0000
,
1000
1100
1000
0001
,
2002
0000
3003
0100
,
0010
0200
0301
2000
,
3002
1000
0203
0000
,
0310
0000
0010
0000
,
0010
0000
0010
0000
,
0010
1000
0001
1000
,
0100
1000
0100
0010
,
0001
0100
0001
0100
,
0001
1000
0001
1000
,
0001
0000
0000
0100
0000
0000
0000
0000
,
0010
0000
0000
1000
0000
0000
0000
0000
,
0110
0000
0000
1001
0000
0000
0000
0000
,
1000
0000
0000
0001
0000
0000
0000
0000
,
1000
0000
0000
0010
0000
0000
1000
0000
,
0000
0001
0000
0000
1001
0000
2000
0000
,
3001
0000
0001
0000
,
0010
0010
0100
0100
,
2000
0000
0000
0000
,
0000
0000
0000
0000
,
3001
0000
0100
0001
,
0100
0000
0001
1000
,
0001
0000
1000
0010
,
2000
0000
3002
0000
,
0103
0000
0001
0100
,
0001
0000
1000
0001
,
1000
0000
0100
1000
,
0002
0000
2003
0000
,
3000
1001
1000
0000
,
0001
0010
0001
0000
,
1000
0001
1000
0001
,
0100
0001
0100
0001
,
0010
0200
0000
0000
,
2300
0000
3001
0000
,
0100
0000
0010
0100
,
0010
1000
0100
0010
,
0001
1001
0000
1000
,
0000
0100
0000
1000
,
0001
1000
0010
0100
,
0001
0100
0010
1000
,
1001
0000
0000
0000
;

//---------------dance-single - ----------------
#NOTEDATA:;
#CHARTNAME:;
#STEPSTYPE:dance-single;
#DESCRIPTION:;
#CHARTSTYLE:;
#DIFFICULTY:Hard;
#METER:9;
#RADARVALUES:0.626705,0.647393,0.468508,0.366288,0.170366,417.000000,55.000000,43.000000,0.000000,0.000000,0.000000,0.000000,0.000000,0.626705,0.647393,0.468508,0.366288,0.170366,417.000000,55.000000,43.000000,0.000000,0.000000,0.000000,0.000000,0.000000;
#CREDIT:;
#NOTES:
// measure 0
0000
0000
0000
0000
,  // measure 1
0000
0000
0000
0000
,  // measure 2
0000
0000
0000
0000
,  // measure 3
0000
0000
0000
0000
,  // measure 4
0000
0000
0000
0000
,  // measure 5
0000
0000
0000
0000
,  // measure 6
0000
0000
0000
0000
,  // measure 7
2002
0000
0000
3003
,  // measure 8
1000
1100
0001
0101
,  // measure 9
0010
1100
0010
0101
,  // measure 10
1000
1010
0001
0011
,  // measure 11
0100
0000
0110
0000
1000
0001
1000
0001
,  // measure 12
1000
0100
0010
0000
0001
0100
0010
0000
,  // measure 13
0010
1000
0100
0000
0010
0001
0100
0000
,  // measure 14
0001
0000
1000
0010
0000
1000
0010
0000
0100
0000
0001
0000
0001
0000
0000
0000
,  // measure 15
1000
0000
0001
0010
0000
0001
0010
0000
0100
0000
1000
0000
0001
0000
0100
0000
,  // measure 16
0220
0000
0000
0000
,  // measure 17
0000
0000
0000
0330
,  // measure 18
0001
0100
0010
0000
0100
0001
0100
0001
,  // measure 19
1000
0100
0010
0000
0100
1000
0001
1000
,  // measure 20
0100
1100
0010
0011
,  // measure 21
0001
0000
0100
0010
0000
0100
0010
0000
1000
0000
0010
0000
0001
0000
0010
0000
,  // measure 22
1000
0001
0010
0000
0100
1000
0001
0010
,  // measure 23
0001
1000
0010
0000
0100
0001
1000
0001
,  // measure 24
0010
0110
0100
1001
,  // measure 25
2000
3200
0302
0203
2300
0001
3001
0000
,  // measure 26
0001
0100
0000
0101
0000
1001
0000
0101
,  // measure 27
0000
0110
0000
1010
1000
0100
1000
0001
,  // measure 28
0010
0100
0000
1100
0000
0110
0000
1100
,  // measure 29
0000
1001
0000
0011
0010
0001
1000
0010
,  // measure 30
0100
0110
0000
1001
0000
1100
0000
1001
,  // measure 31
0000
0101
0000
0110
0000
1010
0000
0011
,  // measure 32
0001
0000
0100
0001
0000
0100
0001
0000
1000
0000
0010
0000
0010
0000
0000
0000
,  // measure 33
1000
0000
0100
1000
0000
1000
0100
0000
0020
0000
0030
0000
2002
0000
3003
0000
,  // measure 34
1000
0000
0000
0001
0100
0000
0000
0000
0010
0000
0000
0000
0101
0000
0000
0000
,  // measure 35
1000
0100
1000
0001
0100
0001
0010
0000
,  // measure 36
0001
0000
0000
1000
0100
0000
0000
0000
1000
0000
0000
0000
0011
0000
0000
0000
,  // measure 37
1000
0010
2000
0000
3001
0100
0002
0000
,  // measure 38
1003
0000
0000
0001
0010
0000
0000
0000
0100
0000
0000
0000
1001
0000
0000
0000
,  // measure 39
0001
0100
0010
1000
0010
0100
0001
0000
,  // measure 40
1000
0000
1000
0000
0200
0000
0000
0000
1300
0000
0000
0010
0000
0000
0100
0000
,  // measure 41
0100
0000
0000
0001
0000
1000
0000
0001
0000
0000
1000
0000
0010
0000
0000
0000
,  // measure 42
1000
1000
0002
0000
1003
1000
0001
0001
,  // measure 43
0010
0010
0220
0330
,  // measure 44
0010
0001
0000
1100
0000
0010
0000
0101
,  // measure 45
0000
1000
0000
0011
0000
0100
0000
1010
,  // measure 46
0000
2000
0000
0100
0000
0001
0000
3010
,  // measure 47
0000
0002
0000
0010
0000
1000
0000
0103
,  // measure 48
0001
0010
1000
0000
0001
0100
1000
0000
,  // measure 49
0001
1000
0001
1000
0010
0100
0020
0000
,  // measure 50
1030
0000
0000
1100
0000
0000
1000
0000
0000
0000
0100
0000
0000
1000
0000
0000
,  // measure 51
0100
0000
0000
0110
0000
0000
0010
0000
0000
0100
0000
0000
2100
0000
0000
0000
,  // measure 52
3001
0000
0000
0011
0000
0000
0001
0000
0000
0000
1010
0000
0000
0010
0000
0000
,  // measure 53
0100
0000
0001
0000
1000
0001
1000
0000
0001
0000
0001
0000
0010
0000
0000
0000
,  // measure 54
0100
0000
0000
0100
0000
0000
1000
0000
0000
1000
0000
0000
0010
0000
0000
0010
,  // measure 55
0000
0000
0001
0000
0000
0001
0000
0000
0010
0000
1000
0000
0001
0000
0000
0000
,  // measure 56
1000
0100
1000
0001
1000
0100
1000
0001
,  // measure 57
0020
0030
0020
0030
0100
0100
1000
0001
,  // measure 58
0200
0000
0000
0000
,  // measure 59
0000
0000
0300
0000
0002
2003
3002
2003
,  // measure 60
3020
0000
0100
0000
1030
0100
1000
0001
,  // measure 61
0020
0000
0100
0000
0031
1000
0001
0010
,  // measure 62
0200
1000
0001
1000
,  // measure 63
0310
0001
1000
0100
1000
0001
0100
0000
,  // measure 64
0020
0000
1000
0000
0130
0001
1000
0100
,  // measure 65
0020
0000
0001
0000
0130
1000
0001
1000
,  // measure 66
0020
2030
3002
0203
,  // measure 67
0310
0000
1000
0100
1000
0000
0001
0010
0001
0000
1000
0000
1001
0000
0000
0000
,  // measure 68
0110
0000
0000
0000
1001
0000
1000
0000
0100
0000
0000
0010
0100
0000
2000
0000
,  // measure 69
0000
0000
3001
0200
0000
0301
0100
0001
,  // measure 70
0010
0000
0001
1000
0001
0000
0020
0000
0000
0000
0230
0000
0000
0000
2300
0000
,  // measure 71
0000
3010
0100
0001
0000
0001
1000
0010
,  // measure 72
0100
0101
0010
1010
,  // measure 73
1000
0000
1100
0000
0010
0100
0010
0001
,  // measure 74
0000
0011
0000
0110
0000
1100
0000
1000
,  // measure 75
0001
0000
0100
0010
0000
0100
0010
0000
1000
0000
0001
0000
0010
0000
0100
0000
,  // measure 76
1000
0000
0000
1000
0100
0000
0000
0100
1000
0000
0010
0000
0001
0000
0010
0000
,  // measure 77
1000
0000
0000
1000
0001
0000
0000
0001
0010
0000
0100
0000
1000
0000
0100
0000
,  // measure 78
0010
0001
0100
0001
1000
0010
1000
0100
,  // measure 79
1000
0000
0001
0010
0000
0010
0100
0000
1000
0000
0100
0000
0001
0000
0100
0000
,  // measure 80
1001
0000
0000
0000
;

//---------------dance-single - ----------------
#NOTEDATA:;
#CHARTNAME:;
#STEPSTYPE:dance-single;
#DESCRIPTION:;
#CHARTSTYLE:;
#DIFFICULTY:Beginner;
#METER:2;
#RADARVALUES:0.164282,0.204440,0.076665,0.000000,0.000000,126.000000,9.000000,0.000000,0.000000,0.000000,0.000000,0.000000,0.000000,0.164282,0.204440,0.076665,0.000000,0.000000,126.000000,9.000000,0.000000,0.000000,0.000000,0.000000,0.000000,0.000000;
#CREDIT:;
#NOTES:
0000
0000
0000
0000
,
0000
0000
0000
0000
,
0000
0000
0000
0000
,
0000
0000
0000
0000
,
0000
0000
0000
0000
,
0000
0000
0000
0000
,
0000
0000
0000
0000
,
0000
0000
0000
0000
,
1000
0000
0000
0000
,
1000
0000
0000
0000
,
0001
0000
0000
0000
,
0001
0000
0000
0000
,
1000
0000
1000
0000
,
0001
0000
0001
0000
,
1000
0000
0100
0000
,
0010
0000
0001
0000
,
1001
0000
0000
0000
,
0000
0000
0000
0000
,
0000
1000
0000
1000
,
0000
0001
0000
0001
,
0000
0010
0000
0010
,
0000
0100
0000
0100
,
0000
1000
0000
1000
,
0000
0001
0000
0001
,
0000
0100
0000
0100
,
0000
0010
0000
0010
,
0000
1000
0000
0001
,
0000
1000
0000
0001
,
0000
0010
0000
0100
,
0000
0010
0000
0100
,
0000
1000
0000
0001
,
0000
1000
0000
0001
,
0000
0100
0000
0010
,
0000
0100
0100
0000
,
0001
0000
0000
0000
,
1000
0000
1000
0000
,
0100
0000
0000
0000
,
1000
0000
1000
0000
,
0010
0000
0000
0000
,
1000
0000
1000
0000
,
0001
0000
0010
0000
,
0001
0000
0100
0000
,
0110
0000
0110
0000
,
1001
0000
0000
0000
,
0000
0001
0000
0001
,
0000
0100
0000
0100
,
0000
0010
0000
0010
,
0000
1000
0000
1000
,
0000
0100
0000
0010
,
0000
0001
0001
0000
,
1001
0000
0000
0000
,
0001
0000
1000
0000
,
0110
0000
0000
0000
,
0010
0000
0100
0000
,
1001
0000
0000
0000
,
0000
0000
0000
0000
,
0100
0000
0100
0000
,
0100
0100
0100
0000
,
0010
0000
0000
0000
,
0000
0000
0000
0000
,
0000
1000
0000
1000
,
0000
0100
0000
0100
,
0000
0010
0000
0010
,
0000
0001
0000
0001
,
0000
1000
0000
1000
,
0000
0010
0000
0010
,
0000
0100
0000
0100
,
0001
0001
0001
0001
,
0000
1000
0000
0100
,
0000
1000
0000
0001
,
0000
0100
0000
0001
,
0000
0010
0000
0001
,
1000
1000
0000
0000
,
0001
0001
0000
0000
,
0010
0000
0100
0000
,
1001
0000
0000
0000
,
1000
0000
0000
0000
,
0001
0000
0000
0000
,
1000
0000
1000
0000
,
0001
0000
0001
0000
,
1001
0000
0000
0000
;

//---------------dance-single - ----------------
#NOTEDATA:;
#CHARTNAME:;
#STEPSTYPE:dance-single;
#DESCRIPTION:;
#CHARTSTYLE:;
#DIFFICULTY:Medium;
#METER:6;
#RADARVALUES:0.406446,0.511099,0.161848,0.161848,0.008518,296.000000,19.000000,19.000000,0.000000,0.000000,0.000000,0.000000,0.000000,0.406446,0.511099,0.161848,0.161848,0.008518,296.000000,19.000000,19.000000,0.000000,0.000000,0.000000,0.000000,0.000000;
#CREDIT:;
#NOTES:
0000
0000
0000
0000
,
0000
0000
0000
0000
,
0000
0000
0000
0000
,
0000
0000
0000
0000
,
0000
0000
0000
0000
,
0000
0000
0000
0000
,
0000
0000
0000
0000
,
2002
0000
0000
3003
,
0001
1000
0001
0100
,
0010
1000
0100
1000
,
0001
0100
0001
1000
,
0001
0000
0100
0000
0001
0010
0001
0010
,
0001
1000
0010
1000
,
0001
1000
0010
1000
,
0100
1000
0100
0010
,
0001
0000
0100
0000
0001
1000
0001
1000
,
0002
0000
0000
0000
,
0000
0000
0000
0000
,
1003
1000
0010
0010
,
1000
1000
0001
0001
,
0100
0100
0010
0010
,
1000
0000
0001
0000
1000
1000
0001
0001
,
0100
0001
1000
0100
,
1000
0001
0010
0001
,
0100
0001
1000
0100
,
1000
0000
0001
0000
0100
0001
0100
0001
,
0100
0001
0000
1000
0000
0001
0000
1000
,
0000
0010
0000
0100
0000
0010
0000
0100
,
0000
0001
0000
0010
0000
0001
0000
0010
,
0000
0100
0000
1000
0000
0100
0000
1000
,
0000
0001
0000
0100
0000
0001
0000
0100
,
0000
0001
0000
1000
0000
0001
0000
1000
,
0000
0100
0000
1000
0000
0010
0000
1000
,
0010
1000
0000
0100
1000
0000
1001
0000
,
0002
0100
0100
0000
,
2003
0010
0010
0000
,
3002
1000
1000
0000
,
2003
0001
0001
0000
,
3200
1000
1000
0000
,
0320
0001
0001
0000
,
0031
1001
0001
1000
,
1001
0000
0100
0000
0010
0000
1000
0001
,
1000
0020
0130
0002
,
1003
2001
0002
0000
,
3003
1000
0000
0001
0000
1000
0000
0001
,
0000
1000
0000
0001
0000
1000
0000
0001
,
0000
1000
0000
0010
0000
1000
0000
0010
,
0000
0100
0000
0010
0000
0100
0000
0010
,
0000
0001
0000
0010
0000
0100
0000
0010
,
0000
0001
0000
0010
0000
0100
0010
1000
,
0100
0000
0000
0000
0000
0000
1100
0000
0000
0000
1000
0000
0000
1000
0000
0000
,
1000
0000
0000
1001
0000
0000
0002
0000
,
0103
0000
0000
0000
0000
0000
0110
0000
0000
0000
0010
0000
0000
0010
0000
0000
,
0010
1000
0100
0010
0001
0000
0010
0001
,
0010
0000
0000
1001
0000
0000
1100
0000
,
0000
1010
0000
0000
0100
0100
0020
0000
,
2030
0000
3002
0000
,
1003
0000
1000
0000
0001
0100
0001
0100
,
0002
0000
0000
0000
,
2000
0000
3003
0000
,
0001
0010
0100
1000
,
0010
0100
0010
1000
,
0100
0010
0001
0010
,
0100
0000
1000
0000
0001
1000
0001
0100
,
0001
1000
0010
0100
,
0010
1000
0001
0100
,
0001
0010
0100
1000
,
0010
0000
1000
0000
0010
0100
0010
1000
,
0100
0000
1000
0001
0000
0001
0000
1000
,
0000
1000
0000
0010
0000
0010
0000
0100
,
0000
0100
0000
0001
0000
0001
0000
1000
,
0000
1000
0000
0010
0100
0010
0100
0010
,
1000
0010
1000
0001
,
0100
0001
0010
0001
,
1000
0100
1000
0000
0001
0100
0001
0000
,
1000
0001
1000
0001
1000
0001
1000
0001
,
1000
1001
0011
1001
,
1010
1001
0011
1001
,
0100
0010
0100
0010
,
1000
0001
1000
0001
,
1001
0000
0000
0000
;
