#VERSION:0.83;
#TITLE:ラクエン;
#SUBTITLE:;
#ARTIST:Chonan Chiharu;
#TITLETRANSLIT:Rakuen;
#SUBTITLETRANSLIT:;
#ARTISTTRANSLIT:;
#GENRE:;
#ORIGIN:;
#CREDIT:;
#BANNER:[ZIv Academy IV] - Rakuen-bn.png;
#BACKGROUND:[ZIv Academy IV] - Rakuen-bg.png;
#PREVIEWVID:;
#JACKET:[ZIv Academy IV] - Rakuen-jacket.png;
#CDIMAGE:;
#DISCIMAGE:;
#LYRICSPATH:;
#CDTITLE:;
#MUSIC:[ZIv Academy IV] - Rakuen.ogg;
#OFFSET:0.828650;
#SAMPLESTART:86.444069;
#SAMPLELENGTH:14.000000;
#SELECTABLE:YES;
#BPMS:0.000=99.000,
108.000=198.000,
180.000=99.000;
#STOPS:;
#DELAYS:;
#WARPS:;
#TIMESIGNATURES:0.000=4=4;
#TICKCOUNTS:0.000=4;
#COMBOS:0.000=1;
#SPEEDS:0.000=1.000=0.000=0;
#SCROLLS:0.000=1.000;
#FAKES:;
#LABELS:0.000=Song Start;
#BGCHANGES:;
#KEYSOUNDS:;
#ATTACKS:
;

//---------------dance-single - ----------------
#NOTEDATA:;
#CHARTNAME:;
#STEPSTYPE:dance-single;
#DESCRIPTION:;
#CHARTSTYLE:;
#DIFFICULTY:Hard;
#METER:6;
#RADARVALUES:0.427412,0.402493,0.100503,0.146888,0.011596,387.000000,374.000000,13.000000,19.000000,0.000000,0.000000,0.000000,0.000000,0.000000,0.427412,0.402493,0.100503,0.146888,0.011596,387.000000,374.000000,13.000000,19.000000,0.000000,0.000000,0.000000,0.000000,0.000000;
#CREDIT:;
#NOTES:
0000
0000
0000
0000
,
0000
0000
0000
0000
,
0000
0000
0000
0000
,
1000
0000
0000
0001
0000
0000
0010
0000
0100
0000
1000
0000
0010
0000
0100
0000
,
0001
0000
0000
1000
0000
0000
0100
0000
0010
0000
1000
0000
0010
0000
0100
0000
,
1000
0100
0010
0001
0000
1000
0000
1000
,
0001
0010
0100
1000
0001
0100
1000
0100
,
0001
0000
0102
0000
1003
0001
0001
1000
,
0001
0001
0010
0010
1000
1000
0100
0100
,
0001
0000
0000
1000
0000
0000
0100
0000
0000
0000
0010
0000
0000
0000
0100
0000
,
1000
1000
0100
0010
0001
1000
0010
0100
,
0020
0000
1000
0000
0130
0010
1000
0100
,
0010
0100
1000
0001
0100
0000
0010
0100
,
0001
0000
0001
1000
0010
1000
0001
0010
,
0100
0000
0001
0100
1000
0000
0001
1000
,
0001
0010
0100
1000
0010
0100
1000
0100
,
0100
1000
0100
0001
1000
0000
0100
1000
,
0001
0000
1000
0100
0010
0000
1000
0000
,
0001
1000
0010
0100
0010
0001
1000
0010
,
1000
0000
1020
0000
0130
0010
1000
0001
,
0010
0100
0010
0001
1000
0100
0010
0001
,
0100
0000
0201
0010
0301
0100
0010
1000
,
0001
0000
0001
0010
0100
1000
0010
0000
,
0100
0000
0201
0000
0310
0100
0001
1000
,
0100
1000
0001
0100
1000
0100
0001
1000
,
0010
0000
1020
0100
1030
0000
1000
0001
,
1001
0000
0010
0100
0110
0000
0001
0000
,
1000
0000
0100
1000
0000
0100
0010
0100
,
1000
0000
0001
0010
0000
0010
0100
0010
,
0001
0000
0100
0010
0000
0100
0001
0100
,
0010
0000
1000
0100
0010
0001
0010
0100
,
1000
0000
0001
0100
0000
0010
0100
0001
,
0100
0000
0010
1000
0000
1000
0100
0010
,
0100
0000
0010
0001
0010
0100
0010
0000
,
0001
0000
0100
0010
0100
0001
0100
0000
,
0001
0010
0100
1000
0100
0020
0000
0000
,
0031
0010
0100
1000
0100
0010
0002
0000
,
1003
0100
0010
0001
0010
0200
0000
0000
,
1300
0100
0010
0001
0010
0100
1000
0001
,
1000
0000
0010
0100
0000
0100
1000
0100
,
0001
0000
0100
0010
0000
0010
0100
0010
,
1000
0000
0001
0010
0000
0010
1000
0010
,
0100
1000
0100
0010
0001
0010
0100
1000
,
0002
0000
0000
0000
,
0000
0000
0000
0003
,
0001
0000
0021
0000
0130
0010
0001
1000
,
0010
0100
0010
1000
0001
0100
0010
1000
,
0010
0000
1020
0100
1030
0010
0100
0001
,
1000
0000
1000
0100
0010
0001
0100
0000
,
0010
0000
1020
0000
0130
0010
1000
0001
,
0010
0001
1000
0010
0001
0010
1000
0001
,
0100
0000
0201
0010
0301
0000
0001
1000
,
0010
0000
0100
0010
1000
0001
0010
0100
,
0020
0000
0000
0031
0010
0001
1000
0000
,
1000
0001
0010
0100
0001
0100
0010
0100
,
0010
0002
0000
0000
0013
0001
1000
0010
,
1000
0001
0010
1000
1000
0010
0001
1000
,
0010
0000
2010
0000
3001
1000
1000
0001
,
1000
1000
0100
0100
0001
0001
0010
0010
,
1000
0000
0010
1000
0001
0000
0001
1000
,
0100
0001
0100
0010
0001
1000
0010
0100
,
2002
3003
0000
0000
;

//---------------dance-single - ----------------
#NOTEDATA:;
#CHARTNAME:;
#STEPSTYPE:dance-single;
#DESCRIPTION:;
#CHARTSTYLE:;
#DIFFICULTY:Easy;
#METER:3;
#RADARVALUES:0.205423,0.235794,0.038655,0.131426,0.000000,186.000000,181.000000,5.000000,17.000000,0.000000,0.000000,0.000000,0.000000,0.000000,0.205423,0.235794,0.038655,0.131426,0.000000,186.000000,181.000000,5.000000,17.000000,0.000000,0.000000,0.000000,0.000000,0.000000;
#CREDIT:;
#NOTES:
0000
0000
0000
0000
,
0000
0000
0000
0000
,
0000
0000
0000
0000
,
1000
0000
1000
1000
,
0001
0000
0001
0001
,
0100
0010
0000
0000
,
0010
0100
0001
1000
,
0100
0020
0030
0000
,
0010
0010
0001
0001
,
0100
0000
0000
0000
,
0100
0010
0100
0001
,
1000
1000
0100
0100
,
0010
0010
0001
0000
,
0010
0001
1000
0010
,
0001
0000
0001
0100
,
1000
0001
0010
0100
,
0100
0010
0001
1000
,
0020
0030
0200
0300
,
0010
1000
0001
0001
,
1000
0200
0310
0010
,
0100
0010
0001
1000
,
0010
0200
0310
0010
,
2000
3001
0001
0010
,
0100
2000
3001
0100
,
0010
0100
0001
0001
,
0010
0002
1003
1000
,
0010
0100
0001
1000
,
0001
0001
0000
0000
,
1000
1000
0000
0000
,
0100
0100
0000
0000
,
0010
0010
0000
0000
,
0100
1000
0000
0000
,
1000
0001
0000
0000
,
0001
0100
0000
0000
,
0100
0010
0010
0010
,
0010
0000
1001
0000
,
0010
0000
1001
0000
,
0100
0000
1001
0000
,
0100
0000
1001
0000
,
1000
0001
0000
0001
,
0001
0000
0100
0000
,
0010
0100
0000
0100
,
0100
0000
0010
0000
,
2000
0000
0000
0000
,
0000
0000
0000
0000
,
3001
0020
0130
0100
,
0010
0100
1000
0001
,
0100
0020
0130
0100
,
0002
1003
1000
0100
,
0010
0002
1003
0010
,
0100
0010
1000
1000
,
0100
2000
3001
0001
,
0100
0010
1000
0001
,
0020
0030
0001
0001
,
0010
0100
1000
0001
,
0200
0000
1300
0100
,
0001
0010
1000
0100
,
0001
0200
0300
0000
,
0100
0100
0001
0001
,
0010
0001
0001
0100
,
0010
0100
0001
1000
,
1001
0000
0000
0000
;

//---------------dance-single - ----------------
#NOTEDATA:;
#CHARTNAME:;
#STEPSTYPE:dance-single;
#DESCRIPTION:;
#CHARTSTYLE:;
#DIFFICULTY:Beginner;
#METER:2;
#RADARVALUES:0.122591,0.188635,0.007731,0.216467,0.000000,111.000000,110.000000,1.000000,28.000000,0.000000,0.000000,0.000000,0.000000,0.000000,0.122591,0.188635,0.007731,0.216467,0.000000,111.000000,110.000000,1.000000,28.000000,0.000000,0.000000,0.000000,0.000000,0.000000;
#CREDIT:;
#NOTES:
0000
0000
0000
0000
,
0000
0000
0000
0000
,
0000
0000
0000
0000
,
1000
0000
0000
0001
,
0001
0000
0100
0000
,
0010
0000
0000
0000
,
0001
0000
1000
0000
,
0100
0200
0300
0000
,
0010
0010
0010
0010
,
0010
0000
0000
0000
,
0001
0000
0010
0000
,
1000
1000
1000
1000
,
1000
1000
1000
0000
,
0100
0000
0001
0000
,
0010
0000
1000
0000
,
0001
0001
0001
0001
,
0001
0001
0001
0000
,
0020
0030
0200
0300
,
0001
0000
1000
0000
,
0100
0200
0300
0000
,
0010
0000
1000
0000
,
0001
0002
0003
0000
,
0020
0030
1000
0000
,
0100
0200
0300
0000
,
0001
0000
0010
0000
,
0100
0100
0200
0300
,
2000
3000
0002
0003
,
2000
0000
0000
0000
,
0000
0000
0000
0000
,
0000
3000
0000
0000
,
0001
0000
0001
0000
,
0002
0000
0003
0000
,
0200
0000
0000
0000
,
0000
0300
0000
0000
,
0010
0000
0020
0030
,
0010
0000
0010
0000
,
0010
0000
0000
0000
,
1000
0000
1000
0000
,
1000
0000
0000
0000
,
0002
0000
0000
0003
,
0000
1000
0000
0000
,
2000
0000
0000
0000
,
0002
0000
0000
0000
,
3003
0000
0000
0000
,
0000
0000
0000
0000
,
0100
0200
0300
0000
,
0010
0000
1000
0000
,
0001
0002
0003
0000
,
0020
0030
1000
0000
,
0100
0200
0300
0000
,
0001
0000
0010
0000
,
0100
0100
0200
0300
,
0200
0300
0100
0000
,
2000
3000
1000
0000
,
0001
0001
0001
0000
,
0200
0300
0010
0000
,
0001
0000
1000
1000
,
1000
2000
3000
0000
,
0100
0100
0100
0100
,
0100
0000
0002
0003
,
2000
3000
0100
0000
,
1001
0000
0000
0000
;

//---------------dance-single - ----------------
#NOTEDATA:;
#CHARTNAME:;
#STEPSTYPE:dance-single;
#DESCRIPTION:;
#CHARTSTYLE:;
#DIFFICULTY:Medium;
#METER:5;
#RADARVALUES:0.280523,0.355141,0.100503,0.270584,0.000000,254.000000,241.000000,13.000000,35.000000,0.000000,0.000000,0.000000,0.000000,0.000000,0.280523,0.355141,0.100503,0.270584,0.000000,254.000000,241.000000,13.000000,35.000000,0.000000,0.000000,0.000000,0.000000,0.000000;
#CREDIT:;
#NOTES:
0000
0000
0000
0000
,
0000
0000
0000
0000
,
0000
0000
0000
0000
,
0100
0000
1010
0000
0100
0001
1000
0000
,
0100
0000
0011
0000
0100
1000
0001
0000
,
0001
0100
0010
0000
0000
0000
0000
0000
,
0100
0010
1000
0000
0001
1000
0001
0000
,
1001
0220
0330
0000
,
0020
1000
2030
0001
3002
0010
0023
0100
,
0130
0000
0000
0000
,
0100
0010
0100
0000
1000
0100
1000
0001
,
2000
3010
0001
0010
,
0100
0000
0001
0000
1000
0000
0001
0010
,
0100
0000
0100
1000
0100
0000
1000
0000
,
0001
0000
0100
0010
0100
0000
0000
0000
,
0002
0013
1000
0010
,
0100
0000
1000
0000
0001
0000
1000
0010
,
0100
0000
0001
0100
0001
0000
0000
0000
,
0100
0001
1000
0000
0100
0000
0010
0001
,
0010
0000
0200
0000
0310
0001
0010
0000
,
0001
0000
0100
0000
1000
0100
1000
0000
,
0100
0000
0020
0100
0130
0000
0010
0000
,
2000
0000
0000
0000
3001
1000
0100
0000
,
0010
0000
0002
0000
0013
0001
1000
0000
,
0010
0000
0100
0000
0010
1000
0001
0000
,
0010
0000
0100
1000
0100
0000
1000
0000
,
0110
0001
1100
0001
,
1000
0000
0001
0000
0000
0001
0000
0001
,
0000
0000
1000
0000
0000
1000
1000
0000
,
0010
0000
0100
0000
0000
0100
0000
0100
,
0000
0010
0100
0010
,
0200
0000
0000
0000
0000
0000
0001
0002
,
0000
0000
0000
0000
,
0000
0303
0001
0100
,
0001
1000
0001
0000
,
1000
0000
0000
0011
0000
0000
0000
0000
,
1000
0000
0000
0011
0000
0000
0001
0000
,
0001
0000
0000
1100
0000
0000
0000
0000
,
0001
0000
0000
1100
0000
0000
1000
0000
,
0002
0000
0100
0000
0000
1000
0000
1003
,
0000
0100
0000
0010
,
0002
0000
0010
0000
0000
1000
0000
1003
,
0000
0001
1000
0001
,
1002
0000
0200
0003
,
0020
0300
2000
0030
,
3100
0000
0020
0000
0130
1000
0100
0000
,
1000
0000
0010
0000
0001
0010
0001
0000
,
0010
0000
0200
0010
0310
0000
0100
0000
,
0002
0000
0003
0000
1000
0001
0010
0000
,
0100
0000
2000
0000
3100
1000
0001
0000
,
0100
0000
0010
0000
0001
0010
1000
0000
,
0100
0000
0010
0001
0010
0000
0001
0010
,
0200
0000
0300
0100
0010
0000
0001
1000
,
0002
0000
0000
0000
0100
0100
0103
0000
,
0010
0100
0001
0010
,
0200
2000
0300
0000
3001
0000
0100
0001
,
1000
0000
0100
0001
0100
0000
0010
0000
,
1001
0220
0330
0000
,
0200
0001
0302
1000
2003
0100
3200
0010
,
0310
0000
0100
1000
0100
0000
1000
0100
,
0010
0000
1000
0000
0001
0000
0100
1000
,
0002
0003
0000
0000
;

//---------------dance-single - ----------------
#NOTEDATA:;
#CHARTNAME:;
#STEPSTYPE:dance-single;
#DESCRIPTION:;
#CHARTSTYLE:;
#DIFFICULTY:Challenge;
#METER:9;
#RADARVALUES:0.595284,0.730962,0.108233,0.494782,0.680325,539.000000,525.000000,14.000000,64.000000,0.000000,0.000000,0.000000,0.000000,0.000000,0.595284,0.730962,0.108233,0.494782,0.680325,539.000000,525.000000,14.000000,64.000000,0.000000,0.000000,0.000000,0.000000,0.000000;
#CREDIT:;
#NOTES:
0000
0000
0000
0000
,
0000
0000
0000
0000
,
0000
0000
0000
0000
,
1000
0000
0001
1000
0000
0000
0001
0000
1000
0010
0100
0000
0010
0000
0100
0010
,
1000
0000
0001
1000
0000
0000
0001
0010
0000
0010
0000
1000
0000
1000
0000
0020
,
0000
0000
0100
0130
0000
0000
0100
0000
1000
0000
0001
1000
0000
1000
0010
0100
,
0001
0000
1000
0100
0000
0110
0000
1100
0000
1000
0100
2000
0000
3002
0000
0000
,
0003
0000
0000
0000
0201
0000
0301
0000
1000
0000
0000
1000
0001
0000
0010
0000
,
0100
1000
0100
1000
0100
0001
0100
0001
0100
0010
0100
0010
0001
0010
0001
0010
,
0100
0000
1000
0100
0000
0000
1100
0000
1000
0000
0001
1000
0000
0000
1000
0000
,
0010
1000
0001
1000
0000
0100
0000
0100
0010
0100
1000
0001
0000
1000
0100
0010
,
0001
0000
0100
0020
0000
0000
0130
0000
0001
0000
0010
0200
0000
0000
0310
0000
,
0100
0000
1000
0002
0000
0000
0103
0000
0001
0000
1000
0100
1000
0000
0001
0000
,
2000
0000
3100
1000
0100
0000
1000
0000
0002
0000
0013
0001
0010
0000
0100
0000
,
0020
0000
0130
0010
0100
0000
0020
0000
0031
0010
0001
0010
0100
0010
0100
0010
,
0001
0000
1000
0020
0000
0000
0130
0000
0010
0000
1000
0200
0000
0000
0310
0000
,
0100
0000
1000
0200
0000
0000
0310
0000
0001
0000
1000
0000
0010
0000
0100
0000
,
0110
0000
1000
0001
2002
0000
3003
0000
,
1000
0000
0010
0000
0100
0000
0001
0000
1000
0100
1000
0100
0001
0100
0001
0100
,
1000
0000
0001
0100
0010
0000
1000
0000
0001
0100
0001
0000
1000
0010
1000
0000
,
0001
0000
1000
0100
0010
0000
0001
0000
1000
0010
1000
0010
0100
0001
0100
0001
,
1000
0000
0001
0010
0002
0000
0023
0000
0032
0000
1000
1000
0000
0000
0203
0000
,
0320
0000
0000
0000
0000
0000
0130
0000
0001
0100
0001
0100
0010
1000
0010
1000
,
0001
0000
1000
0100
0010
0000
0001
0000
1000
0010
1000
0000
0001
0100
0001
0000
,
1000
0000
0001
0010
0100
0000
1000
0000
0001
0100
0001
0100
0010
1000
0010
1000
,
0001
0000
1000
0100
2000
0000
3002
0000
0023
0000
0000
0000
2030
0000
3020
0000
,
0032
0000
0000
0000
0013
0000
0001
0000
1000
0100
1000
0100
0010
0001
0010
0001
,
1000
0001
0100
0020
0000
0031
0010
1000
,
0010
0100
0001
0010
0100
0010
0010
0000
,
0001
1000
0100
0020
0000
1030
0010
0001
,
0010
0000
0100
1000
0100
0001
0100
0100
,
0020
0000
0001
0000
0100
0000
1030
0010
,
0200
1000
0010
0301
,
0100
0000
0000
0000
1000
0000
0100
0000
1000
0000
0000
0010
0000
0000
0001
0000
,
1000
0000
0000
0100
0000
0000
0001
0000
2000
0000
0000
0000
0000
0000
0000
0000
,
3001
0010
0000
0000
0100
0000
0010
0001
0000
0000
0200
0000
0000
0000
0000
0000
,
0301
0100
0000
0000
0010
0000
0100
0001
0000
0000
2000
0000
3002
0000
0003
0000
,
1000
0100
0000
0000
0010
0000
0100
1000
0000
0000
0002
0000
0000
0000
0000
0000
,
1003
0010
0000
0000
0100
0000
0010
1000
0000
0000
0001
0000
0010
0000
0100
0000
,
0010
0000
0000
0000
0100
0010
0100
0000
0000
0000
0010
0100
0010
0000
0100
0000
,
0000
0100
1000
0000
0001
1000
0001
0000
,
1000
0000
0000
0000
0001
1000
0001
0000
0000
0000
1000
0001
1000
0000
0001
0000
,
0000
1000
0100
0000
0010
0100
0010
0001
,
0010
0000
0100
0000
1000
0000
0001
0100
,
0010
1000
0100
0000
0010
0001
1000
1000
,
0001
0100
0001
0100
0010
0000
0010
1000
0001
1000
0001
0010
0100
1000
0001
0100
,
0010
1000
0001
1000
0100
0000
0100
1000
0001
0010
0100
1000
0001
0100
0010
1000
,
0001
0000
0000
0000
2001
0000
3002
0000
0023
0000
0100
0100
0000
0000
0032
0000
,
2000
0000
0000
0000
3003
0000
0001
0000
1000
0100
0010
0001
1000
0001
0010
0100
,
1000
0000
0010
0100
0010
0000
0010
1000
0020
0230
0000
0302
0000
0103
0001
1000
,
0000
0001
1000
0100
0010
0000
0010
0001
0020
0230
0000
0320
0000
0032
0000
2003
,
0000
3000
0000
0000
1002
0000
2003
0000
3200
0000
0310
0100
0020
0000
0032
0000
,
1003
0010
1000
0010
0100
0001
0100
0001
1000
0100
0010
0100
1000
0100
0010
0001
,
0020
0000
0000
0000
0000
0030
0010
0010
0000
0001
1000
0000
0110
0000
0100
0001
,
1000
0000
0100
0010
0000
1000
0000
0020
0000
0000
0130
1000
0000
0001
0000
0200
,
0000
0301
0100
0001
0100
0001
0100
0001
0100
0000
0010
0000
1000
0001
0100
0001
,
1000
0000
0001
0010
0000
0110
0000
0011
0000
0001
0010
0002
0000
2003
0000
0000
,
3000
0000
0000
0000
1020
0000
1030
0000
0001
0000
0000
0001
1000
0000
0100
0000
,
0010
0001
0010
0001
0010
1000
0010
1000
0010
0100
0010
0100
1000
0100
1000
0100
,
0010
0000
0120
0230
2300
0000
3002
0103
,
0010
1000
0001
1000
0000
0100
0000
0100
0010
0100
1000
0001
0000
1000
0100
0010
,
0011
0000
0000
0000
;
