#TITLE:피카부;
#SUBTITLE:;
#ARTIST:Red Velvet;
#TITLETRANSLIT:Peek-A-Boo;
#SUBTITLETRANSLIT:;
#ARTISTTRANSLIT:;
#GENRE:K-POP;
#CREDIT:;
#BANNER:[ZIv Academy IV] - Peek-A-Boo.png;
#BACKGROUND:[ZIv Academy IV] - Peek-A-Boo-bg.png;
#LYRICSPATH:;
#CDTITLE:cdtitle.png;
#MUSIC:[ZIv Academy IV] - Peek-A-Boo.ogg;
#OFFSET:-2.087000;
#SAMPLESTART:43.045303;
#SAMPLELENGTH:16.696373;
#SELECTABLE:YES;
#BPMS:0.000000=114.995003
;
#STOPS:
;
#BGCHANGES:0.000=[ZIv Academy IV] - Peek-A-Boo.avi=1.000=0=0=0=StretchNoLoop====,
223.750=[ZIv Academy IV] - Peek-A-Boo-bg.png=1.000=0=0=1=====,
99999=-nosongbg-=1.000=0=0=0 // don't automatically add -songbackground-
;
#KEYSOUNDS:;
#ATTACKS:;

//---------------dance-single - ----------------
#NOTES:
     dance-single:
     :
     Challenge:
     9:
     0.605427,0.763334,0.677417,0.776551,0.656764,513.000000,431.000000,82.000000,94.000000,0.000000,0.000000,0.605427,0.763334,0.677417,0.776551,0.656764,513.000000,431.000000,82.000000,94.000000,0.000000,0.000000:
// measure 0
0000
0000
0000
0000
,  // measure 1
0000
0000
0000
0000
,  // measure 2
0000
0000
0000
0000
,  // measure 3
0000
0000
0000
0000
,  // measure 4
1100
0000
0000
0101
0000
0000
0010
0000
0101
0000
0000
1100
0000
0000
0010
0000
,  // measure 5
1100
0000
0000
0101
0000
0000
0010
0000
0101
0000
0000
1100
0000
0000
0100
0010
,  // measure 6
0001
0000
0000
0000
1000
0000
0000
0000
1000
0000
0000
0000
0001
0000
0000
0000
0100
0000
0000
0000
0100
0000
0000
0000
0002
0000
0000
0000
0000
0000
0000
0000
0000
1003
0000
0000
0020
0000
0000
0000
0000
0000
0130
0000
0000
0000
0000
0000
,  // measure 7
0001
0000
0000
0001
0000
0000
0010
0000
0100
0000
0100
0000
0200
0000
0310
0000
,  // measure 8
0011
0000
0000
0101
0000
0000
1000
0000
1010
0000
0000
1100
0000
0000
0001
0000
,  // measure 9
0011
0000
0000
1010
0000
0000
1000
0000
1100
0000
0000
0101
0000
0000
0001
0000
,  // measure 10
0021
0000
0031
0100
1000
0010
0001
0200
,  // measure 11
0010
0000
0000
0310
0000
0000
0110
0000
1000
0000
0010
0000
0100
0001
0000
0020
,  // measure 12
0000
0000
0000
0000
0000
0000
0030
0000
0000
0000
0000
0000
0001
0100
0010
2000
,  // measure 13
0000
0000
0000
0000
0000
0000
3000
0000
0000
0000
1000
0100
1000
0100
0010
0002
,  // measure 14
0000
0000
0000
0000
0000
0000
0003
0000
1010
0000
0000
0011
0000
0000
0101
0000
,  // measure 15
0000
1100
0000
0000
2002
0000
0000
0000
3003
0000
0000
0000
1000
0100
0000
2000
,  // measure 16
0001
0000
0000
0010
0000
0000
0000
0100
0000
0000
3100
0010
0100
1000
0100
0020
,  // measure 17
0001
0000
0000
0001
0000
0000
0000
0100
0000
0000
0130
1000
0010
0100
0010
0000
,  // measure 18
0020
0000
0000
2030
0000
0000
3200
0000
0000
0302
0000
0000
0023
0000
2000
0030
,  // measure 19
0002
0000
0000
0000
0000
0000
0000
0000
3003
0000
1000
0100
0000
0100
1000
0010
,  // measure 20
2000
0000
3020
0000
0230
0000
0301
0000
1001
0000
0000
1100
0000
1000
0001
0010
,  // measure 21
0002
0000
0023
0000
0230
0000
1300
0000
1001
0000
0001
0101
0000
0100
0010
0100
,  // measure 22
0020
0000
2030
0000
3200
0000
0310
0000
0011
0000
0000
0101
0000
0001
0010
0100
,  // measure 23
0020
0000
0032
0000
0203
0000
0310
0000
1010
0000
1000
0001
0000
0010
0001
0010
,  // measure 24
0011
0000
1001
0000
0101
0000
1001
0000
1100
0000
0000
0110
0000
0010
0001
0100
,  // measure 25
0101
0000
1100
0000
0101
0000
0011
0000
1100
0000
0001
0101
0000
0010
1000
0010
,  // measure 26
1010
0000
1001
0000
1100
0000
1001
0000
0101
0000
0000
0110
0000
0010
1000
0100
,  // measure 27
0020
0000
0230
0000
0302
0000
0203
0000
2300
0000
3001
0001
0000
0001
0100
0010
,  // measure 28
1000
0000
1000
0000
0200
0000
0000
1300
0000
1000
0000
0002
0000
0000
0003
0000
,  // measure 29
0001
0000
0001
0000
0200
0000
0000
0301
0000
0001
0000
2000
0000
0000
3000
0000
,  // measure 30
0001
0000
0010
0000
0100
0000
0010
0001
0000
0100
0000
0020
0000
0000
0030
0000
,  // measure 31
1000
0000
0010
0000
0100
0000
0010
1000
0000
0100
0000
0020
0030
0000
0000
0000
,  // measure 32
0011
0000
0010
0000
1010
0000
0000
1100
0000
0100
0000
0102
0000
0000
1003
0000
,  // measure 33
1010
0000
0010
0000
0011
0000
0000
0101
0000
0100
0000
2100
0000
0000
3001
0000
,  // measure 34
0010
0000
0001
0000
0100
0000
1000
0100
0000
0010
0000
2000
0000
0000
3001
0000
,  // measure 35
2000
0000
0000
3200
0000
0000
0302
0000
0000
0023
0000
0000
2030
0000
3100
0000
,  // measure 36
1100
0000
0100
0000
1000
0000
0001
0000
0101
0000
0000
0110
0000
0100
0010
0100
,  // measure 37
0002
0000
0203
0000
0320
0000
1030
0000
1001
0000
1000
1100
0000
0100
0010
0100
,  // measure 38
0020
0000
0032
0000
0203
0000
0310
0000
1010
0000
0000
1100
0000
0100
0010
0001
,  // measure 39
2000
0000
3020
0000
0032
0000
0203
0000
1300
0000
1000
0001
0000
1000
0001
0010
,  // measure 40
0002
0000
0203
0000
0320
0000
1030
0000
1001
0000
0000
0101
0000
0100
0001
0100
,  // measure 41
0020
0000
2030
0000
3200
0000
0310
0000
0011
0000
0001
1001
0000
0001
1000
0010
,  // measure 42
2000
0000
3020
0000
0230
0000
0301
0000
1001
0000
0000
0110
0000
0100
0010
0100
,  // measure 43
0002
0000
0023
0000
2030
0000
3200
0000
0302
0000
1000
0000
1003
0001
0100
0010
,  // measure 44
1000
0100
1000
0001
0100
0001
1000
0000
1100
0000
0000
0011
0000
0010
0001
0010
,  // measure 45
0001
0100
0001
1000
0100
1000
0001
0000
1001
0000
1000
1010
0000
0010
0100
0010
,  // measure 46
1000
0010
1000
0001
0010
0001
1000
0000
1010
0000
0000
0101
0000
0100
0010
0100
,  // measure 47
0002
0000
0023
0000
2030
0000
3200
0000
0302
0000
1003
1100
0000
0010
0001
0100
,  // measure 48
0010
0000
0010
0000
0010
0001
0010
1000
1010
0000
0101
0000
0001
1000
0001
1000
,  // measure 49
0100
0000
0100
0000
0100
0001
0100
1000
1100
0000
0011
0000
1000
0001
1000
0001
,  // measure 50
0100
0000
0100
0000
0100
1000
0100
0001
0101
0000
1010
0000
0001
1000
0001
1000
,  // measure 51
0020
0000
0032
0000
0203
0000
2300
0000
3020
0000
0130
0001
0000
1000
0100
0010
,  // measure 52
0001
0000
0000
0001
0000
0000
0000
1000
0000
0000
1000
0000
0000
0000
0100
0010
,  // measure 53
0001
0000
0000
0001
0000
0000
0000
1000
0020
0000
0230
0000
0302
0000
2003
3200
,  // measure 54
0310
0000
0000
0010
0000
0000
0000
0100
0000
0000
0100
0000
0000
0000
0010
0001
,  // measure 55
1000
0000
0000
1000
0000
0000
0000
0010
0002
0000
0023
0000
2030
0000
3200
0302
,  // measure 56
0003
0000
0000
0000
;

//---------------dance-single - ----------------
#NOTES:
     dance-single:
     :
     Easy:
     3:
     0.200629,0.229248,0.033045,0.190007,0.000000,170.000000,166.000000,4.000000,23.000000,0.000000,0.000000,0.200629,0.229248,0.033045,0.190007,0.000000,170.000000,166.000000,4.000000,23.000000,0.000000,0.000000:
0000
0000
0000
0000
,
0000
0000
0000
0000
,
0000
0000
0000
0000
,
0000
0000
0000
0000
,
1001
0000
0100
0100
,
0010
0000
1000
0000
,
0001
0001
0010
0010
,
0100
0000
1000
0000
,
0010
0000
1000
1000
,
0001
0000
0100
0000
,
0010
0010
0100
0100
,
0002
0000
1000
1003
,
2002
0000
3003
0000
,
0020
0000
0030
0000
,
2000
0000
3000
0000
,
0200
0000
0300
0000
,
2000
0100
0100
3100
,
0020
0001
0001
0031
,
0200
0010
0010
0310
,
2002
0000
0000
3003
,
1000
1000
0100
0100
,
1000
1000
0001
0001
,
0010
0010
0001
0001
,
0100
0010
1000
0000
,
0001
0001
0010
0010
,
0001
0001
1000
1000
,
0100
0100
1000
1000
,
0100
0010
0001
0000
,
2000
0010
0000
3010
,
0002
0100
0000
0103
,
0020
1000
0000
1030
,
0200
0001
0000
0301
,
0100
0010
0010
0001
,
1000
0100
0100
1000
,
0010
0001
0100
1000
,
0100
0001
0010
1000
,
0100
0100
0010
0010
,
0001
1000
0001
0001
,
1000
1000
0010
0010
,
0100
0001
1000
0000
,
0010
0010
0100
0100
,
0010
0010
1000
1000
,
0001
0001
0010
0010
,
0100
1000
0002
0003
,
0100
0010
1000
1000
,
0010
0100
0001
0001
,
0010
0100
1000
1000
,
0010
1000
1001
0000
,
0001
1000
0100
0100
,
1000
0001
0100
0100
,
0010
1000
0100
0100
,
0010
0100
1000
1000
,
0002
0000
0000
2003
,
3000
0200
0300
0020
,
0030
0002
0003
2000
,
3000
0200
0300
0000
;

//---------------dance-single - ----------------
#NOTES:
     dance-single:
     :
     Medium:
     6:
     0.345790,0.416364,0.107395,0.280880,0.202399,293.000000,280.000000,13.000000,34.000000,0.000000,0.000000,0.345790,0.416364,0.107395,0.280880,0.202399,293.000000,280.000000,13.000000,34.000000,0.000000,0.000000:
0000
0000
0000
0000
,
0000
0000
0000
0000
,
0000
0000
0000
0000
,
0000
0000
0000
0000
,
1000
0000
0000
1000
0000
0000
0000
0000
0001
0000
0000
0001
0000
0000
0000
0000
,
0100
0000
0000
0100
0000
0000
0000
0000
0010
0000
0000
0010
0000
0000
0000
0000
,
1000
0000
0000
0100
0000
0000
0000
0000
0010
0000
0000
0001
0000
0000
0000
0000
,
0100
0000
0000
0010
0000
0000
0000
0000
1000
0000
0000
0001
0000
0000
0000
0000
,
1000
0000
0000
0100
0000
0000
0000
0000
0100
0000
0000
0001
0000
0000
0000
0000
,
0001
0000
0000
0010
0000
0000
0000
0000
0010
0000
0000
1000
0000
0000
0000
0000
,
2000
0000
3200
0000
0310
0001
0100
0020
,
0000
2000
0000
0000
3030
0000
0010
0000
,
2000
0000
0000
0010
0000
0000
0000
0010
0000
0000
3010
0000
0000
0000
0100
0000
,
0001
0000
0000
0001
0000
0000
0000
1000
0000
0000
1000
0000
0000
0000
0100
0000
,
0010
0000
0000
0010
0000
0000
0000
0010
0000
0000
0010
0000
0000
0000
0100
0000
,
1000
0000
0000
1000
0000
0000
0000
1000
0001
0000
0100
0000
0010
0000
1000
0002
,
0000
0100
0000
0100
0000
0103
0010
1000
,
0200
0010
0000
0010
0000
0310
0001
1000
,
0020
0000
0000
2030
0000
0000
3200
0000
0000
0320
0000
0000
0031
0000
1000
0000
,
2002
0000
0000
3003
,
1000
0000
1000
0000
0001
0000
0000
0000
0100
0000
0000
0100
0000
0000
0100
0000
,
0010
0000
0010
0000
1000
0000
0000
0000
0100
0000
0000
0100
0000
0000
1000
0000
,
0001
0000
0001
0000
0010
0000
0000
0000
0001
0000
0000
0001
0000
0000
0001
0000
,
1000
0010
0100
0001
2000
0000
3001
1000
,
0001
0000
0100
0000
0010
0000
1000
0000
0010
0000
0000
1010
0000
0000
0000
0000
,
1000
0000
0100
0000
0010
0000
0001
0000
1000
0000
0000
1001
0000
0000
0000
0000
,
0001
0000
0010
0000
0100
0000
1000
0000
0001
0000
0000
0101
0000
0000
0001
0000
,
1000
0100
0001
0100
2000
0001
3001
0000
,
2000
0010
0000
3010
,
0200
0001
0000
0301
,
1000
0100
0010
0001
0100
0010
1000
0000
,
1000
0010
0100
0001
0010
0100
1000
0000
,
1001
0000
0000
0000
1000
0000
0001
0000
0100
0000
0000
0100
0000
0000
0010
0000
,
1000
0000
0000
0000
1000
0000
0100
0000
0010
0000
0000
0010
0000
0000
0001
0000
,
1000
0000
0000
0000
1000
0000
0001
0000
0010
0000
0000
0010
0000
0000
0000
0000
,
2002
0000
0000
3003
,
0001
0000
0001
0000
0100
0000
0000
0000
0010
0000
0000
0010
0000
0000
1000
0000
,
0100
0000
0100
0000
0010
0000
0000
0000
0001
0000
0000
1000
0000
0000
0001
0000
,
0100
0000
0100
0000
0010
0000
0000
0000
1000
0000
0000
1000
0000
0000
1000
0000
,
0100
0000
0010
0000
0100
0000
1000
0000
0002
0000
0000
0103
0000
0000
0010
0000
,
1000
0000
1000
0000
0100
0000
0000
0000
0010
0000
0000
0001
0000
0000
0001
0000
,
0100
0000
0100
0000
0010
0000
0000
0000
1000
0000
0000
0001
0000
0000
0010
0000
,
0100
0000
0100
0000
1000
0000
0000
0000
0010
0000
0000
0010
0000
0000
0010
0000
,
0100
0001
1000
0100
0220
0000
0330
0000
,
1000
0000
0001
0000
1000
0000
0001
0000
0100
0000
0000
0110
0000
0000
0010
0000
,
1000
0000
0010
0000
1000
0000
0010
0000
0100
0000
0000
0110
0000
0000
0100
0000
,
0001
0000
0010
0000
0001
0000
0010
0000
0100
0000
0000
0110
0000
0000
0100
0000
,
1000
0100
0010
0001
2000
0001
3001
0000
,
0001
0000
0100
0000
0001
0000
0100
0000
0010
0000
0000
0110
0000
0000
0010
0000
,
1000
0000
0100
0000
1000
0000
0100
0000
1000
0000
0000
1001
0000
0000
0001
0000
,
1000
0000
0010
0000
1000
0000
0010
0000
0100
0000
0000
0110
0000
0000
0010
0000
,
1000
0001
0100
0010
2000
0000
3002
0000
,
0203
0000
0000
0000
0000
0000
0000
0000
0300
0000
0000
0000
0010
1000
0000
0000
,
0000
0000
0000
0000
0200
0000
0000
0000
0300
0000
0000
0000
0010
0001
0000
0000
,
0000
0000
0000
0000
2000
0000
0000
0000
3000
0000
0000
0000
0001
0010
0000
0000
,
0000
0000
0000
0000
0200
0000
0000
0000
2300
0000
3020
0000
0230
0000
0302
2003
,
3000
0000
0000
0000
;

//---------------dance-single - ----------------
#NOTES:
     dance-single:
     :
     Hard:
     8:
     0.464987,0.508889,0.173485,0.380015,0.433712,394.000000,373.000000,21.000000,46.000000,0.000000,0.000000,0.464987,0.508889,0.173485,0.380015,0.433712,394.000000,373.000000,21.000000,46.000000,0.000000,0.000000:
0000
0000
0000
0000
,
0000
0000
0000
0000
,
0000
0000
0000
0000
,
0000
0000
0000
0000
,
0001
0000
0100
0000
0010
0000
0000
0000
1010
0000
0000
0101
0000
0000
1000
0000
,
1000
0000
0100
0000
0010
0000
0000
0000
0011
0000
0000
1100
0000
0000
0001
0000
,
0001
0000
0100
0000
0110
0000
1000
0100
,
0020
0000
0000
0100
0100
0100
0130
0000
,
1000
0000
0001
0000
1000
0000
0000
0000
1100
0000
0000
0011
0000
0000
1000
0000
,
0001
0000
0100
0000
0010
0000
0000
0000
1010
0000
0000
0101
0000
0000
1000
0000
,
0002
0000
0000
0010
0000
0000
0013
0000
0200
0000
0000
1000
0000
0000
1300
0000
,
0020
0000
0000
0100
0000
0000
0130
0000
0002
0000
0000
0000
1003
0001
0000
0000
,
2000
0000
0000
0010
0000
0000
0000
0001
0000
0000
3001
0000
0000
0000
0100
0000
,
0002
0000
0000
1000
0000
0000
0000
0010
0000
0000
0013
0000
0000
0000
0001
0000
,
0200
0000
0000
0310
0000
0000
0010
0000
1000
0000
0000
1000
0000
0000
0001
0000
,
0000
0001
0000
0000
2002
0000
0000
0000
3003
0000
0000
0000
0001
0100
0000
0200
,
0000
0000
0010
0000
0000
0000
0010
0000
0000
0000
0310
0000
0010
0000
1000
0200
,
0000
0000
0010
0000
0000
0000
0310
0000
0000
0000
0100
0010
0100
0000
1000
0000
,
0002
0000
0000
0203
0000
0000
0320
0000
0000
0230
0000
0000
2300
0000
3200
0000
,
0002
0000
0303
0000
,
1000
0000
1000
0000
0100
0000
0100
0000
0010
0000
0000
0010
0000
0000
0010
0000
,
0001
0000
0001
0000
0100
0000
0100
0000
0010
0000
1000
0001
0000
1000
0010
1000
,
0001
0000
0001
0000
0010
0000
0010
0000
0100
0000
0000
0100
0000
0000
0100
0000
,
1000
0000
0010
0000
0100
0000
0001
0000
1000
0000
0100
0010
0000
0001
0010
0001
,
1000
0000
0001
0000
0100
0000
0010
0000
1000
0000
0000
1001
0000
0001
1000
0100
,
1000
0000
0010
0000
0100
0000
0001
0000
0020
0000
0000
0230
0000
1300
0100
1000
,
0001
0000
0010
0000
1000
0000
0010
0000
0001
0000
0000
1001
0000
1000
0010
1000
,
0001
0000
0100
0000
1000
0000
0100
0000
0001
0000
1000
0010
0000
1000
0100
1000
,
0010
0000
1000
0000
0100
0000
0000
0100
0000
1000
0000
0001
0000
0000
0000
0000
,
0010
0000
0001
0000
0100
0000
0000
0100
0000
0001
0000
1000
0000
0000
0000
0000
,
0001
0000
0010
0000
0100
0000
1000
0100
0000
0010
0000
0001
0000
0000
0000
0000
,
1000
0000
0100
0000
0010
0000
0001
0010
0000
0100
0000
2000
3000
0000
0000
0000
,
1000
0000
0010
0000
0001
0000
0000
0001
0000
0100
0000
2000
0000
0000
3000
0000
,
0001
0000
0010
0000
1000
0000
0000
1000
0000
0100
0000
0002
0000
0000
0003
0000
,
1000
0000
0100
0000
0010
0000
0001
0100
0000
0010
0000
2000
0000
0000
3000
0000
,
2002
0000
0000
3003
,
0001
0000
1000
0000
0010
0000
0100
0000
0001
0000
0000
1001
0000
0000
1000
0000
,
0001
0000
0100
0000
0010
0000
1000
0000
0001
0000
0000
1001
0000
0000
1000
0000
,
0010
0000
0001
0000
0010
0000
1000
0000
0001
0000
0000
1001
0000
0000
1000
0000
,
0200
0000
0302
0000
0203
0000
2300
0000
3001
0000
1000
0010
0000
0010
0100
0010
,
1000
0000
0100
0000
1000
0000
0010
0000
0100
0000
0000
0110
0000
0000
0010
0000
,
0100
0000
0001
0000
0010
0000
0001
0000
0100
0000
0000
0110
0000
0000
0010
0000
,
1000
0000
0100
0000
0001
0000
0100
0000
0010
0000
0000
0110
0000
0000
0010
0000
,
0001
0001
0100
0010
2000
0001
3001
0001
,
1000
0000
0010
0000
0100
0000
0001
0000
1000
0000
0000
0110
0000
0010
1000
0001
,
1000
0000
0010
0000
0001
0000
0010
0000
1000
0000
0001
0010
0000
0010
0100
0010
,
0001
0000
0100
0000
0010
0000
1000
0000
0001
0000
0000
0110
0000
0010
1000
0001
,
1000
0100
0001
0100
1000
1000
1000
0010
,
0100
0000
0100
0000
0100
0001
1000
0001
0020
0000
0230
0000
2300
0000
0010
0000
,
3001
0000
0001
0000
0001
1000
0010
1000
0200
0000
0320
0000
0032
0000
0100
0000
,
1003
0000
1000
0000
1000
0001
0010
0001
0200
0000
0320
0000
2030
0000
3001
0010
,
0001
0000
0100
0000
1000
0000
0100
0000
0001
0000
1000
0100
0000
0010
0001
1000
,
0010
0000
0000
0010
0000
0000
1000
0001
0000
0000
0001
1000
0000
0000
1000
0001
,
1000
0000
0000
0010
0000
0000
0010
1000
0000
0000
1000
0010
0000
0000
0010
0100
,
0010
0000
0000
0010
0000
0000
1000
0001
0000
0000
0001
1000
0000
0000
0001
0100
,
0001
0000
0000
0001
0000
0000
1000
0001
2000
0000
3020
0000
0230
0000
0302
2003
,
3000
0000
0000
0000
;

//---------------dance-single - ----------------
#NOTES:
     dance-single:
     :
     Beginner:
     1:
     0.123918,0.161919,0.008261,0.041306,0.000000,105.000000,104.000000,1.000000,5.000000,0.000000,0.000000,0.123918,0.161919,0.008261,0.041306,0.000000,105.000000,104.000000,1.000000,5.000000,0.000000,0.000000:
0000
0000
0000
0000
,
0000
0000
0000
0000
,
0000
0000
0000
0000
,
0000
0000
0000
0000
,
1000
0000
1000
0000
,
0001
0000
0001
0000
,
0100
0000
0200
0000
,
0300
0000
0001
0001
,
0001
0000
0001
0000
,
1000
0000
1000
0000
,
0100
0000
0010
0000
,
0002
0000
0003
0000
,
1000
0000
0000
0000
,
0010
0000
0000
0000
,
0100
0000
0000
0000
,
0001
0000
0000
0000
,
0010
0000
0000
0000
,
0100
0000
0000
0000
,
1000
0000
0000
0000
,
2002
0000
3003
0000
,
1000
0000
0010
0000
,
1000
0000
0001
0001
,
0001
0000
0010
0000
,
0001
0000
0100
0000
,
0001
0001
0001
0000
,
0010
0010
0010
0000
,
0100
0100
0100
0000
,
1000
1000
1000
0000
,
0001
0000
0000
0000
,
0001
0000
0000
0000
,
1000
0000
0000
0000
,
1000
0000
0000
0000
,
0001
0000
0001
0000
,
0001
0000
0001
0000
,
1000
0000
1000
0000
,
2000
0000
3000
0000
,
0001
0000
0010
0000
,
0001
0000
1000
1000
,
1000
0000
0010
0000
,
1000
1000
1000
0000
,
0100
0000
1000
0000
,
0010
0000
0100
0100
,
0100
0000
0001
0000
,
0010
0010
0010
0000
,
0001
0001
0001
0000
,
0100
0100
0100
0000
,
0010
0010
0010
0000
,
1000
1000
1000
0000
,
0100
0100
0100
0000
,
0001
0001
0001
0000
,
0010
0010
0010
0000
,
1000
1000
1000
0000
,
0100
0000
0000
0000
,
1000
0000
0000
0000
,
0001
0000
0000
0000
,
0100
0000
0000
0000
,
0010
0000
0000
0000
;
