#TITLE:Let Go for Tonight;
#SUBTITLE:;
#ARTIST:Foxes;
#TITLETRANSLIT:;
#SUBTITLETRANSLIT:;
#ARTISTTRANSLIT:;
#GENRE:;
#CREDIT:hooky & ohaiimian;
#BANNER:[ZIv Academy IV] - Let Go for Tonight.png;
#BACKGROUND:[ZIv Academy IV] - Let Go for Tonight-bg.png;
#LYRICSPATH:;
#CDTITLE:;
#MUSIC:[ZIv Academy IV] - Let Go for Tonight.ogg;
#OFFSET:0.000000;
#SAMPLESTART:55.650002;
#SAMPLELENGTH:14.306931;
#SELECTABLE:YES;
#DISPLAYBPM:140.000000;
#BPMS:0.000000=140.000000
;
#STOPS:
;
#BGCHANGES:0.000=[ZIv Academy IV] - Let Go for Tonight.avi=1.000=0=0=0=StretchNoLoop====,
99999=-nosongbg-=1.000=0=0=0 // don't automatically add -songbackground-
;
#KEYSOUNDS:;
#ATTACKS:;

//---------------dance-single - ----------------
#NOTES:
     dance-single:
     :
     Beginner:
     1:
     0.090730,0.162211,0.034330,0.060078,0.000000,74.000000,70.000000,4.000000,7.000000,0.000000,0.000000,0.090730,0.162211,0.034330,0.060078,0.000000,74.000000,70.000000,4.000000,7.000000,0.000000,0.000000:
0000
0000
0000
0000
,
0000
0000
0000
0000
,
0000
0000
0000
0000
,
0000
0000
0000
0000
,
0000
0000
0000
0000
,
1000
0000
0000
0000
,
1000
0000
0000
0000
,
0001
0000
0000
0000
,
0001
0000
0000
0000
,
1001
0000
0000
0000
,
0010
0000
0000
0000
,
0100
0000
0000
0000
,
0010
0000
0010
0000
,
0010
0000
0000
0000
,
0001
0000
0000
0000
,
1000
0000
0000
0000
,
0000
0000
0000
0000
,
1000
0000
0000
0000
,
0001
0000
0000
0000
,
0010
0000
0000
0000
,
0100
0000
0100
0000
,
0100
0000
0000
0000
,
1000
0000
0000
0000
,
1001
0000
0000
0000
,
0000
0000
0000
0000
,
0002
0000
0003
0000
,
2000
0000
3000
0000
,
0020
0000
0030
0000
,
0200
0000
0300
0000
,
0010
0000
0010
0000
,
1000
0000
1000
0000
,
1001
0000
0000
0000
,
0110
0000
0010
0000
,
0010
0000
1000
0000
,
0010
0000
0000
0000
,
0100
0000
0001
0000
,
0100
0000
0000
0000
,
0001
0000
0010
0000
,
0001
0000
0000
0000
,
1000
0000
0010
0000
,
1000
0000
0000
0000
,
0001
0000
0001
0000
,
0001
0000
0000
0000
,
1000
0000
1000
0000
,
1000
0000
0000
0000
,
0001
0000
0100
0000
,
0001
0000
0000
0000
,
1000
0000
0100
0000
,
1000
0000
0000
0000
,
0001
0000
0001
0000
,
0001
0000
0000
0000
,
1000
0000
1000
0000
,
1000
0000
0000
0000
,
0010
0000
0010
0000
,
0010
0000
0000
0000
,
0100
0000
0100
0000
,
0100
0000
0000
0000
,
0002
0000
0000
0000
,
0003
0000
0000
0000
,
0020
0000
0000
0000
,
0030
0000
0000
0000
,
0200
0000
0000
0000
,
0000
0000
0000
0000
,
0300
0000
0000
0000
;

//---------------dance-single - ----------------
#NOTES:
     dance-single:
     :
     Easy:
     3:
     0.155713,0.249110,0.085826,0.128739,0.000000,127.000000,117.000000,10.000000,15.000000,0.000000,0.000000,0.155713,0.249110,0.085826,0.128739,0.000000,127.000000,117.000000,10.000000,15.000000,0.000000,0.000000:
0000
0000
0000
0000
,
0000
0000
0000
0000
,
0000
0000
0000
0000
,
0000
0000
0000
0000
,
0000
0000
0000
0000
,
1000
0000
0000
0000
,
0001
0000
0000
0000
,
1000
0000
0000
0000
,
0001
0000
0000
0000
,
1001
0000
0100
0000
,
0001
0000
1000
0000
,
1001
0000
0001
0000
,
0010
0000
0100
0000
,
0100
0000
1000
0000
,
1000
0000
0001
0000
,
0200
0000
0000
0300
,
0010
0000
1000
0000
,
0001
0000
0001
0000
,
1000
0000
1000
0000
,
0100
0000
0100
0000
,
0010
0000
0010
0000
,
0001
0000
0010
0000
,
0100
0000
1000
0000
,
0020
0000
0000
0030
,
0100
0000
0001
0000
,
1000
0100
1000
0000
,
0001
0100
0001
0000
,
0010
0100
1000
0000
,
0010
0100
0001
0000
,
1000
0000
1000
0000
,
0001
0000
0001
0000
,
2000
0000
0000
3000
,
0002
0000
0010
0013
,
0100
0100
0100
0000
,
1000
1000
1000
0000
,
0001
0001
0001
0000
,
0010
0010
0010
0000
,
0110
0000
1001
0000
,
0110
0000
1001
0000
,
1000
0100
0010
0001
,
0200
0000
0300
0000
,
0010
0010
0000
1000
,
1000
0000
0010
0000
,
0100
0100
0000
0001
,
0001
0000
0020
0000
,
0130
0000
0010
0000
,
0001
1000
0001
0000
,
0001
0100
0010
1000
,
0200
0000
0300
0000
,
0010
0000
0001
0000
,
0100
0000
0110
0000
,
0010
0000
1000
0000
,
0100
0000
0110
0000
,
0001
0000
1001
0000
,
1000
0000
1001
0000
,
0010
0000
0000
0010
0000
0000
0020
0000
,
0000
0000
0000
0030
,
2000
0000
0000
0000
,
3002
0000
0000
0000
,
0203
0000
0000
0000
,
0320
0000
0000
0000
,
0230
0000
0000
0000
,
0302
0000
0000
0000
,
2003
0000
0000
0000
,
0000
0000
3000
0000
;

//---------------dance-single - ----------------
#NOTES:
     dance-single:
     :
     Medium:
     6:
     0.256251,0.415183,0.214565,0.205982,0.000000,209.000000,184.000000,25.000000,24.000000,0.000000,0.000000,0.256251,0.415183,0.214565,0.205982,0.000000,209.000000,184.000000,25.000000,24.000000,0.000000,0.000000:
0000
0000
0000
0000
,
0000
0000
0000
0000
,
0000
0000
0000
0000
,
0000
0000
0000
0000
,
0000
0000
0000
0000
,
1001
0000
0000
0000
0000
0000
0000
0001
,
0001
0000
0000
0000
,
1010
0000
0000
0000
0000
0000
0000
1000
,
1000
0000
0000
0000
,
0001
0000
0000
0000
0100
0001
0010
0000
,
0001
0000
0000
0000
1000
0010
0100
0000
,
0001
0000
0000
0000
0001
0010
0100
1000
,
0000
0001
0000
0100
0000
0100
0000
0110
,
0000
0101
0000
0000
0001
0000
0001
0100
,
0000
0100
0000
0010
0000
0000
1000
1000
,
0002
0000
0010
0000
,
0100
0000
0010
0013
,
0101
0000
0000
0000
0100
0010
1000
0000
,
1100
0000
0000
0000
1000
0010
0100
0000
,
0110
0000
0000
0000
0100
0000
0001
0010
,
0000
0010
0000
0001
0000
0000
1000
1000
,
0000
0001
0000
0000
0100
0000
0100
0001
,
0000
0100
0000
1000
0000
0000
0100
0001
,
2000
0000
0010
0000
,
0001
0000
0100
3000
,
0002
0103
0020
1030
,
2000
3100
2000
3001
,
0002
0103
0002
0013
,
0001
0000
1000
0001
1000
0000
0000
0000
,
0100
0100
0100
0000
,
0010
0000
0010
0000
0000
0001
1000
0002
,
0000
0000
0000
2003
0000
0000
3020
0000
,
0100
0000
0130
0000
0010
0000
0010
0020
,
0000
0000
1030
0000
1000
0010
0100
0001
,
0000
0000
0010
0000
0000
0001
0000
0001
,
0101
0000
0011
0000
0001
0010
0001
0100
,
0000
0010
0000
1010
0000
1100
0000
0000
,
1001
0000
0110
0000
0010
1000
0100
2000
,
0000
0000
0001
0000
0000
3001
0000
0000
,
0001
0100
0000
0001
0000
0010
0000
0020
,
0000
0130
0000
0000
0000
1000
0001
1000
,
1000
0000
1001
0000
0000
0001
0000
0101
,
0000
0000
0100
0000
0001
0010
0001
0000
,
0100
0000
0110
0000
0000
1000
0000
2200
,
0000
0000
3300
0000
0010
0010
0010
0000
,
0110
0000
0101
0000
0001
0010
0100
0000
,
1000
0001
0100
0100
,
0001
1000
0000
0001
0000
0100
0000
0001
,
0000
0010
0000
0001
0100
0000
0010
0000
,
1000
0000
1100
0000
,
1000
0000
1001
0000
,
0001
0000
0101
0000
,
0100
0000
0110
0000
,
0010
0000
1010
0000
,
0010
0000
0011
0000
,
0001
0000
0000
0001
0000
0000
0002
0000
,
0000
0000
0000
0003
,
2000
0000
0000
3000
,
0200
0000
0000
0300
,
0002
0000
0000
0003
,
0200
0000
0000
0300
,
2000
0000
0000
3000
,
0020
0000
0000
0030
,
0200
0000
0000
0000
,
0000
0000
0300
0000
;

//---------------dance-single - ----------------
#NOTES:
     dance-single:
     :
     Hard:
     8:
     0.371503,0.498219,0.163069,0.223147,0.017165,303.000000,284.000000,19.000000,26.000000,0.000000,0.000000,0.371503,0.498219,0.163069,0.223147,0.017165,303.000000,284.000000,19.000000,26.000000,0.000000,0.000000:
// measure 0
0000
0000
0000
0000
,  // measure 1
0000
0000
0000
0000
,  // measure 2
0000
0000
0000
0000
,  // measure 3
0000
0000
0000
0000
,  // measure 4
0000
0000
0000
0000
,  // measure 5
1001
0000
0000
0000
0000
0000
0000
1000
,  // measure 6
1100
0000
0000
0000
,  // measure 7
1001
0000
0000
0000
0000
0000
0000
0001
,  // measure 8
0101
0000
0000
0000
,  // measure 9
0022
0000
0033
0000
0001
1000
0010
0010
,  // measure 10
0200
0000
0300
0000
0001
1000
0010
1000
,  // measure 11
1001
0000
0100
0001
0010
0001
1000
0001
,  // measure 12
0000
1000
0001
0100
0000
0100
0001
0010
,  // measure 13
0001
0100
0000
0000
0100
0010
1000
0010
,  // measure 14
0100
0001
0000
0010
0000
0000
0100
1000
,  // measure 15
2000
0010
0100
3001
,  // measure 16
0020
0100
0001
1030
,  // measure 17
0100
0000
0010
0000
0001
1000
0010
0100
,  // measure 18
0010
0000
1000
0000
1000
0100
1000
0010
,  // measure 19
1000
0000
0001
0000
0010
0100
1000
0010
,  // measure 20
0200
0000
0310
1000
0002
0000
1003
0100
,  // measure 21
0010
0100
1000
0000
0001
0100
0010
1000
,  // measure 22
0100
0000
0010
0001
0100
0000
0010
1000
,  // measure 23
0200
0001
0010
1000
,  // measure 24
0320
0001
0100
0031
,  // measure 25
1000
0010
0100
0000
0001
0010
0100
0000
,  // measure 26
1000
0001
1000
0100
0000
1000
0100
0001
,  // measure 27
0100
1000
1000
0010
0001
0010
1000
1000
,  // measure 28
1000
0010
0001
0100
1000
0001
0100
0010
,  // measure 29
0100
0001
0100
1000
0100
0001
0000
1000
,  // measure 30
0100
0001
0100
1000
0000
0010
0100
0001
,  // measure 31
2000
3100
0200
1300
,  // measure 32
0010
0000
0100
0000
0010
0010
0010
0020
,  // measure 33
0100
0030
1000
0010
1000
0100
1000
0001
,  // measure 34
0001
0100
0001
0010
0001
0100
0100
0010
,  // measure 35
0110
0000
1010
0000
1000
0001
0010
0001
,  // measure 36
1000
0001
1000
0001
0001
1000
0001
0000
,  // measure 37
0101
0000
0110
0000
0010
1000
0100
1000
,  // measure 38
0001
0010
0001
0002
0000
1003
0000
0000
,  // measure 39
0010
1000
0100
0001
0010
1000
0001
1000
,  // measure 40
0000
0002
0000
0000
0100
0100
0103
0000
,  // measure 41
0010
1001
0100
1001
,  // measure 42
1000
0000
0100
0000
0010
0000
0001
0010
0000
0001
0100
0000
0010
0000
1000
0000
,  // measure 43
0001
0110
1000
0110
,  // measure 44
0001
0000
0100
0000
0010
0000
1000
0010
0000
1000
0100
0000
0010
0000
0001
0000
,  // measure 45
1000
0000
1001
0001
0010
1000
0100
0001
,  // measure 46
1000
0100
0010
0001
0001
0100
0010
0000
,  // measure 47
1000
0100
0020
0000
0031
0100
0002
0000
,  // measure 48
0013
0100
2000
0000
3010
0100
0020
0000
,  // measure 49
1030
0100
1100
0000
,  // measure 50
0001
0000
0010
0000
0011
0100
0000
0000
,  // measure 51
0010
1000
1010
0000
,  // measure 52
0100
0000
0001
0000
0101
0100
0000
0000
,  // measure 53
0010
1000
0100
0000
0000
1000
1000
0001
,  // measure 54
0000
0000
0100
0000
0001
0010
1000
0010
,  // measure 55
0001
0000
0000
0001
0000
0000
0002
0000
,  // measure 56
0000
0000
0003
0000
,  // measure 57
0020
0000
0000
0000
,  // measure 58
0230
0000
0000
0000
,  // measure 59
2300
0000
0000
0000
,  // measure 60
3020
0000
0000
0000
,  // measure 61
0230
0000
0000
0000
,  // measure 62
0302
0000
0000
0000
,  // measure 63
2003
0000
0000
0000
,  // measure 64
0000
0000
3000
0000
;
