#TITLE:China Dress;
#SUBTITLE:;
#ARTIST:Memme;
#TITLETRANSLIT:;
#SUBTITLETRANSLIT:;
#ARTISTTRANSLIT:;
#GENRE:Oriental core;
#CREDIT:DigitalBasic+TiKAL;
#BANNER:[ZIv Academy IV] - China Dress.png;
#BACKGROUND:[ZIv Academy IV] - China Dress-bg.png;
#LYRICSPATH:;
#CDTITLE:cdtitle.png;
#MUSIC:[ZIv Academy IV] - China Dress.ogg;
#OFFSET:0.006000;
#SAMPLESTART:61.708000;
#SAMPLELENGTH:21.943001;
#SELECTABLE:YES;
#BPMS:0.000000=175.000000
;
#STOPS:
;
#BGCHANGES:;
#KEYSOUNDS:;
#ATTACKS:;

//---------------dance-single - DigitalBasic+TiKAL----------------
#NOTES:
     dance-single:
     DigitalBasic+TiKAL:
     Challenge:
     11:
     0.970385,0.997377,0.304390,0.304390,0.821051,848.000000,810.000000,38.000000,38.000000,0.000000,0.000000,0.970385,0.997377,0.304390,0.304390,0.821051,848.000000,810.000000,38.000000,38.000000,0.000000,0.000000:
0000
0000
0000
0000
,
0000
0000
0000
0000
,
0000
0000
0000
0000
,
0000
0000
0000
0000
,
0000
0000
0000
0000
,
0001
0100
1000
0100
0010
1000
0001
0010
,
0000
0010
0001
1000
0100
0001
0100
0010
,
0001
1000
0001
0100
0010
1000
0100
0010
,
0100
0000
0010
0000
0001
0000
1000
0100
0010
0100
1000
0001
0010
0100
0010
0001
,
1000
1000
1000
0010
0100
0100
0100
0000
,
0001
0000
0001
0010
0001
0000
0010
0000
0100
1000
0100
1000
0200
0000
0000
0000
,
1300
0000
0000
0000
0000
0000
1000
0000
0000
0000
0000
0000
1000
0000
0000
0000
0000
0000
0100
0000
0000
0000
0000
0000
0010
0000
0000
0000
0000
0000
0010
0000
0000
0001
0000
0000
0010
0000
0000
0000
0000
0000
0400
0000
0000
0000
0300
0000
,
1001
0000
0110
0000
1001
0000
0000
0000
0001
0100
0010
1000
0001
0010
0100
1000
,
0001
0000
0001
0100
0001
0000
1000
0000
0010
0000
0100
0000
1000
0000
0100
0000
,
0001
0000
1000
0100
0010
0001
1000
0000
0001
0010
0100
1000
0001
0000
0001
0000
,
1000
0000
1000
0100
1000
0000
0001
0000
0010
0000
0100
0000
0001
0000
0100
0000
,
1000
0000
0001
0100
0010
1000
0001
0100
0010
0100
0001
1000
0100
0000
0100
0000
,
1000
0000
1000
0010
1000
0000
0001
0000
0100
0000
0010
0000
0001
0000
0010
0000
,
1000
0000
0001
0010
0100
1000
0001
0000
1000
0100
0010
0001
1000
0000
1000
0000
,
0001
0000
0001
0010
0001
0000
1000
0000
0001
0000
0100
0000
0010
0000
1000
0000
,
0001
0000
1000
0010
0100
0001
0100
0010
0100
0000
0000
0000
0010
1000
0001
0000
,
0101
0000
0101
0000
1001
0000
1000
1100
,
0000
0000
1000
0100
1000
0010
0100
0001
0100
0000
0000
0000
0100
0010
1000
0001
,
1000
0000
1100
0000
1001
0000
0001
0101
,
0000
0000
0001
0100
0001
1000
0100
0010
0100
0000
0000
0000
0100
1000
0001
0010
,
0001
0000
0011
0001
1001
1000
0010
0110
,
0000
0000
0010
1000
0001
0100
0010
1000
0001
0000
0000
0000
0001
0100
0010
1000
,
0010
0000
1010
1000
1001
0001
0010
0110
,
0000
0000
0010
0100
1000
0100
0010
0001
1000
0010
0100
0001
0100
0010
1000
0001
,
2000
0000
0000
0000
3100
0000
0010
0000
0001
0010
0100
1000
0001
0000
0200
0000
,
0000
0000
0310
1000
0001
0010
0001
1000
0002
0000
0003
0000
0001
0100
0010
1000
,
0002
0000
0000
0000
0103
0000
0010
0000
1000
0010
0100
0001
1000
0000
0200
0000
,
0000
0000
0310
0100
0010
0001
1000
0010
0200
0000
0300
0000
0001
0100
0010
1000
,
0002
0000
0000
0000
0013
0100
1000
0001
1000
0010
0100
0001
1000
0000
0020
0000
,
0030
0000
0100
0001
1000
0100
0010
0001
2000
0000
0000
3000
1000
0010
0100
0001
,
1000
0000
0100
1000
0001
1000
0010
0100
0001
1000
0100
0010
0100
1000
0001
0000
,
0101
0000
0000
1001
0000
0000
1100
0000
0000
0000
0220
0000
0000
0000
0330
0000
,
1000
0100
1000
0100
1100
0100
0010
0010
,
0001
0100
0001
0100
0101
0100
0010
0010
,
1000
0010
1000
0010
1010
0010
0100
0100
,
0001
0010
0001
0010
0011
0010
0100
0100
,
1000
0010
0010
1000
1010
1000
0100
0100
,
0010
0001
0001
0010
0011
0010
0100
0100
,
1000
0000
0001
1000
0001
0000
1000
0010
1000
0000
0001
0100
0001
0000
1000
0001
,
1001
0000
0001
0010
0100
0000
1000
0000
0000
0000
1000
0001
0100
0010
0100
0001
,
2000
0000
0000
3001
0010
0000
0100
0000
1000
0001
0100
0010
1000
0000
0100
0000
,
0010
0000
0001
0010
0100
1000
0100
1000
0001
0100
0010
1000
0010
0000
0200
0000
,
0302
0000
0000
0013
0001
0000
0010
0000
2000
0000
0000
3010
1000
0000
0010
0000
,
0002
0000
0103
0001
1000
0100
0010
0001
1000
0001
0100
0010
1000
0000
1000
0000
,
0002
0000
0000
1003
0010
0000
0100
0000
0001
1000
0100
0010
0001
0000
0100
0000
,
0010
0000
1000
0010
0100
0001
0100
0001
1000
0100
0010
0001
0010
0000
0010
0000
,
0200
0000
1300
0100
0010
0000
0020
0000
0130
0010
0001
0000
0002
0000
0013
0001
,
0100
0000
0001
0100
0010
1000
0001
0010
0100
0000
0100
0000
2100
0000
0000
0000
,
3001
0001
0001
0100
0001
0010
0010
0001
,
1000
1000
1000
0010
0100
0100
0010
0100
,
0001
0001
0001
1000
0100
1000
1000
0001
,
1000
0100
0010
0001
0010
0100
1000
0001
0100
0010
1000
0010
0100
0001
1000
0001
,
0010
0010
0010
0001
1000
0010
0010
0100
,
0001
0001
0001
1000
0100
1000
1000
0001
,
1000
1000
1000
0010
0100
0001
0001
0101
,
0000
0000
0000
0001
0000
0000
0100
0000
0000
0010
0000
0000
0100
0000
0000
0010
0100
0010
0100
0000
0000
0000
0000
0000
,
0001
0001
0001
0010
0100
0100
0100
0000
,
1000
0000
1000
0010
1000
0000
0010
0000
0100
0001
0100
0001
0200
0000
0000
0000
,
0301
0000
0000
0000
0000
0000
0001
0000
0000
0000
0000
0000
0001
0000
0000
0000
0000
0000
0100
0000
0000
0000
0000
0000
0010
0000
0000
0000
0000
0000
0010
0000
0000
1000
0000
0000
0010
0000
0000
0000
0000
0000
0400
0000
0000
0000
0300
0000
,
1001
0000
0110
0000
1001
0000
0000
0000
1000
0100
0010
0001
1000
0010
0100
0001
,
2000
0000
0000
3001
0100
0000
0010
0000
1000
0001
0010
0100
1000
0000
0010
0000
,
0100
0000
0001
0100
0010
1000
0010
1000
0001
0010
0100
1000
0100
0000
0020
0000
,
0032
0000
0000
0103
0001
0000
0100
0000
2000
0000
0000
3100
1000
0000
0100
0000
,
0002
0000
0013
0001
1000
0010
0100
0001
1000
0001
0010
0100
1000
0000
1000
0000
,
0002
0000
0000
1003
0100
0000
0010
0000
0001
1000
0010
0100
0001
0000
0010
0000
,
0100
0000
1000
0100
0010
0001
0010
0001
1000
0010
0100
0001
0100
0000
0100
0000
,
0020
0000
1030
0010
0100
0000
0200
0000
0310
0100
0001
0000
0002
0000
0103
0001
,
0010
0000
0001
0010
0100
1000
0001
0100
0010
0000
0010
0000
1000
0010
0100
0000
,
0002
0000
0000
1003
0001
0000
0010
0000
0001
0010
0100
0010
0001
0000
1000
0000
,
0010
0000
0100
0010
1000
0001
0100
0010
0100
0001
1000
0100
0010
0000
0100
0000
,
0020
0000
0000
0130
0010
0000
0001
0000
2000
0000
0000
3001
1000
0000
0010
0000
,
0200
0000
0000
0310
0100
0010
1000
0001
0010
0100
0010
0100
1000
0000
0001
0000
,
0200
0000
0000
0310
0100
0000
1000
0000
0100
0010
1000
0010
0100
0000
0001
0000
,
0020
0000
0000
0130
0010
0001
0010
0100
1000
0100
0010
0001
0100
0000
0010
0000
,
0110
0000
0010
0100
0010
0000
1010
0000
1000
0010
1000
0000
1001
0000
0001
1000
,
0001
0000
1000
0100
0010
0001
1000
0010
0100
0000
0100
0000
0010
0000
0000
0000
,
1001
0000
1000
0100
0010
0100
0010
0001
,
0000
1000
1000
0000
0001
0001
0001
0000
,
1000
0001
0100
0010
1000
0010
0100
0001
,
0000
1000
0100
0010
0001
0010
0100
1000
,
1001
0000
0001
0100
0010
0100
0010
1000
,
0000
0001
0001
0000
1000
1000
1000
0000
,
0001
1000
0100
0010
0001
0010
0100
1000
,
0001
0100
0000
0010
1000
0000
1001
0000
0000
0000
1000
0100
0010
0001
1000
0100
;

//---------------dance-single - ----------------
#NOTES:
     dance-single:
     :
     Hard:
     9:
     0.657985,0.605125,0.112144,0.080103,0.168215,575.000000,561.000000,14.000000,10.000000,0.000000,0.000000,0.657985,0.605125,0.112144,0.080103,0.168215,575.000000,561.000000,14.000000,10.000000,0.000000,0.000000:
0000
0000
0000
0000
,
0000
0000
0000
0000
,
0000
0000
0000
0000
,
0000
0000
0000
0000
,
0000
0000
0000
0000
,
1000
0100
0010
0100
1000
0100
0010
0001
,
0000
0001
0100
0010
0100
0001
1000
0010
,
1000
0100
0010
0001
0100
0010
1000
0001
,
0020
0000
0001
0031
,
0001
0100
0010
0000
0010
0100
0001
0000
,
1000
0100
0010
0000
0010
0100
1000
0000
,
0010
0100
0001
0000
0010
0100
1000
0000
,
1000
0001
0010
0000
0011
0000
1100
0000
,
1000
0010
0010
0100
0001
0010
0100
0010
,
0001
0000
0000
0001
0010
0000
0000
0010
0100
0000
0010
0000
0100
0000
0100
0000
,
1000
0001
0001
0100
0010
0100
0001
1000
,
0010
0000
0000
0010
1000
0000
0001
0000
0010
0000
1000
0000
0010
0000
0100
0000
,
0010
0001
0001
0100
1000
0100
0010
0100
,
0001
0000
0000
0001
0100
0000
0000
0100
0010
0000
0100
0000
0001
0000
0010
0000
,
0100
0100
0100
0010
0001
0100
0010
1000
,
0001
0000
0000
0001
1000
0000
0010
0000
0100
0000
0000
0000
0100
0000
0010
0000
,
1000
0000
0001
0000
1001
0000
0000
0011
,
0000
0000
0010
0001
0010
0000
0001
0000
0100
0000
0000
0000
0010
0000
0100
0000
,
0001
0000
1000
0000
1001
0000
0000
1010
,
0000
0000
1000
0010
1000
0000
0010
0000
0100
0000
0000
0000
0100
0000
0001
0000
,
0010
0000
0100
0001
0100
1000
0010
0100
,
0000
0000
0100
0010
0100
0000
0010
0000
1000
0000
0000
0000
1000
0000
0001
0000
,
0100
0000
0010
0001
0010
1000
0100
0001
,
0000
0000
0001
0100
1000
0000
0100
0000
1000
0000
0010
0000
0100
0000
0000
0000
,
0020
0000
0000
0130
0001
1000
0100
0010
,
0000
0010
0100
1000
0001
0000
0001
0100
,
0020
0000
0000
0130
0001
0010
0100
0010
,
0000
0100
1000
0001
0100
0000
0100
0001
,
2000
0000
0000
3100
1000
0100
0001
0100
,
0000
0010
0001
1000
0010
0000
0100
0001
,
1000
0000
0000
1000
0001
0000
0000
0001
1000
0000
0100
0000
1000
0000
0010
0000
,
0100
0000
0000
0010
0000
0000
0100
0000
0000
0000
0101
0000
0000
0000
0000
0000
,
0001
0010
0011
1000
,
0100
1000
1100
0001
,
0100
0001
0101
1000
,
0010
1000
1010
1000
,
0200
0000
0001
0000
1000
0000
0310
0100
,
0020
0000
0001
0000
1000
0000
0031
0100
,
0020
0000
0001
0000
1000
0000
0031
0010
,
0100
0000
0000
0000
0100
0000
0010
0000
0000
0000
0100
0010
0100
0000
0000
0000
,
0001
0000
0000
0001
1000
0000
0010
0000
1000
0000
0100
0000
1000
0000
0001
0000
,
0100
1000
0100
0001
0100
0010
1000
0001
,
0010
0000
0000
0010
0100
0000
1000
0000
0010
0000
0000
0010
0100
0000
0001
0000
,
0010
0000
0000
0010
0100
0000
1000
0000
0001
0000
0100
0000
0010
0000
0001
0000
,
0010
0000
0000
0010
0100
0000
0001
0000
1000
0000
0010
0000
0001
0000
0010
0000
,
0100
0000
0000
0100
0001
0000
1000
0000
0100
0000
0001
0000
0100
0000
0010
0000
,
0001
0000
0000
0001
0100
0000
0010
0000
0000
0100
0010
0000
1000
0000
0000
0010
,
1000
0001
0010
0100
1000
0001
1000
0000
,
0001
0100
0010
0000
1000
0010
0100
0000
,
0001
0010
0100
0000
1000
0100
0010
0000
,
0001
0100
1000
0000
1000
0100
0010
0000
,
1000
0100
0001
1000
0010
0001
0100
0000
,
0010
0100
0001
0000
0010
0001
1000
0000
,
0010
1000
0001
0000
0010
0001
0100
0000
,
0010
1000
0100
0000
0010
0001
1000
0010
,
0000
0010
0100
0001
2000
0000
3001
0000
,
0001
0010
0100
0000
0100
0010
0001
0000
,
1000
0010
0100
0000
0100
0010
1000
0000
,
0001
0010
1000
0000
1000
0010
0001
0000
,
1000
0001
0100
0000
0101
0000
1010
0000
,
1000
0000
0000
1000
0001
0000
0010
0000
0001
0000
0010
0000
0100
0000
0001
0000
,
0100
1000
0100
0010
0001
1000
0010
0100
,
0010
0000
0000
0010
0100
0000
0001
0000
0010
0000
0000
0010
0100
0000
1000
0000
,
0010
0000
0000
0010
0100
0000
0001
0000
1000
0000
0010
0000
0001
0000
0010
0000
,
0100
0000
0000
0100
0001
0000
1000
0000
0010
0000
0001
0000
0010
0000
0100
0000
,
0001
0000
0000
0001
0100
0000
0001
0000
0010
0000
0100
0000
0010
0000
0001
0000
,
1000
0000
0000
1000
0100
0000
0010
0000
0000
0100
0010
0000
0001
0000
0000
0001
,
0010
0001
0100
0010
1000
0001
1000
1000
,
0001
0000
0000
0001
1000
0000
0010
0000
1000
0000
0010
0000
0100
0000
1000
0000
,
0100
0001
0100
0010
1000
0001
0010
0100
,
0010
0000
0000
0010
0100
0000
1000
0000
0010
0000
0000
0010
0100
0000
0001
0000
,
0010
0000
0000
0010
0100
0000
1000
0000
0001
0000
0010
0000
1000
0000
0010
0000
,
0100
0000
0000
0100
1000
0000
0001
0000
0010
0000
1000
0000
0010
0000
0100
0000
,
1000
0000
0000
1000
0100
0000
1000
0000
0010
0000
0100
0000
0010
0000
1000
0000
,
0001
0000
0000
0001
0100
0000
0010
0000
0000
0100
0010
0000
1000
0000
0000
1000
,
0010
1000
0100
0010
0001
1000
0001
0000
,
1000
0010
0100
0010
1000
0001
0010
0100
,
0000
0100
0010
0001
0100
1000
0100
0000
,
0001
0000
0001
0000
0010
0100
0010
0001
,
0000
0001
1000
0001
0100
0010
0100
0000
,
0001
0010
0100
0010
0001
1000
0010
0100
,
0000
0100
0010
1000
0100
0010
0100
1000
,
0001
0100
0010
0000
0010
0100
0001
1000
,
0001
0000
0000
1000
0000
0000
0001
0000
0000
0000
0220
0000
0000
0000
0330
0000
;

//---------------dance-single - ----------------
#NOTES:
     dance-single:
     :
     Easy:
     4:
     0.324987,0.390450,0.088113,0.192246,0.000000,284.000000,273.000000,11.000000,24.000000,0.000000,0.000000,0.324987,0.390450,0.088113,0.192246,0.000000,284.000000,273.000000,11.000000,24.000000,0.000000,0.000000:
0000
0000
0000
0000
,
0000
0000
0000
0000
,
0000
0000
0000
0000
,
0000
0000
0000
0000
,
0000
0000
0000
0000
,
1000
0000
0001
0000
,
0100
0000
0010
0000
,
1000
0001
0010
0100
,
0020
0000
0000
0000
,
0031
0000
0001
0000
,
1000
0000
1000
0000
,
0010
0000
0010
0000
,
0100
0100
0010
0000
,
0001
0100
0001
1000
,
0100
0001
0100
1000
,
0010
0100
0010
1000
,
0001
0100
1000
0100
,
0001
0010
0001
1000
,
0010
0001
0010
1000
,
0001
1000
0100
1000
,
0001
0100
0010
0000
,
0010
0000
0100
0000
0110
0000
0000
0110
,
0000
0001
1000
0010
,
0100
0000
0010
0000
0110
0000
0000
0110
,
0000
0100
0001
1000
,
0100
0000
1000
0000
0100
0000
0000
1100
,
0000
1000
0001
0100
,
0010
0000
1000
0000
0001
0000
0000
1001
,
0000
0001
0010
0100
,
2000
0000
3001
0100
,
0001
0010
0001
1000
,
0002
0000
1003
0010
,
1000
0100
1000
0001
,
0200
0000
0310
0100
,
0001
1000
0010
1000
,
0100
0100
0010
0001
,
1000
0000
0000
0001
0000
1001
0000
0000
,
0002
0000
0203
0000
,
0320
0000
2030
0000
,
3200
0000
0320
0000
,
0032
0000
2003
0000
,
3020
0000
0230
0000
,
0302
0000
2003
0000
,
3200
0000
0320
0000
,
0130
0000
0000
0110
0000
0000
0000
0000
,
0001
0100
0001
0001
,
1000
0100
0001
0100
,
0010
0001
0010
0100
,
1000
0010
1000
1000
,
0001
0100
0010
0010
,
0001
0100
0010
1000
,
0001
0000
0000
0010
0000
0000
0100
0000
,
0000
1000
0000
0000
0001
0000
0001
0000
,
2000
0100
0000
3100
,
0200
0010
0000
0310
,
0020
0001
0000
0031
,
0001
0100
1000
0010
,
0002
0100
0000
0103
,
0200
0010
0000
0310
,
0020
1000
0000
1030
,
0000
1000
0001
1001
,
0001
0000
1000
0000
,
0100
0000
0010
0000
,
0001
1000
0010
0100
,
0010
0010
0000
0110
,
0010
1000
0001
0010
,
0001
0001
1000
1000
,
0010
0100
0001
0100
,
0010
0100
0001
0010
,
0100
1000
0100
0010
,
0001
0001
1000
1000
,
0010
0000
0000
0100
0000
0000
0001
0000
,
0000
1000
0000
0000
0001
0000
0001
0000
,
0010
0001
1000
0010
,
1000
1000
0001
0001
,
0010
0100
1000
0100
,
0010
0100
1000
0010
,
0100
0001
0100
0010
,
1000
1000
0001
0001
,
0010
0000
0000
0100
0000
0000
1000
0000
,
0000
0001
0000
0000
1000
0000
0001
0000
,
1000
0000
0010
0100
,
0010
0000
0100
0001
,
1000
1000
0100
1000
,
1000
0000
0001
0100
,
0001
0000
1000
0010
,
1000
0000
0001
0100
,
0010
0100
0001
1000
,
0100
0000
0000
0010
0000
0110
0000
0000
;

//---------------dance-single - ----------------
#NOTES:
     dance-single:
     :
     Medium:
     7:
     0.532110,0.532432,0.088113,0.088113,0.008010,465.000000,454.000000,11.000000,11.000000,0.000000,0.000000,0.532110,0.532432,0.088113,0.088113,0.008010,465.000000,454.000000,11.000000,11.000000,0.000000,0.000000:
// measure 0
0000
0000
0000
0000
,  // measure 1
0000
0000
0000
0000
,  // measure 2
0000
0000
0000
0000
,  // measure 3
0000
0000
0000
0000
,  // measure 4
0000
0000
0000
0000
,  // measure 5
1000
0000
0010
0000
0100
0000
0010
1000
,  // measure 6
0000
1000
0010
0000
0100
0000
0001
0000
,  // measure 7
0010
0000
0001
0000
0010
0000
0100
0010
,  // measure 8
0100
0010
0001
0000
1000
0010
0100
0001
,  // measure 9
1000
0100
0001
0100
,  // measure 10
1000
0010
0001
0010
,  // measure 11
1000
0100
0001
0100
,  // measure 12
0010
0001
0010
0000
0011
0000
0101
0000
,  // measure 13
0001
1000
0010
1000
,  // measure 14
0100
0000
0100
1000
0010
0100
0001
0010
,  // measure 15
0100
0010
0001
1000
,  // measure 16
0010
0000
0100
0001
1000
0001
0100
0010
,  // measure 17
1000
0100
1000
0001
,  // measure 18
0010
0000
0001
0010
0001
0100
0010
1000
,  // measure 19
0001
0001
0100
0010
,  // measure 20
0100
0001
1000
0010
0100
0000
0010
0000
,  // measure 21
0100
0000
0001
0000
0101
0000
0000
0011
,  // measure 22
0000
0001
1000
0000
0100
0000
0010
0100
,  // measure 23
1000
0000
0100
0000
1100
0000
0000
0110
,  // measure 24
0000
0100
1000
0000
0001
0100
0010
0000
,  // measure 25
0010
0000
0100
0001
0010
0000
0010
0100
,  // measure 26
0000
0100
0010
0000
0001
1000
0010
0000
,  // measure 27
0010
0000
1000
0100
0010
0000
0010
0100
,  // measure 28
0000
0100
1000
0000
0001
0100
0010
0000
,  // measure 29
0200
0000
0000
0301
0100
0001
0010
0001
,  // measure 30
0000
0001
0010
0000
0001
0000
1000
0010
,  // measure 31
2000
0000
0000
3010
1000
0100
1000
0010
,  // measure 32
0000
0010
0100
0000
0001
0000
0001
0010
,  // measure 33
0002
0000
0000
0013
0001
0100
0010
1000
,  // measure 34
0000
1000
0010
0000
0100
0000
0100
0001
,  // measure 35
1000
0000
1000
0100
0010
0001
0100
0010
,  // measure 36
1000
0000
0000
0100
0000
0000
0010
0000
0000
0000
0110
0000
0000
0000
0000
0000
,  // measure 37
1000
0100
1000
0000
0001
0100
0001
0000
,  // measure 38
1000
0010
1000
0000
0001
0010
0001
0000
,  // measure 39
1000
0010
1000
0000
0001
0100
0001
0000
,  // measure 40
1000
0100
1000
0000
0001
0010
0001
0000
,  // measure 41
0100
0001
0100
0000
1000
0010
1000
0000
,  // measure 42
1000
0100
1000
0000
0001
0010
0001
0000
,  // measure 43
0200
0000
0300
0100
0020
0000
0000
0000
,  // measure 44
0130
0000
0100
0001
0000
0001
1000
0000
,  // measure 45
0001
0000
0100
0001
1000
0000
0100
0000
,  // measure 46
1000
0100
0010
0001
1000
0100
1000
0010
,  // measure 47
1000
0000
0010
0100
0010
0000
1000
0001
,  // measure 48
1000
0000
0100
1000
0100
0010
0001
1000
,  // measure 49
0001
0000
0100
0010
1000
0000
0100
0000
,  // measure 50
0010
0000
0100
0010
0001
0010
0100
1000
,  // measure 51
0010
0000
0010
0100
0000
0100
0001
0000
,  // measure 52
0001
1000
0000
1000
0001
0010
0001
0000
,  // measure 53
0002
0100
0010
0100
,  // measure 54
2003
0010
0100
0010
,  // measure 55
3002
0100
0010
0100
,  // measure 56
1003
0100
0010
0000
0001
0100
0010
0000
,  // measure 57
0020
0001
0100
0001
,  // measure 58
0230
1000
0010
1000
,  // measure 59
0320
0000
1000
0000
0001
0000
1030
0010
,  // measure 60
0000
1000
0100
0010
0001
0000
0011
0000
,  // measure 61
0001
0100
0001
0010
,  // measure 62
0100
0010
0001
1000
,  // measure 63
0010
0100
0010
1000
,  // measure 64
0010
0100
0010
0000
0101
0000
0011
0000
,  // measure 65
0010
0000
0001
0010
0001
0000
0100
0000
,  // measure 66
0010
0100
0001
0100
0010
0100
0001
0010
,  // measure 67
0100
0000
0100
1000
0001
0000
0100
0001
,  // measure 68
1000
0000
0100
0010
0100
1000
0001
0010
,  // measure 69
0100
0000
1000
0001
1000
0000
0010
0000
,  // measure 70
0100
0010
1000
0001
1000
0010
0100
0001
,  // measure 71
1000
0000
1000
0100
0000
0100
0010
0000
,  // measure 72
0010
0001
0000
0001
1000
0010
0100
0000
,  // measure 73
0010
0000
1000
0010
1000
0000
0100
0000
,  // measure 74
0010
0100
1000
0100
0010
0100
1000
0010
,  // measure 75
0100
0000
0100
0001
1000
0000
0100
1000
,  // measure 76
0001
0000
0100
0010
0100
0001
1000
0010
,  // measure 77
0100
0000
0001
1000
0001
0000
0010
0000
,  // measure 78
0100
0010
0001
1000
0001
0010
0100
1000
,  // measure 79
0001
0000
0001
0100
0000
0100
0010
0000
,  // measure 80
0010
1000
0000
1000
0001
0010
0100
0000
,  // measure 81
1000
0000
0100
0000
1000
0100
1000
0100
,  // measure 82
0000
0010
0001
0000
0100
0001
0100
0000
,  // measure 83
0001
0000
0100
0000
0001
0100
0001
0100
,  // measure 84
0000
0010
1000
0000
0001
1000
0001
0000
,  // measure 85
0010
0000
0001
0000
0010
0001
0100
0001
,  // measure 86
0000
0001
0100
0000
0010
1000
0100
0000
,  // measure 87
0010
0000
0100
0000
1000
0100
1000
0010
,  // measure 88
0100
0000
0000
0010
0000
0000
1000
0000
0000
0000
1001
0000
0000
0000
0000
0000
;
