#TITLE:曖昧mind;
#SUBTITLE:;
#ARTIST:Halozy;
#TITLETRANSLIT:AIMAI mind;
#SUBTITLETRANSLIT:;
#ARTISTTRANSLIT:;
#GENRE:Electro;
#CREDIT:;
#BANNER:[ZIv Academy IV] - AIMAI mind.png;
#BACKGROUND:[ZIv Academy IV] - AIMAI mind-bg.png;
#LYRICSPATH:;
#CDTITLE:cdtitle.png;
#MUSIC:[ZIv Academy IV] - AIMAI mind.ogg;
#OFFSET:-1.865000;
#SAMPLESTART:44.523998;
#SAMPLELENGTH:15.000000;
#SELECTABLE:YES;
#DISPLAYBPM:68.000000:135.000000;
#BPMS:0.000000=135.000000
,31.000000=270.000000
,31.500000=135.000000
,31.750000=67.500000
,32.000000=135.000000
,47.000000=270.000000
,47.500000=135.000000
,47.750000=67.500000
,48.000000=135.000000
,76.000000=540.000000
,77.000000=270.000000
,77.500000=135.000000
,78.000000=67.500000
,79.000000=270.000000
,79.500000=135.000000
,79.750000=67.500000
,80.000000=135.000000
,95.000000=270.000000
,95.500000=135.000000
,95.750000=67.500000
,96.000000=135.000000
,111.000000=270.000000
,111.500000=135.000000
,111.750000=67.500000
,112.000000=135.000000
,135.000000=270.000000
,135.500000=135.000000
,135.750000=67.500000
,136.000000=135.000000
,151.000000=270.000000
,151.500000=135.000000
,151.750000=67.500000
,152.000000=135.000000
,167.000000=270.000000
,167.500000=135.000000
,167.750000=67.500000
,168.000000=135.000000
,183.000000=270.000000
,183.250000=135.000000
,183.375000=67.500000
,183.500000=270.000000
,183.750000=135.000000
,183.875000=67.500000
,184.000000=135.000000
,199.000000=270.000000
,199.500000=135.000000
,199.750000=67.500000
,215.500000=135.000000
,215.750000=67.500000
,215.875000=33.750000
,216.000000=135.000000
,231.000000=270.000000
,231.500000=135.000000
,231.750000=67.500000
,232.000000=135.000000
;
#STOPS:
;
#BGCHANGES:-4.000=[ZIv Academy IV] - AIMAI mind.avi=1.000=0=0=0=StretchNoLoop==CrossFade_Fastest==,
99999=-nosongbg-=1.000=0=0=0 // don't automatically add -songbackground-
;
#KEYSOUNDS:;
#ATTACKS:;

//---------------dance-single - ----------------
#NOTES:
     dance-single:
     C 01 X 02:
     Beginner:
     1:
     0.127982,0.176732,0.032577,0.130309,0.000000,110.000000,106.000000,4.000000,16.000000,0.000000,0.000000,0.127982,0.176732,0.032577,0.130309,0.000000,110.000000,106.000000,4.000000,16.000000,0.000000,0.000000:
// measure 0
0000
0000
0000
0000
,  // measure 1
0000
0000
0000
0000
,  // measure 2
0000
0000
0000
0000
,  // measure 3
0000
0000
0000
0000
,  // measure 4
0010
0000
0010
0000
,  // measure 5
0010
0000
0010
0000
,  // measure 6
0010
0010
0010
0010
,  // measure 7
0020
0000
0030
0000
,  // measure 8
1000
0000
1000
0000
,  // measure 9
1000
0000
0000
0000
,  // measure 10
0001
0000
0001
0000
,  // measure 11
0001
0000
0000
0000
,  // measure 12
0100
0000
0100
0000
,  // measure 13
0100
0000
0000
0000
,  // measure 14
0010
0010
0010
0020
,  // measure 15
0000
0000
0030
0000
,  // measure 16
1000
0000
1000
0000
,  // measure 17
0001
0000
0001
0000
,  // measure 18
1000
0000
1000
0000
,  // measure 19
1001
0000
0000
0000
,  // measure 20
0010
0000
0010
0000
,  // measure 21
0100
0000
0100
0000
,  // measure 22
0010
0000
0010
0000
,  // measure 23
0110
0000
0000
0000
,  // measure 24
0001
0000
0001
0000
,  // measure 25
0001
0001
0001
0000
,  // measure 26
1000
0000
1000
0000
,  // measure 27
0010
0000
0010
0000
,  // measure 28
1000
0000
1000
0000
,  // measure 29
1000
1000
1000
0000
,  // measure 30
0001
0000
1000
0000
,  // measure 31
0100
0100
0100
0000
,  // measure 32
2002
0000
0000
0000
,  // measure 33
0000
0000
3003
0000
,  // measure 34
2000
0000
3000
0000
,  // measure 35
0010
0010
0010
0000
,  // measure 36
0002
0000
0003
0000
,  // measure 37
0010
0000
0010
0000
,  // measure 38
2000
0000
3000
0000
,  // measure 39
0100
0000
0100
0000
,  // measure 40
0002
0000
0003
0000
,  // measure 41
0100
0000
1000
0000
,  // measure 42
0002
0000
0003
0000
,  // measure 43
0010
0010
0010
0000
,  // measure 44
2000
0000
3000
0000
,  // measure 45
0010
0000
0010
0000
,  // measure 46
0002
0000
0003
0000
,  // measure 47
0100
0000
0100
0000
,  // measure 48
2000
0000
3000
0000
,  // measure 49
0100
0000
0001
0000
,  // measure 50
2000
0000
3000
0000
,  // measure 51
0020
0000
0030
0000
,  // measure 52
0200
0000
0300
0000
,  // measure 53
0002
0000
0003
0000
,  // measure 54
0001
0000
0001
0000
,  // measure 55
0001
0001
0001
0000
,  // measure 56
1000
0000
1000
0000
,  // measure 57
0100
0000
0100
0000
,  // measure 58
1000
0000
1000
0000
,  // measure 59
1000
1000
1000
0000
,  // measure 60
0001
0000
1000
0000
,  // measure 61
0010
0010
0010
0000
,  // measure 62
1001
0000
0000
0000
;

//---------------dance-single - ----------------
#NOTES:
     dance-single:
     C 03 X 04:
     Easy:
     3:
     0.222224,0.259600,0.097732,0.244330,0.000000,191.000000,179.000000,12.000000,30.000000,0.000000,0.000000,0.222224,0.259600,0.097732,0.244330,0.000000,191.000000,179.000000,12.000000,30.000000,0.000000,0.000000:
// measure 0
0000
0000
0000
0000
,  // measure 1
0000
0000
0000
0000
,  // measure 2
0000
0000
0000
0000
,  // measure 3
0000
0000
0000
0000
,  // measure 4
1000
1000
1000
1000
,  // measure 5
0001
0001
0001
0001
,  // measure 6
0200
0000
0000
0000
,  // measure 7
0020
0000
0000
0330
,  // measure 8
0010
0010
1000
0000
,  // measure 9
0001
0001
0010
0000
,  // measure 10
0100
0100
1000
0000
,  // measure 11
0001
0001
0100
0000
,  // measure 12
0001
0010
0100
0000
,  // measure 13
1000
0100
0010
0000
,  // measure 14
0002
0023
2030
3200
,  // measure 15
0000
0000
0300
0000
,  // measure 16
0001
0010
0022
0033
,  // measure 17
0001
1000
2002
3003
,  // measure 18
1000
0100
2200
3300
,  // measure 19
2002
0000
0000
3003
,  // measure 20
1000
0010
2020
3030
,  // measure 21
0100
0010
0220
0330
,  // measure 22
0100
0001
0202
0303
,  // measure 23
0001
0000
0000
0110
,  // measure 24
1000
0100
0010
0001
,  // measure 25
0010
0100
1000
0000
,  // measure 26
0001
0010
0100
0000
,  // measure 27
0100
0010
0001
0000
,  // measure 28
1000
0010
0100
0001
,  // measure 29
0100
0010
1000
0000
,  // measure 30
0001
0100
0010
1000
,  // measure 31
0010
0100
0001
0000
,  // measure 32
2002
0000
0000
0000
,  // measure 33
0003
0000
0000
3001
,  // measure 34
1000
0010
0010
0000
,  // measure 35
0100
0010
1000
0000
,  // measure 36
0001
0010
0010
0000
,  // measure 37
0001
0001
1000
1001
,  // measure 38
0001
0010
0001
0000
,  // measure 39
1000
0001
0100
0000
,  // measure 40
0010
1000
0001
0010
,  // measure 41
0200
0000
0000
0310
,  // measure 42
0001
1000
0010
1000
,  // measure 43
0001
0100
0001
0001
,  // measure 44
1000
0010
0100
0010
,  // measure 45
1000
1000
1000
0110
,  // measure 46
0001
0010
0100
0010
,  // measure 47
0001
1000
0010
0010
,  // measure 48
0100
0001
1000
0010
,  // measure 49
2000
0000
0000
3001
,  // measure 50
1000
0010
0200
0300
,  // measure 51
0002
0003
0020
0030
,  // measure 52
0100
1000
0010
0001
,  // measure 53
0010
0000
1000
0000
0002
0000
0000
0003
,  // measure 54
1000
0100
1000
0001
,  // measure 55
1000
0010
1000
0000
,  // measure 56
0001
0010
0001
1000
,  // measure 57
0001
0100
0001
0000
,  // measure 58
1000
0010
0100
0010
,  // measure 59
1000
0001
1000
0000
,  // measure 60
0001
0010
0100
0010
,  // measure 61
0001
1000
0001
1000
,  // measure 62
0220
0000
0000
0000
,  // measure 63
0000
0000
0000
0330
;

//---------------dance-single - ----------------
#NOTES:
     dance-single:
     C 06 X 09:
     Medium:
     6:
     0.375802,0.415360,0.236185,0.228041,0.089587,323.000000,294.000000,29.000000,28.000000,0.000000,0.000000,0.375802,0.415360,0.236185,0.228041,0.089587,323.000000,294.000000,29.000000,28.000000,0.000000,0.000000:
// measure 0
0000
0000
0000
0000
,  // measure 1
0000
0000
0000
0000
,  // measure 2
0000
0000
0000
0000
,  // measure 3
0000
0000
0000
0000
,  // measure 4
1000
0010
1000
0000
0001
0010
0001
0000
,  // measure 5
1000
0100
1000
0000
0001
0100
0001
0000
,  // measure 6
1000
0100
0010
0000
0001
0010
0100
0000
,  // measure 7
1000
0010
0100
0001
1000
0000
1001
0000
,  // measure 8
0101
0000
1010
0000
1000
0100
0001
0000
,  // measure 9
0001
0100
1000
0000
0001
0100
0010
0000
,  // measure 10
1010
0000
0101
0000
0001
1000
0100
0000
,  // measure 11
0010
0100
1000
0000
0001
0000
1001
0000
,  // measure 12
1100
0000
0011
0000
0001
0100
1000
0000
,  // measure 13
1000
0100
0001
0000
1000
0100
0010
0000
,  // measure 14
0001
0000
0000
0100
0000
0000
0010
0000
0000
1000
0000
0000
2002
0000
0000
0000
,  // measure 15
0000
0000
0000
3003
,  // measure 16
1000
0000
0000
0000
1010
0000
0000
0000
0100
0000
0000
0001
0000
0000
1000
0000
,  // measure 17
0001
0000
0000
0000
0101
0000
0000
0000
0010
0000
0000
1000
0000
0000
0001
0000
,  // measure 18
1000
0000
0000
0000
1100
0000
0000
0000
0010
0000
0000
0001
0000
0000
1000
0000
,  // measure 19
0020
0000
0030
1001
,  // measure 20
0001
0000
0000
0000
0011
0000
0000
0000
0100
0000
0000
1000
0000
0000
0001
0000
,  // measure 21
1000
0000
0000
0000
1100
0000
0000
0000
0010
0000
0000
0001
0000
0000
1000
0000
,  // measure 22
0001
0000
0000
0000
0101
0000
0000
0000
0010
0000
0000
1000
0000
0000
0001
0000
,  // measure 23
0020
0100
0130
1001
,  // measure 24
1000
0000
0000
1000
0000
0000
0010
0000
0100
0000
0000
0000
0001
0000
0000
0000
,  // measure 25
1000
0000
0000
0001
0000
0000
0010
0000
0200
0000
0000
0000
1300
0000
0000
0000
,  // measure 26
0001
0000
0000
0100
0000
0000
0010
0000
2000
0000
0000
0000
3001
0000
0000
0000
,  // measure 27
1000
0000
0000
0100
0000
0000
0010
0000
0002
0000
0000
0000
1003
0000
0000
0000
,  // measure 28
0001
0000
0000
0001
0000
0000
0010
0000
0100
0000
0000
0000
1000
0000
0000
0000
,  // measure 29
0001
0000
0000
1000
0000
0000
0010
0000
0100
0000
0001
0000
1000
0000
0000
0000
,  // measure 30
0001
0100
0001
0000
1000
0100
1000
0000
,  // measure 31
0001
0000
0000
0100
0000
0000
0010
0000
2000
0000
0000
0000
3001
0000
0000
0000
,  // measure 32
2002
0000
0000
0000
,  // measure 33
0000
3003
0110
1001
,  // measure 34
0002
0000
0103
0000
0010
1000
0001
0000
,  // measure 35
0100
0001
1000
0000
0100
0100
0100
0000
,  // measure 36
2000
0000
3001
0000
0100
0010
0100
0000
,  // measure 37
0001
0000
1000
0010
0200
0000
0301
0000
,  // measure 38
2000
0000
3100
0000
0010
0001
1000
0000
,  // measure 39
0100
1000
0001
0000
0100
0100
0100
0000
,  // measure 40
0002
0000
1003
0000
0100
0010
0100
0000
,  // measure 41
2000
3020
0230
0301
,  // measure 42
1000
1010
0100
0101
,  // measure 43
0001
1000
0100
0000
1000
0001
0010
0000
,  // measure 44
0001
0101
0010
1010
,  // measure 45
1000
0100
0010
0001
0010
0100
1000
0000
,  // measure 46
0001
0011
0100
1100
,  // measure 47
1000
0001
0100
0000
0001
1000
0010
0000
,  // measure 48
1000
1100
0010
0011
,  // measure 49
0001
0100
0010
1000
0010
0100
0001
0000
,  // measure 50
2000
0000
3100
0010
0002
0000
1003
0000
,  // measure 51
1000
0010
0001
0000
0001
0010
1000
0000
,  // measure 52
0001
0001
0100
0100
0010
0010
1000
1000
,  // measure 53
0001
1000
0100
0010
0002
0000
1003
0000
,  // measure 54
0001
0000
0000
0001
0000
0000
0100
0000
0010
0000
1000
0000
0001
0000
0000
0000
,  // measure 55
1000
0000
0000
0100
0000
0000
0010
0000
0200
0000
0000
0000
1300
0000
0000
0000
,  // measure 56
0001
0000
0000
0100
0000
0000
0010
0000
2000
0000
0000
0000
3001
0000
0000
0000
,  // measure 57
1000
0000
0000
0100
0000
0000
0010
0000
0002
0000
0000
0000
1003
0000
0000
0000
,  // measure 58
1000
0000
0000
1000
0000
0000
0100
0000
0010
0000
0001
0000
1000
0000
0000
0000
,  // measure 59
0001
0000
0000
0100
0000
0000
0010
0000
0200
0000
0000
0000
0301
0000
0000
0000
,  // measure 60
0001
0010
0001
0000
1000
0100
1000
0000
,  // measure 61
0001
0000
0000
0010
0000
0000
0100
0000
2000
0000
0000
0000
3001
0000
0000
0000
,  // measure 62
2002
0000
0000
0000
,  // measure 63
0000
0000
0000
3003
;

//---------------dance-single - ----------------
#NOTES:
     dance-single:
     C 08 X 12:
     Hard:
     8:
     0.516582,0.700920,0.244330,0.325773,0.325773,444.000000,414.000000,30.000000,40.000000,0.000000,0.000000,0.516582,0.700920,0.244330,0.325773,0.325773,444.000000,414.000000,30.000000,40.000000,0.000000,0.000000:
// measure 0
0000
0000
0000
0000
,  // measure 1
0000
0000
0000
0000
,  // measure 2
0000
0000
0000
0000
,  // measure 3
0000
0000
0000
0000
,  // measure 4
0001
0001
1000
1000
0001
0001
1000
1000
,  // measure 5
0010
0010
0100
0100
0010
0010
0100
0100
,  // measure 6
0001
0010
0100
0000
1000
0010
0100
0000
0001
0100
0010
0000
1000
0100
0010
0000
,  // measure 7
0220
0000
0000
0000
0000
0330
1001
0000
,  // measure 8
0001
0000
0100
0000
1000
0000
0100
0000
0001
0000
0000
0010
0000
0000
0001
0000
,  // measure 9
1000
0000
0100
0000
0001
0000
0100
0000
1000
0000
0000
0010
0000
0000
1000
0000
,  // measure 10
0001
0000
0010
0000
1000
0000
0010
0000
0001
0000
0000
0100
0000
0000
0001
0000
,  // measure 11
1000
0010
0001
0010
1000
0000
0101
0000
,  // measure 12
0100
0000
0010
0000
1000
0000
0001
0000
0010
0000
0000
1000
0000
0000
0010
0000
,  // measure 13
0100
0000
0010
0000
0001
0000
1000
0000
0010
0000
0000
0001
0000
0000
0000
0000
,  // measure 14
0011
0000
0000
1010
0000
0000
1100
0000
0000
0101
0000
0000
0220
0000
0000
0000
,  // measure 15
0000
0000
0000
0330
0001
1000
0001
0000
,  // measure 16
1100
0000
0000
0000
1010
0000
0000
0000
0101
0000
0000
0011
0000
0000
0000
0000
,  // measure 17
1010
0000
0000
0000
0110
0000
0000
0000
0101
0000
0000
1001
0000
0000
0000
0000
,  // measure 18
0011
0000
0000
0000
0110
0000
0000
0000
1100
0000
0000
1001
0000
0000
0000
0000
,  // measure 19
0220
0000
0000
0000
0000
0000
0330
0000
0001
0000
0100
0100
0100
0000
0000
0000
,  // measure 20
0001
0000
0010
0000
0100
0000
0010
0000
0001
0000
1000
0010
0000
0000
0010
0000
,  // measure 21
1000
0000
0100
0000
0010
0000
0100
0000
1000
0000
0001
0010
0000
0000
0010
0000
,  // measure 22
0001
0000
0010
0000
1000
0000
0001
0000
1000
0000
0010
0001
0000
0000
1000
0000
,  // measure 23
0010
0000
0001
0000
1000
0000
0001
0000
0010
0100
0010
0000
1001
0000
0000
0000
,  // measure 24
0001
0000
0000
0001
1000
0000
0010
0000
0100
0000
0010
0000
1000
0000
0001
0000
,  // measure 25
0010
0000
0000
0010
0001
0000
2000
0000
0010
0000
0000
0000
3100
0000
1000
0000
,  // measure 26
0010
0000
0000
0010
1000
0000
0002
0000
0010
0000
0000
0000
0103
0000
0001
0000
,  // measure 27
1000
0000
0000
1000
0010
0000
0200
0000
1000
0000
0000
0000
0301
0000
0000
0000
,  // measure 28
1000
0000
0000
1000
0001
0000
0010
0000
0100
0000
0010
0000
0001
0000
1000
0000
,  // measure 29
0010
0000
0000
0010
1000
0000
0002
0000
0100
0000
0000
0000
0013
0000
0001
0000
,  // measure 30
1000
0100
0001
1000
0100
1000
0001
0100
,  // measure 31
1000
0000
0000
0001
0000
0000
0200
0000
0001
0000
0000
0000
1300
0000
0000
0000
,  // measure 32
0020
0000
0000
0000
,  // measure 33
1030
0000
1000
0000
0001
0000
0010
0100
0000
0000
1000
0000
1001
0000
0000
0000
,  // measure 34
0002
0000
0000
0000
0103
0000
0100
0000
0010
0000
1000
0000
0000
0010
0000
0000
,  // measure 35
2000
3000
2000
3000
0001
0010
0001
0010
0100
0000
0100
0000
0020
0000
0030
0000
,  // measure 36
0002
0000
0003
0000
2000
0000
3000
0000
0001
0100
0001
0100
0001
0000
1000
0000
,  // measure 37
0010
0000
0000
0010
0100
0000
0002
0000
2003
0000
3000
0000
1010
0000
0000
0000
,  // measure 38
0001
0000
0010
0000
0100
0000
1000
0000
0001
0000
0001
0000
0000
1000
0000
0000
,  // measure 39
0100
0000
1000
0000
0010
0000
1000
0000
0001
1000
0001
1000
0001
0000
0000
0000
,  // measure 40
0200
0300
0002
0003
1000
0100
1000
1000
,  // measure 41
0001
0010
0000
0010
0100
0000
0100
1000
0000
1000
0001
0000
0101
0000
0000
0000
,  // measure 42
0200
0000
0300
0000
0020
0000
0030
0000
1000
0000
0001
0000
0000
0001
0000
0000
,  // measure 43
1000
0000
0010
0000
1000
0100
1000
0100
1000
0000
0001
0000
0010
0000
0100
0000
,  // measure 44
2000
3000
0002
0003
0100
0010
0100
0000
,  // measure 45
0002
0003
0020
0030
2000
3000
0200
0300
0002
0000
0000
0003
0011
0000
0011
0000
,  // measure 46
2000
0000
0000
0000
3001
0010
0001
0000
0100
0000
0100
0000
0000
0001
0000
0000
,  // measure 47
1000
0000
0001
0000
1000
0010
1000
0010
1000
0000
0100
0000
0010
0000
0100
0000
,  // measure 48
1000
0010
0001
1000
0010
1000
0001
0010
,  // measure 49
1000
1000
0010
0010
0100
0100
0110
0000
,  // measure 50
0001
0000
0000
0001
0000
0000
0001
0000
1000
0000
0010
0000
0100
0000
0010
0000
1000
0000
0000
0100
0000
0000
0002
0000
0000
0000
0000
0000
0003
0000
0001
0000
,  // measure 51
1000
0000
0000
0010
0000
0000
0002
0000
0000
0000
0000
0000
0003
0000
0001
0000
0100
0000
0000
0001
0000
0000
0010
0000
0000
0000
0100
0000
1000
0000
0010
0000
,  // measure 52
1000
0000
0000
1000
0000
0000
1000
0000
0001
0000
0010
0000
0100
0000
0010
0000
0001
0000
0000
0100
0000
0000
2000
0000
0000
0000
0000
0000
3000
0000
1000
0000
,  // measure 53
0001
0000
0010
0000
0100
0000
0010
0000
1000
0000
0010
0000
0100
0000
0001
0000
1000
0000
0000
0100
0000
0000
1000
0000
0001
0000
0000
0000
0012
0000
0000
0000
,  // measure 54
0103
0000
0000
0100
0010
0000
0100
0000
0001
0000
1000
0000
0100
0000
0010
0000
,  // measure 55
1000
0000
0000
1000
0010
0000
0001
0000
0100
0000
0010
0000
0100
0000
0010
0000
,  // measure 56
1000
0000
0000
1000
0001
0000
0200
0000
1000
0000
0000
0000
0301
0000
0010
0000
,  // measure 57
0001
0000
0000
0001
1000
0000
0200
0000
0001
0000
0000
0000
1300
0000
0000
0000
,  // measure 58
0001
0000
0000
0001
0010
0000
0001
0000
1000
0000
0010
0000
0100
0000
0001
0000
,  // measure 59
0010
0000
0000
0010
0001
0000
1000
0000
0100
0000
0010
0000
1000
0000
0010
0000
,  // measure 60
0001
0100
1000
0001
0100
0001
1000
0100
,  // measure 61
0001
0010
0000
1000
0000
0100
0001
0000
,  // measure 62
2002
0000
0000
0000
,  // measure 63
0000
0000
0000
3003
;

//---------------dance-single - ----------------
#NOTES:
     dance-single:
     C 10 X 15:
     Challenge:
     10:
     0.724844,1.168200,0.382783,0.529381,0.745205,623.000000,576.000000,47.000000,65.000000,0.000000,0.000000,0.724844,1.168200,0.382783,0.529381,0.745205,623.000000,576.000000,47.000000,65.000000,0.000000,0.000000:
// measure 0
0000
0000
0000
0000
,  // measure 1
0000
0000
0000
0000
,  // measure 2
0000
0000
0000
0000
,  // measure 3
0000
0000
0000
0000
,  // measure 4
1000
1000
0001
0001
0100
0100
0010
0010
,  // measure 5
1000
1000
0001
0001
0010
0010
0100
0100
,  // measure 6
1000
0010
0100
0000
0001
0100
0010
0000
1000
0100
0010
0000
0001
0010
0100
0000
,  // measure 7
1000
0010
1000
0010
0100
0001
0100
0001
1000
0100
0010
0002
2000
0000
3003
0000
,  // measure 8
1000
0000
0010
0000
0001
0000
0010
0000
1000
0000
0001
0100
0000
0100
0010
0000
,  // measure 9
1000
0000
0001
0000
0010
0100
0010
0000
0001
0000
0100
0010
1000
0000
0001
0000
,  // measure 10
1000
0000
0100
0000
0010
0001
0010
0000
0001
0000
1000
0010
0000
0010
0100
0000
,  // measure 11
0001
1000
0001
0000
1000
0100
0010
0000
0001
0000
1000
0000
2002
0000
3003
0000
,  // measure 12
0001
0000
0010
0000
1000
0000
0010
0000
0001
0000
1000
0100
0000
0100
0010
0000
,  // measure 13
0001
0000
1000
0000
0010
0100
0010
0000
1000
0000
0100
0010
0001
0000
1000
0000
,  // measure 14
1010
0000
0000
0101
0000
0000
0011
0000
0000
1100
0000
0000
2002
0000
0000
0000
,  // measure 15
0000
0000
0000
0000
0000
0000
3003
0000
0001
0100
0010
1000
0001
0000
1000
0000
,  // measure 16
2010
0000
3100
0000
0012
0000
0103
0000
1001
0000
0000
0110
0000
0000
1000
0000
,  // measure 17
0102
0000
0013
0000
2100
0000
3010
0000
1010
0000
0000
0011
0000
0000
1000
0000
,  // measure 18
1002
0000
0013
0000
2001
0000
3010
0000
0101
0000
0000
1100
0000
0000
1000
0000
,  // measure 19
0220
0000
0000
0000
0000
0000
0330
0000
1000
0000
0001
0100
0010
0000
0000
0000
,  // measure 20
2010
0000
3001
0000
2100
0000
3001
0000
0110
0000
0000
1001
0000
0000
1000
0000
,  // measure 21
0012
0000
1003
0000
0102
0000
1003
0000
0110
0000
0000
1001
0000
0000
0001
0000
,  // measure 22
2010
3001
0012
1003
2100
3001
0102
1003
,  // measure 23
0001
1000
0010
1000
0100
0010
0001
0100
0010
1000
0001
0100
0020
0000
0000
0030
,  // measure 24
1000
0001
0000
0001
0100
0000
0010
0000
1000
0000
0001
0000
0010
0000
0100
0000
,  // measure 25
0001
0000
0000
1000
0010
0000
0002
0000
0100
0000
1000
0000
0013
0000
0100
0000
,  // measure 26
2000
0000
0000
3020
0000
0000
0032
0000
1000
0000
0010
0000
0003
0000
0100
0000
,  // measure 27
0002
0000
0000
0023
0000
0000
2030
0000
0001
0000
3010
0000
0110
0000
0000
0000
,  // measure 28
1000
0010
0000
0010
0100
0000
0001
0000
0010
0000
1000
0000
0010
0000
0001
0000
,  // measure 29
1000
0100
0010
1000
0001
0100
0010
0001
,  // measure 30
1000
0010
0100
0010
1000
0001
0010
0001
0100
0010
0100
0001
0010
0100
1000
0001
,  // measure 31
0200
0000
0000
2300
0000
0000
3020
0000
0000
0032
0000
0000
0103
0000
0000
0000
,  // measure 32
0001
0010
0100
0010
0001
1000
0010
0100
0010
1000
0001
0010
0100
1000
0010
0100
,  // measure 33
0001
0010
0001
0000
1000
0000
0010
0100
1000
0100
0001
0000
0101
0000
0000
0000
,  // measure 34
2002
0000
3003
0000
1000
0100
0010
0000
0001
0000
0100
0000
0010
1000
0000
1000
,  // measure 35
0001
0000
0100
0010
1000
0010
0100
0001
1000
0000
0001
0000
0022
0000
0033
0000
,  // measure 36
2200
0000
3300
0000
1000
0000
0010
0000
0100
0001
0100
0010
1000
0000
0001
0000
,  // measure 37
1000
0000
0100
0010
0100
1000
0001
0000
0100
0000
0010
0000
2020
0000
3030
0000
,  // measure 38
2002
0000
3003
0000
0001
0100
0010
0000
1000
0000
0100
0000
0010
0001
0000
0001
,  // measure 39
1000
0000
0010
0100
0010
0000
1000
0000
0001
0100
0010
0100
0001
0000
1000
0000
,  // measure 40
2020
0000
3030
0000
0010
0000
0100
0000
0001
1000
0001
0000
0100
0000
0010
0000
,  // measure 41
1000
0100
0000
0100
0001
0000
0001
0010
0000
0010
1000
0000
1001
0000
0000
0000
,  // measure 42
1010
0000
0100
0000
0011
0000
0100
0000
1000
0000
0100
0000
0010
0001
0100
0000
,  // measure 43
0001
0000
0010
0010
0001
1000
0010
1000
0100
0000
0010
0001
1000
0000
0010
0000
,  // measure 44
0200
0000
0001
0000
0320
0000
1000
0000
0130
0000
0001
0000
0010
0000
1000
1000
,  // measure 45
0020
0000
0032
0000
0203
0000
2300
0000
3200
0000
0001
0300
0110
0000
1001
0000
,  // measure 46
0002
0000
1003
0000
0001
0100
1000
0000
0001
0000
1000
0000
0100
0010
1000
0000
,  // measure 47
0100
0000
0001
0001
1000
0010
0001
0010
0100
0000
0001
0100
1000
0000
0001
0000
,  // measure 48
1000
0100
0010
0001
1000
0010
0100
0001
1000
0001
0010
0100
1000
0001
0100
0010
,  // measure 49
1000
0100
0010
0100
0001
0100
0010
1000
0010
0100
0010
0001
2000
0000
0000
0000
,  // measure 50
3010
0000
0000
1000
0000
0000
0010
0000
1000
0000
0001
0000
0010
0000
0100
0000
0010
0000
0000
0001
0000
0000
0010
0000
0001
0000
0000
0000
0000
0000
1000
0000
,  // measure 51
0020
0000
0000
0032
0000
0000
0203
0000
0000
0000
0000
0000
0300
0000
0001
0000
0020
0000
0000
2030
0000
0000
3200
0000
0000
0000
1300
0000
0001
0000
0100
0000
,  // measure 52
0001
0010
0100
1000
0100
0001
1000
0010
0001
0010
0001
0100
0010
1000
0010
0100
,  // measure 53
0001
0010
0001
0010
0100
1000
0100
1000
0001
0100
0001
0100
0010
1000
0010
1000
0001
0100
0001
0000
1000
0000
0001
0010
1000
0010
0001
0000
0022
0000
0000
0033
,  // measure 54
0001
0100
0000
0100
0010
0000
1000
0000
0100
0000
0001
0000
1000
0000
0010
0000
,  // measure 55
0001
1000
0000
1000
0010
0000
0100
0000
0001
1000
0100
0000
1000
0000
0001
0000
,  // measure 56
0100
0010
0000
0010
1000
0000
0100
0000
1000
0000
0001
0010
0100
0000
1000
0000
,  // measure 57
0100
0010
0000
0010
0001
0000
1000
0000
0010
0000
1000
0000
1001
0000
0000
0000
,  // measure 58
1000
0100
0000
0100
0010
0000
0001
0000
0100
0000
1000
0000
0001
0000
0010
0000
,  // measure 59
1000
0001
0000
0001
0010
0000
0100
0000
1000
0001
0100
0000
0001
0000
1000
0000
,  // measure 60
0001
0100
0010
0100
0001
0010
0100
1000
0010
0100
0010
1000
0100
0010
0001
1000
,  // measure 61
0001
0100
0001
0100
0010
1000
0010
1000
0001
0010
0100
1000
0001
0000
0000
0000
,  // measure 62
2002
0000
0000
0000
,  // measure 63
0000
0000
0000
3003
;
