#TITLE:Wonderland;
#SUBTITLE:;
#ARTIST:Caravan Palace;
#TITLETRANSLIT:;
#SUBTITLETRANSLIT:;
#ARTISTTRANSLIT:;
#GENRE:;
#CREDIT:;
#BANNER:wonderland_bn.png;
#BACKGROUND:wonderland_bg.png;
#LYRICSPATH:;
#CDTITLE:cdtitle.png;
#MUSIC:wonderland.ogg;
#OFFSET:0.000000;
#SAMPLESTART:27.752308;
#SAMPLELENGTH:17.884617;
#SELECTABLE:YES;
#BPMS:0.000000=104.000000
;
#STOPS:
;
#BGCHANGES:;
#KEYSOUNDS:;
#ATTACKS:;

//---------------dance-single - ----------------
#NOTES:
     dance-single:
     Easy:
     Easy:
     4:
     0.261739,0.302004,0.076024,0.098831,0.000000,241.000000,231.000000,10.000000,13.000000,0.000000,0.000000,0.261739,0.302004,0.076024,0.098831,0.000000,241.000000,231.000000,10.000000,13.000000,0.000000,0.000000:
0000
0000
0000
0000
,
0000
0000
0000
0000
,
0000
0000
0000
0000
,
0000
0000
0000
0000
,
0010
0010
0100
0100
,
0001
0001
1000
1000
,
0100
1000
0001
0100
,
0010
0100
0010
0100
,
0001
0001
1000
1000
,
0100
0100
0010
0010
,
0001
0001
1000
1000
,
0001
0000
1000
0000
0001
1000
0001
1000
,
0000
0000
0000
1001
,
1000
0000
0100
0000
1000
0100
1000
0000
,
0001
0100
0001
1000
,
0100
0000
0010
0000
0001
0010
0001
0010
,
0001
1000
0010
0010
,
0100
0000
0001
0000
1000
0010
1000
0000
,
0100
1000
0001
0001
,
0100
0000
0010
0000
0100
0010
0000
0000
,
0020
0000
0230
0000
,
0302
0100
0100
0103
,
0200
0010
0010
0310
,
0020
1000
1000
1030
,
2000
0100
0001
3010
,
0020
1000
0100
1030
,
0002
0010
1000
0103
,
0200
0001
0010
0301
,
0001
0000
0001
0000
1000
0001
1000
0001
,
0000
0000
0000
1001
,
0001
0000
0100
0000
0001
0100
0001
0000
,
1000
0100
1000
0001
,
0100
0000
0010
0000
1000
0010
1000
0010
,
1000
0001
0010
0010
,
0100
0000
1000
0000
0001
0010
0001
0000
,
0100
0001
1000
1000
,
0100
0000
0010
0000
0100
0010
0100
0000
,
0010
0010
0100
0100
,
0010
0001
0100
0010
,
0100
0100
0010
0010
,
0100
0010
1000
0100
,
1000
1100
0001
0101
,
1000
0000
0010
0000
0100
0010
0100
0000
,
0001
0101
1000
1100
,
1000
0000
1000
0000
0001
1000
0001
1000
,
0001
0011
1000
1010
,
1000
0000
1000
0000
0100
0010
0100
0000
,
1000
1010
0001
0011
,
0001
0000
0001
0000
1000
0001
1000
0000
,
0010
0000
0010
0100
0010
0000
0100
0010
,
0100
0000
0001
0000
1000
0000
0001
1000
,
0001
0000
1000
0001
1000
0000
0001
1000
,
0001
0010
0100
0020
,
0031
0000
0001
0100
0001
0000
1000
0100
,
1000
0000
0010
0000
0100
0000
0010
0100
,
0010
0000
1000
0001
1000
0000
0100
0010
,
0200
0320
0230
0300
;

//---------------dance-single - ----------------
#NOTES:
     dance-single:
     Hard:
     Hard:
     10:
     0.698332,0.732631,0.068421,0.022807,1.300005,643.000000,634.000000,9.000000,3.000000,0.000000,0.000000,0.698332,0.732631,0.068421,0.022807,1.300005,643.000000,634.000000,9.000000,3.000000,0.000000,0.000000:
0000
0000
0000
0000
,
0000
0000
0000
0000
,
0000
0000
0000
0000
,
0000
0000
0000
0000
0000
0000
0000
0000
0000
0000
0000
0000
0000
0000
0000
0000
0000
0000
0000
0000
0010
0100
0000
0010
,
1000
0000
0000
0001
0000
0000
1000
0000
0100
1000
0000
0100
0010
0000
0000
0100
0000
0000
1000
0000
0001
0000
0000
1000
,
0001
0000
0000
0100
0000
0001
0100
0000
0000
0010
0000
1000
0001
0000
0000
0010
0000
0000
0100
0000
1000
0100
0000
1000
,
0100
0000
0000
0000
0000
0000
0010
0000
0000
0000
0001
0000
0010
0000
0000
0000
0000
0000
0001
0000
0000
0000
0100
0000
0001
0000
0000
0000
0100
0000
0010
0000
0000
0000
1000
0000
0001
0000
0000
0010
0000
0000
0000
0000
0000
0100
0000
0000
,
0000
0010
0001
1000
0010
0000
0000
0010
0000
0100
0010
1000
0001
0100
0000
0100
,
0001
0000
0000
0100
0000
0000
0010
0000
0000
1000
0000
0010
1000
0000
0001
0000
0000
0000
0010
0000
0100
0010
0000
0100
,
0010
0000
0000
0001
0000
1000
0010
0000
0000
1000
0000
0100
0010
0000
0001
0000
0000
0000
0010
0000
0001
1000
0000
0010
,
0100
0000
0000
0001
0000
1000
0000
0000
1000
0001
0000
0010
0100
0000
0000
1000
0000
0001
0000
0000
1000
0001
0000
1000
,
0001
0000
0000
0100
0000
0010
0100
0000
0000
0001
0000
1000
0100
0000
0100
0010
0000
0010
0001
0000
0001
1000
0000
1000
,
0000
0000
0001
0000
0000
0001
0000
0000
0001
0000
0000
0001
1000
0000
0010
1000
0000
0001
0000
0000
0001
1000
0000
0010
,
0000
0000
0100
0000
0000
0100
0000
0000
0100
0000
0000
0100
0001
0000
0000
1000
0000
0000
1001
0000
0000
0000
0000
0000
,
0001
0000
1000
0000
0000
1000
0000
0000
1000
0000
0000
1000
0100
0000
0010
0100
0000
0010
0000
0000
0001
0100
0000
0010
,
0000
0000
0000
0000
1000
0000
0000
0000
0000
0000
1000
0000
0000
0000
0000
0000
1000
0000
0000
0000
0000
0000
1000
0000
0000
0000
0000
0000
0100
0000
0010
0000
0000
0001
0000
0000
0010
0000
0000
0001
0000
0000
0100
0000
0000
0001
0000
0000
,
2000
0000
0000
0000
3001
0000
0000
0000
0001
0000
0000
0001
0100
0000
0010
0100
0000
0001
0000
0000
1000
0100
0000
0010
,
0000
0000
0100
0000
0000
0100
0000
0000
0100
0000
0000
0100
0010
0000
0000
0100
0000
0000
0110
0000
0000
0000
0000
0000
,
0000
0000
0001
0000
0000
0001
0000
0000
0001
0000
0000
0001
0100
0000
0100
0010
0000
1000
0000
0000
0100
0010
0000
0100
,
0000
0000
0010
0000
0000
0010
0000
0000
0010
0000
0000
0010
0001
0000
1000
0000
0000
0000
1001
0000
1000
0000
0000
0001
,
0100
0000
0000
0010
0000
0000
0100
0000
1000
0100
0000
0100
0010
0000
0100
0000
0000
0000
0010
0000
0100
0010
0000
1000
,
0001
0000
0000
0010
0000
0100
0010
0000
0000
0100
0000
0001
0100
0000
0010
0000
0000
0000
0100
0000
1000
0100
0000
0010
,
0001
0000
0000
0000
0000
0000
1000
0000
0000
0000
0001
0000
0100
0000
0000
0000
0000
0000
0010
0000
0000
0000
1000
0000
0001
0000
0000
0000
0000
0000
0010
0000
0000
0000
0100
0000
0010
0000
0000
0100
0000
0000
0000
0000
0000
1000
0000
0000
,
0000
0000
0000
0010
0000
0000
0100
0000
0000
0001
0000
0000
1000
0000
0000
0000
0000
0000
0000
0000
0000
0010
0000
0000
0000
0000
0000
1000
0000
0000
0100
0000
0000
1000
0000
0000
0010
0000
0000
0000
0100
0000
0001
0000
0000
0000
0100
0000
,
0010
0000
0000
1000
0000
0000
0100
0000
0000
0010
0000
0100
0010
0000
0000
1000
0000
0000
0010
0000
0001
0000
0000
1000
,
0010
0000
0000
0100
0000
0000
0010
0000
0000
1000
0000
0000
0100
0000
0001
0000
0000
0000
0100
0000
1000
0100
0000
1000
,
0001
0000
0000
0000
0000
0000
0100
0000
0000
0000
0000
0000
0010
0000
0000
0000
0000
0000
1000
0000
0000
0000
0100
0000
0010
0000
0000
0100
0000
0000
1000
0000
0000
0001
0000
0000
0100
0000
0000
0010
0000
0000
0000
0000
0000
0100
0000
0000
,
0100
0001
0100
0010
1000
0001
0000
1000
0001
0000
1000
0001
0000
1000
0001
0000
,
0001
0100
0001
0100
0001
1000
0001
1000
1001
0000
1100
0000
1001
0000
0101
0000
,
0000
0000
1000
0000
0000
1000
0000
0000
1000
0000
0000
1000
0001
0000
0010
0001
0000
0001
0000
0000
1000
0001
0000
0010
,
0000
0000
0100
0000
0000
0100
0000
0000
0100
0000
0000
0100
1000
0000
0000
0001
0000
0000
1001
0000
0000
0000
0000
0000
,
1000
0000
0001
0000
0000
0001
0000
0000
0001
0000
0000
0001
0100
0000
0010
0100
0000
0010
0000
0000
1000
0100
0000
0010
,
0000
0000
0000
0000
0001
0000
0000
0000
0000
0000
0001
0000
0000
0000
0000
0000
0001
0000
0000
0000
0000
0000
0001
0000
0000
0000
0000
0000
0100
0000
0010
0000
0000
1000
0000
0000
0010
0000
0000
1000
0000
0000
0100
0000
0000
1000
0000
0000
,
0002
0000
0000
0000
1003
0000
0000
0000
1000
0000
0000
1000
0100
0000
0010
0100
0000
1000
0000
0000
0001
0100
0000
0010
,
0000
0000
0100
0000
0000
0100
0000
0000
0100
0000
0000
0100
0010
0000
0000
0100
0000
0000
0110
0000
0000
0000
0000
0000
,
0000
0000
1000
0000
0000
1000
0000
0000
1000
0000
0000
1000
0100
0000
0100
0010
0000
0001
0000
0000
0100
0010
0000
0100
,
0000
0000
0010
0000
0000
0010
0000
0000
0010
0000
0000
0010
1000
0000
0001
0000
0000
0000
0100
0000
0000
0010
0000
0100
,
0000
0000
0000
0010
0000
0000
1000
0000
0000
0010
0000
0000
1000
0000
0000
0000
0000
0000
0000
0000
0000
0100
0000
0000
0000
0000
0000
0010
0000
0000
0001
0000
0000
0010
0000
0000
0001
0000
0000
0000
0010
0000
0001
0000
0000
0000
1000
0000
,
0000
0000
0000
0000
1000
0000
0001
0000
0000
0000
0100
0000
0000
0000
0000
0000
0010
0000
0100
0000
0000
0000
1000
0000
0000
0000
0000
0000
0100
0000
0001
0000
0000
0000
1000
0000
0100
0000
0000
0010
0000
0000
0000
0000
0000
0000
0100
0000
,
0000
0000
0000
1000
0000
0000
0100
0000
0000
1000
0000
0000
0100
0000
0000
0000
0000
0000
0000
0000
0000
1000
0000
0000
0000
0000
0000
0001
0000
0000
0100
0000
0000
0001
0000
0000
0100
0000
0000
0000
0100
0000
0001
0000
0000
0000
0100
0000
,
0000
0000
0000
0000
0010
0000
1000
0000
0000
0000
0100
0000
0000
0000
0000
0000
0010
0000
0100
0000
0000
0000
0001
0000
0000
0000
0000
0000
0100
0000
1000
0000
0000
0000
0001
0000
0100
0000
0000
0010
0000
0000
0000
0000
0000
0100
0000
0000
,
0001
0100
0010
0100
0001
0000
0000
1000
0100
0010
0100
1000
0100
0000
0000
1000
,
0010
1000
0001
1000
0010
0100
0010
1000
0010
0100
0001
0100
0010
0100
0000
0100
,
0000
0001
0010
0100
0010
0000
0000
0001
0100
0010
1000
0010
0100
0000
0000
0010
,
1000
0100
1000
0001
1000
0010
0100
0001
0100
0010
1000
0100
0010
0001
0000
0001
,
0000
0010
0100
1000
0010
0000
0000
0010
1000
0001
0100
0010
1000
0000
0000
1000
,
0100
0010
0001
1000
0010
0100
0001
1000
0100
0010
0100
1000
0100
0010
0000
0100
,
0000
0100
0010
0001
0010
0000
0000
0010
0001
0100
0010
1000
0001
0000
0000
0001
,
0010
0100
1000
0001
0100
0010
1000
0001
0010
0100
1000
0001
0000
0000
0000
0100
,
0010
0000
0000
0001
0000
0000
0010
0000
0000
0100
0000
0000
0010
0000
0000
0000
0010
0000
0100
0000
0000
0010
0000
0000
1000
0000
0000
0001
0000
0000
0100
0000
0000
0010
0000
0000
1000
0000
0000
0000
1000
0000
0001
0000
0000
0010
0000
0000
,
0100
0000
0000
0010
0000
0000
0100
0000
0000
1000
0000
0000
0100
0000
0000
0001
0000
0000
0100
0000
0000
0010
0000
0000
0100
0000
0000
1000
0000
0000
0100
0000
0000
0010
0000
0000
0100
0000
0000
1000
0100
0000
1000
0000
0000
0010
0000
0000
,
0000
0000
0000
0010
0000
0000
1000
0000
0000
0010
0000
0000
0100
0000
0000
0000
0010
0000
1000
0000
0000
0100
0000
0000
0010
0000
0000
1000
0000
0000
0010
0000
0000
0100
0000
0000
0010
0000
0000
0000
0001
0000
0010
0000
0000
0001
0000
0000
,
0100
0010
0100
1000
0100
0010
0100
0001
0010
0100
0010
0001
2000
0000
0000
3001
,
1000
0000
0000
0100
0000
0000
1000
0000
0000
0010
0000
0000
0001
0000
0000
0000
0001
0000
0010
0000
0000
0100
0000
0000
0001
0000
0000
0010
0000
0000
0001
0000
0000
0100
0000
0000
1000
0000
0000
0000
1000
0000
0100
0000
0000
0001
0000
0000
,
1000
0000
0000
0100
0000
0000
0010
0000
0000
0100
0000
0000
1000
0000
0000
0001
0000
0000
0100
0000
0000
0010
0000
0000
0100
0000
0000
0001
0000
0000
0100
0000
0000
1000
0000
0000
0100
0000
0000
0010
0100
0000
0010
0000
0000
1000
0000
0000
,
0000
0000
0000
0100
0000
0000
1000
0000
0000
0100
0000
0000
0001
0000
0000
0000
0001
0000
0100
0000
0000
0010
0000
0000
0001
0000
0000
0100
0000
0000
0001
0000
0000
0100
0000
0000
1000
0000
0000
0000
1000
0000
0100
0000
0000
0001
0000
0000
,
0010
0100
1000
0010
0100
0010
0001
0010
0100
0001
0010
0100
0000
0000
0000
0000
;

//---------------dance-single - ----------------
#NOTES:
     dance-single:
     Normal:
     Medium:
     7:
     0.413786,0.452507,0.015205,0.121638,0.338305,381.000000,379.000000,2.000000,16.000000,0.000000,0.000000,0.413786,0.452507,0.015205,0.121638,0.338305,381.000000,379.000000,2.000000,16.000000,0.000000,0.000000:
// measure 0
0000
0000
0000
0000
,  // measure 1
0000
0000
0000
0000
,  // measure 2
0000
0000
0000
0000
,  // measure 3
0000
0000
0000
0000
0000
0000
0000
0001
,  // measure 4
0010
0000
0000
0001
0000
0000
1000
0000
0000
0001
0000
0000
0100
0000
0000
0010
0000
0000
0000
0000
0010
0000
0000
0000
,  // measure 5
1000
0010
1000
0001
0010
0100
0000
0100
,  // measure 6
1000
0100
0001
0100
0010
0001
0100
0000
,  // measure 7
0010
1000
0100
0000
0010
0001
0100
0000
,  // measure 8
0010
0000
0000
0100
0000
0000
0001
0000
0000
0010
0000
0000
0100
0000
0010
0000
0000
0000
0000
0000
0000
0001
0000
0000
,  // measure 9
1000
0000
0000
0010
0000
0000
0100
0000
0000
0010
0000
0000
1000
0000
0010
0000
0000
0000
0100
0000
0000
0001
0000
0000
,  // measure 10
1000
1000
0001
0010
0100
0100
0010
0001
,  // measure 11
0100
0100
0010
0010
1000
0100
0010
0001
,  // measure 12
0000
0000
0001
0000
0000
1000
0000
0000
0001
0000
0000
1000
0000
0000
0000
0000
0000
0000
0110
0000
0000
0001
0000
0000
,  // measure 13
1000
0000
0100
0000
0000
1000
0000
0000
0100
0000
0000
0020
0000
0000
0000
0000
0000
0000
0230
0000
0000
0000
0000
0000
,  // measure 14
0300
0000
0100
0000
0000
0010
0000
0000
0100
0000
0000
0010
0100
0000
0000
1000
0000
0000
0010
0000
0000
0100
0000
0000
,  // measure 15
0001
0000
0010
0000
0000
0001
0000
0000
0010
0000
0000
0001
0000
0000
0000
0010
0000
0000
0001
0000
0000
0100
0000
0000
,  // measure 16
2000
0000
0000
0000
0000
0000
3000
0000
0100
0000
0000
0010
0100
0000
0000
0010
0000
0000
1000
0000
0000
0001
0000
0000
,  // measure 17
0010
0000
0001
0000
0000
0100
0000
0000
0001
0000
0000
0200
0000
0000
0000
0000
0000
0000
0320
0000
0000
0000
0000
0000
,  // measure 18
0030
0000
0010
0000
0000
0100
0000
0000
0010
0000
0000
0100
0010
0000
0000
1000
0000
0000
0100
0000
0000
0010
0000
0000
,  // measure 19
0100
0000
1000
0000
0000
0100
0000
0000
1000
0000
0000
0100
1000
0000
0001
0000
0000
0000
0000
0000
0000
0001
0000
0000
,  // measure 20
0200
0000
0000
0000
0302
0000
1003
0001
,  // measure 21
0020
0100
0001
0100
,  // measure 22
0230
0000
0001
0000
0010
0000
1300
0010
,  // measure 23
0200
1000
0010
0001
,  // measure 24
0310
0100
0010
1000
0010
0100
0001
0010
,  // measure 25
0100
1000
0100
0010
0100
1000
0001
0100
,  // measure 26
0010
1000
0010
0001
0010
1000
0100
0001
,  // measure 27
0100
0000
0010
0000
0001
0000
0000
1000
0000
0000
0001
0000
0000
1000
0000
0000
,  // measure 28
0001
0001
0100
0100
1000
0010
0001
1000
,  // measure 29
0000
0000
1000
0000
0000
0001
0000
0000
1000
0000
0000
0001
0000
0000
0000
0000
0000
0000
0110
0000
0000
1000
0000
0000
,  // measure 30
0001
0000
0100
0000
0000
0001
0000
0000
0100
0000
0000
0020
0000
0000
0000
0000
0000
0000
0230
0000
0000
0000
0000
0000
,  // measure 31
0300
0000
0100
0000
0000
0010
0000
0000
0100
0000
0000
0010
0100
0000
0000
0001
0000
0000
0010
0000
0000
0100
0000
0000
,  // measure 32
1000
0000
0010
0000
0000
1000
0000
0000
0010
0000
0000
1000
0000
0000
0000
0010
0000
0000
1000
0000
0000
0100
0000
0000
,  // measure 33
0002
0000
0000
0000
0000
0000
0003
0000
0100
0000
0000
0010
0100
0000
0000
0010
0000
0000
0001
0000
0000
1000
0000
0000
,  // measure 34
0010
0000
1000
0000
0000
0100
0000
0000
1000
0000
0000
0200
0000
0000
0000
0000
0000
0000
0320
0000
0000
0000
0000
0000
,  // measure 35
0030
0000
0010
0000
0000
0100
0000
0000
0010
0000
0000
0100
0010
0000
0000
0001
0000
0000
0100
0000
0000
0010
0000
0000
,  // measure 36
0100
0000
0001
0000
0000
0100
0000
0000
0001
0000
0000
0100
0001
0000
1000
0000
0000
0000
0100
0000
0000
0000
0000
0000
,  // measure 37
0010
0001
1000
0000
0010
1000
0001
0010
,  // measure 38
0001
1000
0001
0100
0001
0010
0100
0000
,  // measure 39
0100
1000
0001
0000
0001
1000
0100
1000
,  // measure 40
0010
1000
0010
0100
0001
0010
0100
0000
,  // measure 41
1000
0100
1000
0000
0001
0100
0001
0000
,  // measure 42
1000
0000
0010
0000
0001
0000
0010
0000
1000
0000
0100
0000
0010
0001
0000
0000
,  // measure 43
0001
0010
0001
0000
1000
0010
1000
0000
,  // measure 44
0001
0000
0100
0000
1000
0000
0100
0000
0001
0000
0010
0000
0100
1000
0000
0000
,  // measure 45
1000
0010
1000
0000
1000
0100
1000
0000
,  // measure 46
1000
0000
0100
0000
0001
0000
0100
0000
1000
0000
0010
0000
0100
0010
0000
0000
,  // measure 47
0100
0001
0100
0000
0010
1000
0001
0000
,  // measure 48
0001
0000
0010
0000
1000
0000
0010
0000
0001
0000
0100
0000
0010
0000
0000
0010
,  // measure 49
0100
0000
0010
0000
1000
0000
0000
1000
0010
0000
0100
0000
0001
0000
0000
0001
,  // measure 50
0100
0000
0001
0000
0010
0000
0100
0000
1000
0000
0010
0000
0100
0010
0000
0010
,  // measure 51
0100
0000
0001
0000
0010
0000
0000
0010
0001
0000
1000
0000
0010
0000
0000
0010
,  // measure 52
1000
0100
1000
0010
0100
0001
0020
0000
,  // measure 53
0031
0000
0100
0000
1000
0000
0000
0100
1000
0000
0100
0000
0001
0000
0000
0001
,  // measure 54
0100
0000
0010
0000
1000
0000
0100
0000
0001
0000
0100
0000
0010
0100
0000
0100
,  // measure 55
1000
0000
0100
0000
0001
0000
0000
0100
0001
0000
0100
0000
1000
0000
0000
1000
,  // measure 56
0010
1000
0010
1000
0000
0001
0100
0001
0000
0010
0100
0010
0000
0000
0000
0000
;
