#TITLE:When I Was Young;
#SUBTITLE:;
#ARTIST:MØ;
#TITLETRANSLIT:;
#SUBTITLETRANSLIT:;
#ARTISTTRANSLIT:;
#GENRE:;
#CREDIT:;
#BANNER:[Wind Jammers] - When I Was Young.png;
#BACKGROUND:[Wind Jammers] - When I Was Young-bg.png;
#LYRICSPATH:;
#CDTITLE:;
#MUSIC:[Wind Jammers] - When I Was Young.ogg;
#OFFSET:-0.702334;
#SAMPLESTART:34.301090;
#SAMPLELENGTH:12.000000;
#SELECTABLE:YES;
#BPMS:0.000000=148.000000
;
#STOPS:147.000000=2.820000
;
#BGCHANGES:0.000=[Wind Jammers] - When I Was Young.avi=1.000=0=0=1=====,
99999=-nosongbg-=1.000=0=0=0 // don't automatically add -songbackground-
;
#KEYSOUNDS:;
#ATTACKS:;

//---------------dance-single - ----------------
#NOTES:
     dance-single:
     :
     Hard:
     8:
     0.436569,0.510452,0.176107,0.113952,0.512783,295.000000,278.000000,17.000000,11.000000,0.000000,0.000000,0.436569,0.510452,0.176107,0.113952,0.512783,295.000000,278.000000,17.000000,11.000000,0.000000,0.000000:
// measure 0
0000
0000
0000
0000
,  // measure 1
0000
0000
0000
0000
,  // measure 2
0000
0000
0000
0000
,  // measure 3
0000
0000
0000
0000
,  // measure 4
0000
0000
0000
1000
,  // measure 5
1000
0001
0001
1000
,  // measure 6
0010
0000
0010
0100
0000
0100
0001
0000
0001
0010
0000
0000
,  // measure 7
0001
0100
0100
1000
,  // measure 8
0100
1001
0010
0100
,  // measure 9
0100
0010
0010
1000
,  // measure 10
0001
0000
0001
1000
0000
1000
0010
0000
0010
0100
0000
0000
,  // measure 11
0001
0010
0010
1000
,  // measure 12
0010
0010
0100
2100
,  // measure 13
0001
0000
0000
0010
0000
0000
3001
0000
0000
1000
0000
0010
,  // measure 14
0100
0101
1000
0012
,  // measure 15
1000
0000
0000
0010
0000
0000
1003
0000
0000
0001
0000
0100
,  // measure 16
0010
1010
0010
0100
,  // measure 17
0100
0000
0000
0010
0000
0000
1000
0100
0010
0001
0000
1000
,  // measure 18
0002
0100
0010
0103
,  // measure 19
0001
1000
0001
0010
,  // measure 20
0100
0000
0000
1001
0000
0000
0001
0000
0000
1000
0100
1000
,  // measure 21
0100
0000
0000
0000
0000
0000
0000
0000
0000
0000
0000
0010
,  // measure 22
0001
0000
0001
0100
0000
0100
0010
0000
1000
0001
0010
0001
,  // measure 23
0010
0000
0000
0000
0000
0000
0000
0000
0000
0000
0000
0001
,  // measure 24
1000
0000
1000
0010
0000
0010
0100
0000
0100
0010
1000
0010
,  // measure 25
1000
0000
0000
0110
0000
0000
1000
0001
1000
0001
0000
0000
,  // measure 26
0000
0000
0000
1001
0000
0000
0000
0000
0000
0100
0000
0100
,  // measure 27
1000
0000
1000
0001
0000
0000
1000
0000
0200
0000
0000
0000
,  // measure 28
0301
0000
0200
0000
0000
0000
0300
0000
0000
1000
0100
1000
,  // measure 29
0100
0000
1000
0001
0000
0000
0010
0000
0000
0001
0000
0000
,  // measure 30
0100
0000
0100
0001
0000
0001
1000
0000
1000
0010
0100
0010
,  // measure 31
0100
0000
0001
0100
0000
0000
0100
0000
0000
0001
0000
0001
,  // measure 32
1000
0000
1000
0010
0000
0010
0100
0000
0100
0001
1000
0001
,  // measure 33
1000
0000
0000
1010
0000
0000
0100
0001
0100
0001
0000
0000
,  // measure 34
1000
0000
0001
2000
0000
0000
3001
0000
0000
1000
0000
1000
,  // measure 35
0010
0000
0010
0100
0000
0000
0001
0000
0000
1000
0000
0000
,  // measure 36
0010
0000
0100
0010
0000
0000
1001
0000
0000
0000
0000
0000
,  // measure 37
1010
0000
0000
1000
0000
0100
1000
0000
0100
1000
0000
0002
,  // measure 38
0010
0000
0000
0013
0000
0001
1000
0000
0001
1000
0000
0000
,  // measure 39
0101
0000
0000
0001
0000
0010
0001
0000
0010
0001
0000
2000
,  // measure 40
0100
0000
0000
3100
0000
1000
0001
0000
1000
0001
0000
0000
,  // measure 41
0101
0000
0000
0001
0000
0100
0010
0000
0100
0010
0000
2000
,  // measure 42
0001
0000
0000
3001
0000
1000
0100
0000
1000
0100
0000
0000
,  // measure 43
1001
0000
0000
0011
0000
0000
1100
0000
0000
0010
0000
1000
,  // measure 44
0000
0000
0001
0000
0000
0100
0001
0000
0000
0011
0000
0000
,  // measure 45
0001
1000
0001
1000
0000
0001
0100
0000
0001
0010
0100
1000
,  // measure 46
0001
0000
0000
1000
0000
0100
0010
0000
0100
0010
0000
0000
,  // measure 47
0001
0100
0001
0100
0000
0010
1000
0000
0010
1000
0000
0020
,  // measure 48
0001
0000
0000
0031
0000
0100
0010
0000
0100
0010
0000
0000
,  // measure 49
0001
1000
0001
1000
0000
0001
0100
0000
0001
0100
0000
0200
,  // measure 50
1000
0000
0000
1300
0000
0100
0010
0000
0100
0010
0000
0000
,  // measure 51
1000
0000
1000
0001
0000
0001
0100
0000
0000
0100
0000
0001
,  // measure 52
0000
0000
1000
0000
0000
0001
0100
0000
0000
0010
0000
0000
,  // measure 53
0000
0000
0000
0000
,  // measure 54
0000
0000
0000
0000
0000
0000
1000
0100
0010
0001
0000
0000
;

//---------------dance-single - ----------------
#NOTES:
     dance-single:
     :
     Medium:
     6:
     0.325577,0.384329,0.082874,0.103593,0.326317,220.000000,212.000000,8.000000,10.000000,0.000000,0.000000,0.325577,0.384329,0.082874,0.103593,0.326317,220.000000,212.000000,8.000000,10.000000,0.000000,0.000000:
0000
0000
0000
0000
,
0000
0000
0000
0000
,
0000
0000
0000
0000
,
0000
0000
0000
0000
,
0000
0000
0000
1000
,
1000
0001
0001
0100
,
1000
0100
0001
1000
,
1000
0001
0001
1000
,
0010
0001
0010
1000
,
1000
0100
0100
0010
,
0001
0100
1000
0100
,
0100
0001
0001
1000
,
1000
0100
0010
0002
,
1000
1000
1003
0001
,
0100
0010
1000
2000
,
0001
0001
3001
0100
,
0010
0110
0010
0000
,
0000
0000
0000
0000
0000
0000
0001
1000
0001
1000
0000
0000
,
2002
0000
3003
0001
,
0001
0100
0100
1000
,
0100
0000
0000
0001
0000
0000
0010
0000
0000
0001
1000
0001
,
1000
0000
0000
0000
,
0000
0000
0000
0000
0000
0000
0000
0000
0000
0010
0100
0010
,
0100
0000
0000
0000
,
0000
0000
0000
0000
0000
0000
0000
0000
0000
0001
0100
0001
,
0100
0000
0000
0000
0000
0000
0010
1000
0010
1000
0000
0000
,
0000
2002
3003
2000
,
0000
3001
0000
2000
,
0000
0000
0000
3001
0000
0000
0000
0000
0000
0100
0000
0100
,
0001
0000
0001
0010
0000
0000
0010
0000
0000
0100
0000
0000
,
0100
0000
0100
0010
0000
0010
0001
0000
0001
1000
0000
1000
,
0010
0000
0000
0100
0000
0000
0100
0000
0000
0001
0000
0001
,
0100
0000
0100
0010
0000
0010
1000
0000
1000
0100
0000
0100
,
0010
0000
0000
0000
0000
0000
0001
0000
0001
0100
0000
0000
,
0000
0000
0000
0220
0000
0000
0330
0000
0000
0010
0000
0010
,
1000
0000
1000
0001
0000
0000
1000
0000
0000
0100
0000
0000
,
0010
0001
1000
1001
,
0000
0000
0000
0000
0000
0010
0100
0000
0010
0100
0000
0010
,
0000
0000
0000
0000
0000
1000
0001
0000
1000
0001
0000
0000
,
0001
0000
0000
0000
0000
1000
0010
0000
1000
0010
0000
1000
,
0000
0000
0000
0000
0000
0010
0100
0000
0010
0100
0000
0000
,
0101
0000
0000
0000
0000
1000
0001
0000
1000
0001
0000
1000
,
0000
0000
0000
0000
0000
0010
0100
0000
0010
0100
0000
0000
,
0001
0000
0000
0100
0000
0000
0110
0000
0000
0010
0000
1000
,
0000
0000
0001
0000
0000
1000
0100
0000
0000
0010
0000
0000
,
0001
1000
0001
1000
0000
0001
0100
0000
0001
0010
0000
0001
,
0000
0000
0000
0000
0000
0001
1000
0000
1000
0010
0000
0000
,
1000
0100
1000
0100
0000
1000
0010
0000
1000
0010
0000
0100
,
0000
0000
0000
0000
0000
0001
0100
0000
0001
0100
0000
0000
,
0010
1000
0010
1000
0000
0010
0100
0000
0010
0100
0000
0001
,
0000
0000
0000
0000
0000
1000
0100
0000
1000
0100
0000
0000
,
0010
0001
0100
0010
,
1000
0001
1000
0001
,
1001
0000
0000
0000
;

//---------------dance-single - ----------------
#NOTES:
     dance-single:
     :
     Easy:
     3:
     0.250102,0.327871,0.207185,0.165748,0.000000,169.000000,149.000000,20.000000,16.000000,0.000000,0.000000,0.250102,0.327871,0.207185,0.165748,0.000000,169.000000,149.000000,20.000000,16.000000,0.000000,0.000000:
0000
0000
0000
0000
,
0000
0000
0000
0000
,
0000
0000
0000
0000
,
0000
0000
0000
0000
,
0000
0000
0000
1000
,
1000
0001
0001
1000
,
0010
0100
0000
0100
,
0100
0001
0001
0010
,
0001
1000
0000
0100
,
0100
1000
1000
0010
,
0100
0001
0000
0001
,
0001
0010
0010
0100
,
0010
0001
0000
2020
,
0000
0000
3030
0010
,
0010
0110
0000
0202
,
0000
0000
0303
0100
,
0100
0110
0010
1000
,
0000
0001
1000
1100
,
0000
1000
0000
0100
,
0010
0001
0001
1000
,
1000
0010
0010
0220
,
0330
0000
0000
0000
,
0000
0000
0000
2002
,
3003
0000
0000
0000
,
0000
0000
0000
2020
,
3030
0001
0000
0202
,
0303
0001
0000
0010
,
0010
0100
0000
0001
,
0001
1000
0000
0100
,
0100
0100
0100
0100
,
0010
0001
0100
0001
,
0001
0001
0001
0001
,
1000
0100
1000
0010
,
0010
0100
0000
0001
,
0001
1000
0000
1000
,
0100
0010
0001
1000
,
0100
0010
0001
1001
,
0002
0003
0001
0100
,
0010
0000
0010
1000
,
1002
1003
0100
0100
,
0010
0000
0001
0001
,
0201
0301
0100
0100
,
0010
0000
1000
1000
,
2100
3010
1000
0001
,
0100
0001
0011
1100
,
1000
0001
0101
0000
,
0001
0100
0110
0000
,
0010
1000
1100
0000
,
0010
0001
0011
0000
,
0001
0001
0100
0010
,
1000
1000
0001
1000
,
0100
0010
0001
0001
,
0100
0010
1000
1001
;

//---------------dance-single - ----------------
#NOTES:
     dance-single:
     :
     Beginner:
     1:
     0.105072,0.163158,0.000000,0.041437,0.000000,71.000000,71.000000,0.000000,4.000000,0.000000,0.000000,0.105072,0.163158,0.000000,0.041437,0.000000,71.000000,71.000000,0.000000,4.000000,0.000000,0.000000:
0000
0000
0000
0000
,
0000
0000
0000
0000
,
0000
0000
0000
0000
,
0000
0000
0000
0000
,
0000
0000
0000
1000
,
0000
0000
0000
0001
,
0000
0000
0000
0010
,
0000
0000
0000
0100
,
0000
0000
0000
0010
,
0000
0000
0000
0001
,
0000
0000
0000
1000
,
0000
0000
0000
0100
,
0000
0000
0000
0010
,
0000
0000
0000
0010
,
0000
0000
0000
0001
,
0000
0000
0000
0001
,
0000
0000
0000
0100
,
0000
0000
0010
0010
,
0000
0000
0000
1000
,
0000
1000
0000
0001
,
0000
0001
0000
2000
,
3000
0000
0000
0000
,
0000
0000
0000
0002
,
0003
0000
0000
0000
,
0000
0000
0000
0200
,
0300
0000
0000
0000
,
0000
0020
0030
0000
,
0000
0100
0000
0000
,
0000
0100
0000
0001
,
0001
0001
0000
1000
,
0000
1000
0000
1000
,
1000
1000
0000
0100
,
0000
0100
0000
0010
,
0010
0010
0000
0001
,
0000
0001
0000
1000
,
0000
1000
0000
0010
,
0000
0100
0000
0000
,
0001
0000
0001
0001
,
0000
0000
1000
1000
,
0000
0000
0010
0010
,
0000
0000
0100
0100
,
0000
0000
0001
0001
,
0000
0000
0010
0010
,
0000
0000
0000
0000
,
0000
0000
0000
0000
,
0000
0000
0010
0010
,
0000
0000
0001
0001
,
0000
0000
1000
1000
,
0000
0000
0010
0010
,
0000
0000
0100
0100
,
0000
0000
0001
0001
,
0000
0000
1000
0000
,
0000
0000
0001
0000
;
