#VERSION:0.83;
#TITLE:Smooth Operator;
#SUBTITLE:;
#ARTIST:Sade;
#TITLETRANSLIT:;
#SUBTITLETRANSLIT:;
#ARTISTTRANSLIT:;
#GENRE:;
#ORIGIN:;
#CREDIT:;
#BANNER:Smooth Operator.png;
#BACKGROUND:Smooth Operator-bg.png;
#PREVIEWVID:;
#JACKET:Smooth Operator-jacket.png;
#CDIMAGE:;
#DISCIMAGE:;
#LYRICSPATH:;
#CDTITLE:;
#MUSIC:Smooth Operator.ogg;
#OFFSET:0.020000;
#SAMPLESTART:22.361000;
#SAMPLELENGTH:17.854000;
#SELECTABLE:YES;
#BPMS:0.000=119.300;
#STOPS:;
#DELAYS:;
#WARPS:;
#TIMESIGNATURES:0.000=4=4;
#TICKCOUNTS:0.000=4;
#COMBOS:0.000=1;
#SPEEDS:0.000=1.000=0.000=0;
#SCROLLS:0.000=1.000;
#FAKES:;
#LABELS:0.000=Song Start;
#BGCHANGES:;
#KEYSOUNDS:;
#ATTACKS:
;

//---------------dance-single - ----------------
#NOTEDATA:;
#CHARTNAME:;
#STEPSTYPE:dance-single;
#DESCRIPTION:;
#CHARTSTYLE:;
#DIFFICULTY:Hard;
#METER:6;
#RADARVALUES:0.346936,0.371244,0.177888,0.170154,0.015469,314.000000,291.000000,23.000000,22.000000,0.000000,0.000000,0.000000,0.000000,0.000000,0.346936,0.371244,0.177888,0.170154,0.015469,314.000000,291.000000,23.000000,22.000000,0.000000,0.000000,0.000000,0.000000,0.000000;
#CREDIT:;
#NOTES:
// measure 0
0000
0000
0000
0000
,  // measure 1
0000
0000
0000
0000
,  // measure 2
0000
0000
0000
0000
,  // measure 3
0000
0000
0000
0000
,  // measure 4
1000
0000
0001
1000
0100
0020
0000
0001
,  // measure 5
0000
0100
0000
0031
1000
0000
0101
0000
,  // measure 6
0010
0000
0100
0010
1000
0002
0000
0010
,  // measure 7
0000
1003
0001
0100
0010
0100
0001
1000
,  // measure 8
0001
0000
1000
0001
0010
0200
0000
1000
,  // measure 9
0000
0010
0000
1300
0001
0000
1010
0000
,  // measure 10
0110
0000
1001
0000
0000
0010
1000
0001
,  // measure 11
0000
0001
1000
0100
0010
0000
0100
0010
,  // measure 12
0001
0000
1000
0010
0100
0000
1000
0001
,  // measure 13
1000
0000
0001
0100
0010
0000
0110
0000
,  // measure 14
1000
0000
0001
0100
0010
0000
0001
1000
,  // measure 15
0001
0000
1000
0010
0100
0000
1000
0100
,  // measure 16
1000
0000
0100
1000
0001
0200
0000
0010
,  // measure 17
0000
0000
1300
0000
0100
0000
0010
0000
1000
0000
0000
0001
0010
0000
0000
0000
,  // measure 18
0200
0000
0001
0000
0010
0000
1300
0100
,  // measure 19
0020
0000
0000
0000
0001
0001
0001
0001
,  // measure 20
0031
1010
0001
1010
,  // measure 21
0011
0101
1100
1010
,  // measure 22
1000
0001
0000
0001
0020
0100
0000
1000
,  // measure 23
0000
0100
0130
0000
0010
0000
1100
0000
,  // measure 24
0001
1100
0001
1100
,  // measure 25
0101
0011
1010
1100
,  // measure 26
1000
0001
0000
0100
0000
0010
0010
0100
,  // measure 27
0000
0001
0001
1000
0000
0100
0100
0000
,  // measure 28
0020
0001
0100
1000
,  // measure 29
0230
0001
0010
1000
,  // measure 30
0320
0000
0100
0100
,  // measure 31
0032
0000
0010
0010
,  // measure 32
2003
0000
3001
0100
,  // measure 33
2000
0000
3001
0010
,  // measure 34
0001
1000
0001
0010
,  // measure 35
1000
0000
0001
0000
1000
1000
1000
0000
,  // measure 36
0001
0000
1100
0000
0010
0000
0100
1000
,  // measure 37
0000
1000
0001
0000
1000
0001
0010
0100
,  // measure 38
1000
0000
0100
1000
0001
0000
0100
0000
,  // measure 39
1000
0100
0001
0000
1000
0001
0010
0100
,  // measure 40
0010
0000
0001
0100
0010
0000
0100
0001
,  // measure 41
1000
0000
0100
0001
0100
1000
0001
0100
,  // measure 42
0010
0000
0101
0000
0010
1000
0001
0010
,  // measure 43
1000
0010
0100
1000
0001
0000
0110
0000
,  // measure 44
0001
0000
1000
0100
0010
0000
1000
0001
,  // measure 45
1000
0000
0001
0010
0100
0000
0110
0000
,  // measure 46
1000
0000
0001
0010
0100
0000
0001
1000
,  // measure 47
0001
0000
1000
0100
0010
0000
1000
0010
,  // measure 48
1000
0000
0010
1000
0001
0020
0000
0100
,  // measure 49
0000
0000
1030
0000
0010
0000
0100
0000
1000
0000
0000
0001
0100
0000
0000
0000
,  // measure 50
0020
0000
0001
0000
0100
0000
1030
0010
,  // measure 51
0100
0002
0100
0000
1000
0000
0013
0000
,  // measure 52
0100
0000
1000
0010
0100
0010
1000
0001
,  // measure 53
0010
1000
0100
0001
1000
0001
1000
0000
,  // measure 54
0001
0000
1000
0200
0010
0000
0301
0100
,  // measure 55
0010
0001
1000
0000
0010
0000
0100
0010
,  // measure 56
0100
0000
0001
0020
0100
0000
1000
0000
,  // measure 57
0130
0000
0000
0000
0010
0100
0000
0000
0100
1000
0000
0000
0001
0000
1000
0000
,  // measure 58
0020
0031
0200
1300
,  // measure 59
2002
0000
0000
0000
,  // measure 60
3003
0000
0000
0000
;

//---------------dance-single - ----------------
#NOTEDATA:;
#CHARTNAME:;
#STEPSTYPE:dance-single;
#DESCRIPTION:;
#CHARTSTYLE:;
#DIFFICULTY:Medium;
#METER:4;
#RADARVALUES:0.255230,0.278433,0.046406,0.208825,0.000000,231.000000,225.000000,6.000000,27.000000,0.000000,0.000000,0.000000,0.000000,0.000000,0.255230,0.278433,0.046406,0.208825,0.000000,231.000000,225.000000,6.000000,27.000000,0.000000,0.000000,0.000000,0.000000,0.000000;
#CREDIT:;
#NOTES:
0000
0000
0000
0000
,
0000
0000
0000
0000
,
0000
0000
0000
0000
,
0000
0000
0000
0000
,
1000
0100
0001
0100
,
1000
0000
0001
0000
0100
0000
0010
0100
,
0010
1000
0100
0001
,
0100
0000
1000
0000
0001
1000
0001
1000
,
0001
0100
1000
0100
,
0001
0000
1000
0000
0100
0000
0010
0100
,
0010
0000
1001
0000
0000
0001
1000
0001
,
0000
1000
0010
0100
,
0001
1000
0200
0001
,
0010
1000
0010
0310
,
0002
1000
0103
0010
,
0100
0002
0100
1000
,
1003
0001
0020
1000
,
0100
0001
0130
0100
,
2000
0001
3010
0100
,
0002
0000
0000
0000
1003
0001
1000
0001
,
1000
0001
1000
0100
,
0001
0010
1000
1000
,
0001
0010
0200
0000
,
1000
0000
0310
0010
,
0001
1000
0001
0100
,
1000
0010
0001
0001
,
0000
1000
0000
0001
0000
0100
0000
1001
,
0000
0100
0000
1001
0000
0100
0100
0000
,
0020
0100
0100
0100
,
0001
0100
0100
0100
,
2030
0000
0010
0010
,
3002
0000
1000
1000
,
0023
0000
0031
0100
,
0020
0000
1030
0100
,
0010
0100
1000
0010
,
0001
0000
0100
0000
1000
0001
1000
0000
,
0002
0000
0100
0000
1000
0000
0013
0010
,
0100
0000
1000
0000
0010
0000
1000
0001
,
1000
0100
0010
0001
,
1000
0001
1000
0000
1000
0000
0001
0000
,
0200
1300
0200
0301
,
1000
0100
0001
0010
,
2000
0001
3100
0010
,
0100
0000
1000
0000
0001
0000
0001
1000
,
0001
1000
0020
0001
,
0100
1000
0130
0100
,
0002
1000
0013
0100
,
0010
0002
0010
1000
,
1003
0001
0200
1000
,
0010
0001
0310
0010
,
2000
0001
3100
0010
,
0001
2000
0010
0001
,
3001
0010
1000
0100
,
0001
0010
1000
0100
,
0002
1000
0023
1030
,
0010
0100
1000
0001
,
1000
0010
0002
1000
,
0013
0000
0110
0000
1001
0000
1000
0001
,
1000
0000
1000
0001
,
2002
0000
0000
0000
,
3003
0000
0000
0000
;

//---------------dance-single - ----------------
#NOTEDATA:;
#CHARTNAME:;
#STEPSTYPE:dance-single;
#DESCRIPTION:;
#CHARTSTYLE:;
#DIFFICULTY:Easy;
#METER:2;
#RADARVALUES:0.154685,0.255230,0.116014,0.177888,0.000000,140.000000,125.000000,15.000000,23.000000,0.000000,0.000000,0.000000,0.000000,0.000000,0.154685,0.255230,0.116014,0.177888,0.000000,140.000000,125.000000,15.000000,23.000000,0.000000,0.000000,0.000000,0.000000,0.000000;
#CREDIT:;
#NOTES:
0000
0000
0000
0000
,
0000
0000
0000
0000
,
0000
0000
0000
0000
,
0000
0000
0000
0000
,
0010
0000
1000
0000
,
0100
0000
0001
0010
,
1000
0000
0100
0000
,
0001
0000
0010
1000
,
0001
0000
0100
0000
,
1000
0000
0010
0001
,
1000
0000
2000
0000
0000
0000
0000
3000
,
0000
0000
0002
0003
,
1000
0000
0010
0000
,
0001
0000
0100
0100
,
0020
0000
0030
0100
,
0200
0000
0310
0001
,
0100
0000
1000
0000
,
0010
0000
0100
0100
,
2000
0000
0000
0001
,
0002
0000
0000
3000
,
1003
0000
1000
0000
,
0001
0000
0001
0001
,
1000
0010
0200
0000
,
0001
0000
0010
0310
,
1000
0000
0010
0000
,
0100
0000
0001
0001
,
0000
1000
0100
0020
,
0000
0000
0000
0130
,
0020
0000
0000
0000
,
0000
0000
0000
0000
,
0032
0000
0000
0000
,
0203
0000
0000
0000
,
0320
0000
0000
0000
,
0000
0000
0000
0000
,
0230
0000
0000
0000
,
0302
0000
1003
1001
,
0001
0100
0000
0101
,
0000
1001
0000
1100
,
0000
0110
0000
1100
,
0000
0101
0000
0001
,
1000
0010
0000
1010
,
0000
1001
0000
0011
,
0000
0110
0000
0011
,
0000
1010
0000
0100
,
0001
0000
0010
0000
,
1000
0000
0100
0100
,
0020
0000
0030
0100
,
0200
0000
0310
1000
,
0100
0000
0001
0000
,
0010
0000
0100
0100
,
0002
0000
0000
1000
,
2000
0000
0000
0000
0000
3003
0000
0000
,
0001
0001
1000
1000
,
0010
0010
0100
0100
,
0020
0100
0000
1030
,
0002
1000
0000
0013
,
0100
0010
0010
0100
,
1000
1100
1100
1000
,
0002
0003
0002
0000
,
2000
0000
0000
0000
,
3003
0000
0000
0000
;

//---------------dance-single - ----------------
#NOTEDATA:;
#CHARTNAME:;
#STEPSTYPE:dance-single;
#DESCRIPTION:;
#CHARTSTYLE:;
#DIFFICULTY:Beginner;
#METER:1;
#RADARVALUES:0.081762,0.208825,0.007734,0.177888,0.000000,74.000000,73.000000,1.000000,23.000000,0.000000,0.000000,0.000000,0.000000,0.000000,0.081762,0.208825,0.007734,0.177888,0.000000,74.000000,73.000000,1.000000,23.000000,0.000000,0.000000,0.000000,0.000000,0.000000;
#CREDIT:;
#NOTES:
0000
0000
0000
0000
,
0000
0000
0000
0000
,
0000
0000
0000
0000
,
0000
0000
0000
0000
,
1000
0000
0000
0000
,
0000
0000
0000
0000
,
0010
0000
0000
0000
,
0000
0000
0000
0000
,
0100
0000
0000
0000
,
0000
0000
0000
0000
,
0000
1001
0000
0000
,
0000
0000
0000
0000
,
1000
0000
0002
0000
,
0000
0000
0000
0003
,
0200
0000
0300
0000
,
0020
0000
0000
0030
,
1000
0000
0002
0000
,
0000
0000
0003
0000
,
0020
0000
0030
0000
,
0200
0000
0000
0000
,
0300
0000
0000
0100
,
0000
0100
0000
0100
,
0000
1000
0000
1000
,
0000
1000
0000
1000
,
0000
0001
0000
0001
,
0000
0001
0000
0001
,
0000
0100
0000
0010
,
0000
0000
0000
0000
,
0200
0000
0000
0000
,
0000
0000
0300
0000
,
0002
0000
0003
0000
,
2000
0000
3000
0000
,
0200
0000
0000
0000
,
0000
0000
0300
0020
,
0000
0000
0030
0000
,
0002
0000
0003
0001
,
0002
0000
0000
0003
,
0000
0100
0000
0100
,
0000
0010
0000
0010
,
0000
1000
0000
1000
,
0000
0100
0000
0100
,
0000
0010
0000
0001
,
0000
1000
0000
0010
,
0000
0100
0000
0001
,
0001
0000
2000
0000
,
0000
0000
3000
0000
,
0200
0000
0300
0000
,
0020
0000
0030
0000
,
0001
0000
2000
0000
,
0000
0000
3000
0000
,
0020
0000
0030
0000
,
0200
0000
0000
0300
,
0100
0100
0100
0100
,
0100
0100
0100
0100
,
0200
0000
0300
0000
,
0002
0000
0003
0000
,
1000
0000
0002
0000
,
0003
0001
0001
0001
,
0001
0000
0010
0000
,
0200
0000
0000
0000
,
0300
0000
0000
0000
;
