#VERSION:0.83;
#TITLE:Run Away With Me;
#SUBTITLE:;
#ARTIST:Carly Rae Jepsen;
#TITLETRANSLIT:;
#SUBTITLETRANSLIT:;
#ARTISTTRANSLIT:;
#GENRE:;
#ORIGIN:;
#CREDIT:;
#BANNER:banner.png;
#BACKGROUND:Run Away With Me-bg.png;
#PREVIEWVID:;
#JACKET:jacket.png;
#CDIMAGE:;
#DISCIMAGE:;
#LYRICSPATH:;
#CDTITLE:;
#MUSIC:Run Away With Me.ogg;
#OFFSET:-0.377058;
#SAMPLESTART:64.899963;
#SAMPLELENGTH:12.000000;
#SELECTABLE:YES;
#BPMS:0.000=119.000;
#STOPS:;
#DELAYS:;
#WARPS:;
#TIMESIGNATURES:0.000=4=4;
#TICKCOUNTS:0.000=4;
#COMBOS:0.000=1;
#SPEEDS:0.000=1.000=0.000=0;
#SCROLLS:0.000=1.000;
#FAKES:;
#LABELS:0.000=Song Start;
#BGCHANGES:;
#KEYSOUNDS:;
#ATTACKS:
;

//---------------dance-single - ----------------
#NOTEDATA:;
#CHARTNAME:;
#STEPSTYPE:dance-single;
#DESCRIPTION:;
#CHARTSTYLE:;
#DIFFICULTY:Beginner;
#METER:1;
#RADARVALUES:0.074908,0.117345,0.008457,0.000000,0.000000,62.000000,61.000000,1.000000,0.000000,0.000000,0.000000,0.000000,0.000000,0.000000,0.074908,0.117345,0.008457,0.000000,0.000000,62.000000,61.000000,1.000000,0.000000,0.000000,0.000000,0.000000,0.000000,0.000000;
#CREDIT:;
#NOTES:
0000
0000
0000
0000
,
0000
0000
0000
0000
,
0000
0000
0000
0000
,
0000
0000
0000
0000
,
0000
0000
0000
0000
,
0000
0000
0000
0000
,
0000
0000
0000
0000
,
0000
0000
0000
0000
,
1000
0000
0000
0000
,
1000
0000
0000
0000
,
0100
0000
0000
0000
,
0100
0000
0000
0000
,
0010
0000
0000
0000
,
0010
0000
0000
0000
,
0001
0000
0000
0000
,
0000
0000
0000
0000
,
0001
0000
0000
0000
,
0001
0000
0000
0000
,
0100
0000
0000
0000
,
0100
0000
0000
0000
,
0010
0000
0000
0000
,
0010
0000
0000
0000
,
1000
0000
0000
0000
,
0000
0000
0000
0000
,
1000
0000
0000
0000
,
0100
0000
0100
0000
,
0010
0000
0000
0000
,
0001
0000
0001
0000
,
1000
0000
0000
0000
,
0010
0000
0010
0000
,
0100
0000
0000
0000
,
0100
0000
0000
0000
,
1001
0000
0000
0000
,
0001
0000
0001
0000
,
0001
0000
0000
0000
,
1000
0000
1000
0000
,
1000
0000
0000
0000
,
0010
0000
0010
0000
,
0010
0000
0010
0000
,
0000
0000
0100
0000
,
0100
0000
0000
0000
,
0001
0000
0001
0000
,
0001
0000
0000
0000
,
0010
0000
0010
0000
,
0010
0000
0000
0000
,
0100
0000
0100
0000
,
0100
0000
1000
0000
,
0000
0000
1000
0000
,
0001
0000
0000
0000
,
0100
0000
0000
0000
,
0010
0000
0010
0000
,
1000
0000
1000
0000
,
0100
0000
0000
0000
,
0010
0000
0000
0000
,
0001
0000
0001
0000
,
1000
0000
1000
0000
;

//---------------dance-single - ----------------
#NOTEDATA:;
#CHARTNAME:;
#STEPSTYPE:dance-single;
#DESCRIPTION:;
#CHARTSTYLE:;
#DIFFICULTY:Easy;
#METER:3;
#RADARVALUES:0.207808,0.239976,0.101488,0.059201,0.000000,172.000000,160.000000,12.000000,7.000000,0.000000,0.000000,0.000000,0.000000,0.000000,0.207808,0.239976,0.101488,0.059201,0.000000,172.000000,160.000000,12.000000,7.000000,0.000000,0.000000,0.000000,0.000000,0.000000;
#CREDIT:;
#NOTES:
0000
0000
0000
0000
,
0000
0000
0000
0000
,
0000
0000
0000
0000
,
0000
0000
0000
0000
,
1000
0000
0000
0001
,
0001
0000
0000
0100
,
0100
0000
0000
0010
,
0010
0000
0000
0000
,
1000
1000
0100
0100
,
0010
0010
0001
0001
,
0000
0001
0100
0100
,
0010
0010
1000
1000
,
0000
0001
0002
0000
,
0003
1000
2000
0000
,
3100
0000
0100
0000
,
0010
0000
0010
0000
,
0001
0001
0100
0100
,
0010
0010
1000
1000
,
0000
1000
0100
0100
,
0010
0010
0001
0001
,
0000
1000
2000
0000
,
3000
0001
0002
0000
,
0103
0000
0100
0000
,
0010
0000
0010
1000
,
0100
1001
0010
0000
,
1000
1000
0001
0001
,
1000
0110
0001
0000
,
1000
0100
0010
0001
,
0100
0110
0010
0000
,
0010
1000
0100
0010
,
0002
0000
0100
0000
,
2000
0000
3003
0110
,
1001
0000
0000
1001
,
0001
0001
1000
1000
,
0100
0000
0000
1001
,
1000
1000
0010
0010
,
1000
0000
0000
1001
,
0001
0100
0001
0010
,
0100
1000
1000
1000
,
0010
0100
0100
0100
,
1001
0000
0000
1001
,
0100
0100
0001
0001
,
1000
0000
0000
1001
,
1000
1000
0010
0010
,
1000
0000
0000
1001
,
0001
0001
0100
0100
,
0010
1000
1000
1000
,
0001
0100
0100
0100
,
0001
0000
0010
0010
,
0100
0000
1000
1000
,
0001
0100
0100
0100
,
0001
1000
1000
1000
,
0010
0000
1000
1000
,
0100
0000
0010
0010
,
0001
0100
0100
0100
,
0010
1000
1000
1000
,
0002
0000
0000
0003
;

//---------------dance-single - ----------------
#NOTEDATA:;
#CHARTNAME:;
#STEPSTYPE:dance-single;
#DESCRIPTION:;
#CHARTSTYLE:;
#DIFFICULTY:Medium;
#METER:6;
#RADARVALUES:0.236805,0.287971,0.160689,0.152231,0.126860,196.000000,177.000000,19.000000,18.000000,0.000000,0.000000,0.000000,0.000000,0.000000,0.236805,0.287971,0.160689,0.152231,0.126860,196.000000,177.000000,19.000000,18.000000,0.000000,0.000000,0.000000,0.000000,0.000000;
#CREDIT:;
#NOTES:
0000
0000
0000
0000
,
0000
0000
0000
0000
,
0000
0000
0000
0000
,
0000
0000
0000
0000
,
2000
0000
0000
0001
,
3002
0000
0000
0100
,
0203
0000
0000
0010
,
0320
0000
0000
0000
,
1030
0100
1000
0100
,
0010
0001
0011
0011
,
0001
0100
0001
0100
,
0010
1000
1010
1010
,
1000
0100
0020
0000
,
0031
0100
0020
0000
,
2030
0000
3200
0000
,
0320
0000
0032
0000
,
1003
0010
0100
0001
,
0010
0100
1001
1001
,
0001
0010
0100
1000
,
0010
0100
1001
1001
,
1000
0010
2000
0000
,
3001
0100
0002
0000
,
0023
0000
0230
0000
,
2300
0000
0000
0000
0000
0000
3001
0000
0100
0000
0010
0000
,
1000
0000
1100
0000
,
0001
0000
0001
0000
0001
0000
1000
0000
1000
0000
1000
0000
,
0010
0000
1001
0000
,
0100
0000
0100
0000
0100
0000
0001
0000
0001
0000
0001
0000
,
1000
0000
1010
0000
,
0001
0000
0010
0000
0100
0000
1000
0000
0100
0000
0010
0000
,
0002
0000
0000
0100
,
2000
0000
3003
0110
,
1001
0100
0000
0101
,
0100
0100
0010
0010
,
1000
1000
0000
1010
,
1000
0100
0010
0001
,
0100
0010
0000
0101
,
0001
0010
0100
1000
,
0010
0000
0000
0000
0000
0000
0010
0000
0010
0000
0010
0000
,
0000
0000
0000
0000
0000
0000
0100
0000
0100
0000
0100
0000
,
0001
0000
0000
0110
,
1000
0100
0010
0001
,
0100
0010
0000
1001
,
0001
0010
0100
1000
,
0010
0100
0000
1010
,
1000
0100
0010
0001
,
1000
0000
0000
0000
0000
0000
0001
0000
0001
0000
0001
0000
,
0000
0000
0000
0000
0000
0000
1000
0000
1000
0000
1000
0000
,
0100
1000
0010
0100
,
0100
0001
0010
0100
,
1000
0000
0000
0000
0000
0000
0001
0000
0010
0000
0100
0000
,
1000
0000
0000
0000
0000
0000
1000
0000
0100
0000
0010
0000
,
0001
1000
0010
0010
,
1000
0001
0100
0100
,
0001
0000
0000
0000
0000
0000
1000
0000
0010
0000
0100
0000
,
0001
0000
0000
0000
0000
0000
0001
0000
0010
0000
0100
0000
,
2000
0000
0000
3000
;

//---------------dance-single - ----------------
#NOTEDATA:;
#CHARTNAME:;
#STEPSTYPE:dance-single;
#DESCRIPTION:;
#CHARTSTYLE:;
#DIFFICULTY:Hard;
#METER:8;
#RADARVALUES:0.399910,0.431957,0.228347,0.498981,0.583554,331.000000,304.000000,27.000000,59.000000,0.000000,0.000000,0.000000,0.000000,0.000000,0.399910,0.431957,0.228347,0.498981,0.583554,331.000000,304.000000,27.000000,59.000000,0.000000,0.000000,0.000000,0.000000,0.000000;
#CREDIT:;
#NOTES:
// measure 0
0000
0000
0000
0000
,  // measure 1
0000
0000
0000
0000
,  // measure 2
0000
0000
0000
0000
,  // measure 3
0000
0000
0000
0000
,  // measure 4
2000
0000
0000
0000
0000
0000
0000
0000
0000
3100
0010
0002
,  // measure 5
0000
0000
0000
0000
0000
0000
0000
0000
0000
0103
0010
2000
,  // measure 6
0000
0000
0000
0000
0000
0000
0000
0000
0000
3100
0010
0002
,  // measure 7
0000
0000
0000
0000
,  // measure 8
1003
0000
0000
0001
0010
0100
1000
0000
0000
1000
0010
0100
,  // measure 9
0001
0000
0000
0001
0010
0100
1000
0000
1000
0001
0000
0001
,  // measure 10
1000
0000
0000
0001
0100
0010
1000
0000
0000
1000
0100
0010
,  // measure 11
0001
0000
0001
0100
0010
1000
0001
0000
0001
1000
0000
1000
,  // measure 12
0001
0000
0000
1000
0100
0010
0002
0000
0000
0100
0000
0000
,  // measure 13
1003
0000
0000
0001
0010
0100
2000
0000
0010
0000
0100
0000
,  // measure 14
3001
0000
0000
0012
0000
0000
1003
0000
0000
1000
0010
0100
,  // measure 15
0001
0200
0310
1002
,  // measure 16
1003
0000
0000
0010
1000
0100
0010
0000
0000
0010
0001
0100
,  // measure 17
0010
0000
0000
0010
1000
0100
0010
0000
0010
0001
0000
0001
,  // measure 18
0100
0000
0000
0100
0001
0010
0100
0000
0000
0100
1000
0010
,  // measure 19
0100
0000
0100
0001
0010
0100
1000
0000
1000
0001
0000
0001
,  // measure 20
1000
0000
0000
0001
0010
0100
2000
0000
0000
0010
0000
0000
,  // measure 21
3001
0000
0000
1000
0010
0100
0002
0000
0010
0000
0100
0000
,  // measure 22
1003
0000
0000
2100
0000
0000
3001
0000
0000
1000
0010
0100
,  // measure 23
0001
0000
0000
0011
0000
0001
1000
0000
0010
0000
0100
0000
,  // measure 24
0001
0000
0000
1100
0000
0001
1000
0000
0000
0011
0000
0000
,  // measure 25
2000
0000
0010
0000
0100
0000
3002
0000
0010
0000
0100
0000
,  // measure 26
1003
0000
0000
0101
0000
1000
0001
0000
0000
1010
0000
0000
,  // measure 27
0002
0000
0010
0000
0100
0000
2003
0000
0010
0000
0100
0000
,  // measure 28
3001
0000
0000
1100
0000
0001
1000
0000
0000
0011
0000
0000
,  // measure 29
2000
0000
3020
0000
0032
0000
2003
0000
3200
0000
0302
0000
,  // measure 30
1003
0000
0000
0011
0000
0000
1000
0000
0000
0001
0010
0100
,  // measure 31
2000
0000
3000
0101
,  // measure 32
1001
0000
0002
0010
0000
0000
1003
0000
0000
1001
0000
0000
,  // measure 33
1000
0000
0020
0001
0000
0000
1030
0000
0200
0001
0000
0000
,  // measure 34
1300
0000
0020
0001
0000
0000
1030
0000
0000
1001
0000
0000
,  // measure 35
0002
0000
0023
0000
0230
0000
2300
0000
3020
0000
0230
0000
,  // measure 36
0301
0000
2000
0100
0000
0000
3001
0000
0000
1001
0000
0000
,  // measure 37
0001
0000
0010
0100
0000
0000
1000
0000
0000
0010
0000
0100
,  // measure 38
0002
0000
0000
0003
1000
0010
0100
0000
0100
0000
0100
0000
,  // measure 39
0202
0000
0000
0303
0001
0010
0100
0000
0100
0000
0100
0000
,  // measure 40
1100
0000
2000
0001
0000
0000
3010
0000
0000
1001
0000
0000
,  // measure 41
1000
0000
0200
0001
0000
0000
1300
0000
0020
0001
0000
0000
,  // measure 42
1030
0000
0200
0001
0000
0000
1300
0000
0000
1001
0000
0000
,  // measure 43
0002
0000
0203
0000
0320
0000
2030
0000
3200
0000
0320
0000
,  // measure 44
0031
0000
0200
1000
0000
0000
0301
0000
0000
1001
0000
0000
,  // measure 45
0001
0000
0010
0100
0000
0000
1000
0000
0000
0010
0000
0100
,  // measure 46
0002
0000
0000
0000
1003
0100
0010
0000
0010
0000
0010
0000
,  // measure 47
2200
0000
0000
3300
0001
0100
0010
0000
0010
0000
0010
0000
,  // measure 48
0101
0000
0000
0001
0000
0000
1000
0000
0000
0001
0100
0010
,  // measure 49
1000
0000
0000
0001
0000
0000
1000
0000
0000
0001
0010
0100
,  // measure 50
2000
0000
0000
0000
3001
0100
0010
0000
0010
0000
0010
0000
,  // measure 51
2020
0000
0000
3030
0001
0010
0100
0000
0100
0000
0100
0000
,  // measure 52
1001
0000
0000
0001
0000
0000
1000
0000
0000
0001
0100
0010
,  // measure 53
1000
0000
0000
0001
0000
0000
1000
0000
0000
0001
0010
0100
,  // measure 54
2000
0000
0000
0000
3001
0100
0010
0000
0010
0000
0010
0000
,  // measure 55
0202
0000
0000
0303
1000
0100
0010
0000
0010
0000
0010
0000
,  // measure 56
2002
0000
0000
3003
;
