#TITLE:Right Back;
#SUBTITLE:;
#ARTIST:ag;
#TITLETRANSLIT:;
#SUBTITLETRANSLIT:;
#ARTISTTRANSLIT:;
#GENRE:90's House;
#CREDIT:;
#BANNER:Right Back.png;
#BACKGROUND:Right Back-bg.png;
#LYRICSPATH:;
#CDTITLE:;
#MUSIC:Right Back.ogg;
#OFFSET:-0.407000;
#SAMPLESTART:62.080002;
#SAMPLELENGTH:15.484000;
#SELECTABLE:YES;
#BPMS:0.000000=124.000000
;
#STOPS:
;
#BGCHANGES:;
#KEYSOUNDS:;
#ATTACKS:;

//---------------dance-single - ----------------
#NOTES:
     dance-single:
     :
     Beginner:
     1:
     0.094746,0.159743,0.035657,0.071314,0.000000,93.000000,88.000000,5.000000,10.000000,0.000000,0.000000,0.094746,0.159743,0.035657,0.071314,0.000000,93.000000,88.000000,5.000000,10.000000,0.000000,0.000000:
// measure 0
0000
0000
0000
0000
,  // measure 1
0000
0000
0000
0000
,  // measure 2
0000
0000
0000
0000
,  // measure 3
0000
0000
0000
0000
,  // measure 4
0000
0000
0000
0000
,  // measure 5
0000
0000
0000
0000
,  // measure 6
0000
0000
0000
0000
,  // measure 7
0000
0000
0000
0000
,  // measure 8
1000
0000
0000
0000
,  // measure 9
1000
0000
0000
0000
,  // measure 10
0010
0000
0000
0000
,  // measure 11
0010
0000
0000
0000
,  // measure 12
0100
0000
0000
0000
,  // measure 13
0100
0000
0000
0000
,  // measure 14
0001
0000
0000
0000
,  // measure 15
0001
0000
0000
0000
,  // measure 16
2002
0000
3003
0000
,  // measure 17
0001
0000
0000
0000
,  // measure 18
1000
0000
0000
0000
,  // measure 19
0001
0000
0000
0000
,  // measure 20
0100
0000
0100
0000
,  // measure 21
0010
0000
0010
0000
,  // measure 22
0200
0000
0300
0000
,  // measure 23
0200
0000
0300
0000
,  // measure 24
0110
0000
0000
0000
,  // measure 25
0010
0000
0000
0000
,  // measure 26
0100
0000
0000
0000
,  // measure 27
0010
0000
0000
0000
,  // measure 28
1000
0000
1000
0000
,  // measure 29
0001
0000
0001
0000
,  // measure 30
2000
0000
3000
0000
,  // measure 31
2000
0000
3000
0000
,  // measure 32
0010
0000
0010
0000
,  // measure 33
0100
0000
0100
0000
,  // measure 34
0001
0001
0001
0000
,  // measure 35
1000
1000
1000
0000
,  // measure 36
0001
0000
0001
0000
,  // measure 37
0100
0000
0100
0000
,  // measure 38
0010
0000
0010
0000
,  // measure 39
1000
0000
1000
0000
,  // measure 40
0001
0000
0001
0000
,  // measure 41
1000
0000
1000
0000
,  // measure 42
0010
0010
0010
0000
,  // measure 43
0100
0100
0100
0000
,  // measure 44
1000
0000
1000
0000
,  // measure 45
0010
0000
0010
0000
,  // measure 46
0100
0000
0100
0000
,  // measure 47
0001
0000
0001
0000
,  // measure 48
0220
0000
0330
0000
,  // measure 49
0100
0000
0100
0000
,  // measure 50
0010
0000
0010
0000
,  // measure 51
0100
0000
0010
0000
,  // measure 52
0001
0000
0001
0000
,  // measure 53
1000
0000
1000
0000
,  // measure 54
0001
0000
1000
0000
,  // measure 55
0010
0000
0100
0000
,  // measure 56
2002
0000
3003
0000
,  // measure 57
1000
0000
0000
0000
,  // measure 58
0001
0000
0000
0000
,  // measure 59
1000
0000
0000
0000
,  // measure 60
0010
0000
0000
0000
,  // measure 61
0100
0000
0000
0000
,  // measure 62
0010
0000
0000
0000
,  // measure 63
0100
0000
0000
0000
,  // measure 64
1001
0000
0000
0000
;

//---------------dance-single - ----------------
#NOTES:
     dance-single:
     :
     Easy:
     3:
     0.164022,0.182564,0.028526,0.106971,0.000000,161.000000,157.000000,4.000000,15.000000,0.000000,0.000000,0.164022,0.182564,0.028526,0.106971,0.000000,161.000000,157.000000,4.000000,15.000000,0.000000,0.000000:
0000
0000
0000
0000
,
0000
0000
0000
0000
,
0000
0000
0000
0000
,
0000
0000
0000
0000
,
0000
0000
0000
0000
,
0000
0000
0000
0000
,
0000
0000
0000
0000
,
0000
0000
0000
0000
,
0010
0000
0100
0010
,
1000
0000
0001
1000
,
0010
0000
0100
0001
,
0100
0010
1000
0000
,
0001
0000
0100
1000
,
0100
0000
0010
0001
,
0010
0000
1000
0000
,
0001
0001
1000
1000
,
2002
0000
3003
0000
,
0010
0000
0100
0000
,
0001
0001
0010
0010
,
1000
0000
0001
0000
,
0100
1000
0100
0000
,
0010
0100
0010
0000
,
1000
0000
0100
0000
,
0001
0100
0100
0000
,
0220
0000
0330
0000
,
0001
0000
1000
0000
,
0010
0010
0001
0001
,
0100
0000
0100
0000
,
0010
0001
0010
0000
,
1000
0010
1000
0000
,
0001
0000
1000
0000
,
0100
1000
0010
0000
,
0001
0100
0001
0000
,
0010
0100
0010
0000
,
1000
1000
0001
0001
,
0100
0010
0001
0000
,
1000
0100
1000
0000
,
0010
1000
0010
0000
,
0200
0300
0002
0003
,
2000
3000
0020
0030
,
0100
0001
0100
0000
,
0010
0100
0010
0000
,
1000
1000
0100
0100
,
1000
0010
0001
0000
,
0100
0001
0100
0000
,
1000
0100
1000
0000
,
0002
0003
0200
0300
,
0010
0001
0010
1000
,
2002
0000
3003
0000
,
1000
0000
0001
0000
,
1000
0000
0010
0010
,
0100
0000
0001
0100
,
0010
0000
1000
0100
,
2000
3000
0001
0001
,
1000
0010
0100
0000
,
1000
1000
0001
1000
,
0020
0030
0010
0000
,
0100
1000
0100
0000
,
0001
0001
1000
0001
,
0010
0100
1000
0000
,
0002
0003
0001
0000
,
0100
0010
0010
0000
,
1000
0000
0100
0000
,
1000
0010
0001
0000
,
1001
0000
0000
0000
;

//---------------dance-single - ----------------
#NOTES:
     dance-single:
     :
     Medium:
     4:
     0.221073,0.278124,0.035657,0.285256,0.000000,217.000000,212.000000,5.000000,40.000000,0.000000,0.000000,0.221073,0.278124,0.035657,0.285256,0.000000,217.000000,212.000000,5.000000,40.000000,0.000000,0.000000:
0000
0000
0000
0000
,
0000
0000
0000
0000
,
0000
0000
0000
0000
,
0000
0000
0000
0000
,
0000
0000
0000
0000
,
0000
0000
0000
0000
,
0000
0000
0000
0000
,
0000
0000
0000
0000
,
0001
0000
1000
0000
0100
0000
1000
0010
,
1000
0000
0010
0000
0100
0000
0001
1000
,
0001
0000
0010
0000
1000
0000
0100
0010
,
0100
0000
0001
0000
1000
0100
1000
0000
,
0010
0000
0100
0000
1000
0000
0010
1000
,
0010
0000
0100
0000
1000
0000
0001
0100
,
0001
0000
0100
0000
1000
0000
0010
0001
,
0010
0100
1000
0001
,
2002
3003
0010
1000
,
0200
0000
0010
0300
,
0001
0001
1000
1000
,
0002
0000
1000
0003
,
0100
0010
0100
0100
,
1000
0100
1000
1000
,
0002
0000
0203
0000
,
0302
0010
0010
0003
,
0220
0330
0001
0010
,
2000
0000
0001
3000
,
0100
0100
0010
0010
,
0200
0000
0010
0300
,
0001
0100
0001
0001
,
0010
1000
0010
0010
,
2000
0000
3002
0000
,
2003
0100
0100
3000
,
0010
0000
1000
0010
1000
0000
0001
0000
,
0100
0000
0010
0001
0010
0000
0001
0000
,
1000
0000
0100
1000
0100
0000
0010
0000
,
0001
0000
0100
0010
0200
0000
0300
0000
,
1000
0000
0010
0100
0010
0000
1000
0000
,
0100
0000
1000
0000
0100
0000
0001
0010
,
0002
0000
2003
0000
,
3020
0100
0100
0130
,
0001
0000
0100
1000
0100
0000
0010
0000
,
0001
0000
0010
1000
0010
0000
0100
0000
,
1000
0000
0001
1000
0001
0000
0010
0000
,
0100
0000
0010
0001
0020
0000
0030
0000
,
0100
0000
0001
0100
0001
0000
0010
0000
,
1000
0000
0010
0100
0010
0000
1000
0000
,
0020
0000
0032
0000
,
0203
1000
1300
1000
,
2002
0000
3003
1000
,
0020
0030
0100
1000
,
0010
0010
0100
0010
,
0001
0100
1000
0100
,
2000
0000
3010
0000
0100
0000
0100
0001
,
0020
0000
0001
0000
0031
1000
0100
0000
,
1000
1000
0001
0001
,
1000
0010
0001
0100
,
0220
0300
1000
0000
,
2030
0001
0002
3003
,
0010
0010
1000
0100
,
1000
0001
0020
0030
,
2000
0000
0100
0000
,
3200
0010
0020
0330
,
0002
0000
2003
0000
,
3020
0100
0100
1030
,
0220
0000
0000
0000
,
0330
0000
0000
0000
;

//---------------dance-single - ----------------
#NOTES:
     dance-single:
     :
     Hard:
     7:
     0.291368,0.370833,0.042788,0.278124,0.139062,286.000000,280.000000,6.000000,39.000000,0.000000,0.000000,0.291368,0.370833,0.042788,0.278124,0.139062,286.000000,280.000000,6.000000,39.000000,0.000000,0.000000:
0000
0000
0000
0000
,
0000
0000
0000
0000
,
0000
0000
0000
0000
,
0000
0000
0000
0000
,
0000
0000
0000
0000
,
0000
0000
0000
0000
,
0000
0000
0000
0000
,
0000
0000
0000
0000
,
0200
0000
0000
0000
0301
0000
0000
0000
1000
0000
0000
0010
0000
0000
0100
0000
,
0000
0000
0000
0000
0001
0000
0000
0000
1000
0000
0000
0100
0000
0000
0010
0000
,
0000
0000
0000
0000
0100
0000
0000
0000
1000
0000
0000
0001
0000
0000
0100
0000
,
0000
0000
0010
0000
0100
0000
0010
1000
0000
0000
0100
0000
0000
0000
0000
0000
,
2000
0000
0000
0000
3010
0000
0000
0000
0100
0000
0000
0001
0000
0000
0010
0000
,
0000
0000
0000
0000
0100
0000
0000
0000
0010
0000
0000
0001
0000
0000
1000
0000
,
0000
0000
0000
0000
0001
0000
0000
0000
0100
0000
0000
0010
0000
0000
1000
0000
,
0000
0000
0100
0000
1000
0000
0100
0010
0000
0000
0100
0000
0000
0000
0000
0000
,
0012
0000
0000
1003
1000
0001
0100
0020
,
0000
0000
0000
0000
0000
0000
0000
0000
0000
0030
0000
0000
0000
0000
0000
0000
0000
0000
0000
0000
1000
0000
0100
0000
,
2000
0000
0000
0000
3001
0010
0002
0000
0000
0000
0103
0010
,
0200
0000
0000
0000
0300
0000
0000
0010
,
0001
0010
1000
2000
0000
3000
0000
0001
,
1000
0010
0100
0200
0000
0000
0301
0010
,
0002
0000
0000
2000
0000
0000
3003
0000
,
0020
0100
1000
0130
,
2100
0000
0000
3001
0001
0010
0100
0020
,
0000
0000
0000
0000
0000
0000
0000
0000
0000
0030
0000
0000
0000
0000
0000
0000
0000
0000
0000
0000
0100
0000
1000
0000
,
0002
0000
0000
0000
0103
0010
2000
0000
0000
0000
3001
0010
,
0200
0000
0000
0000
0300
0000
0000
1000
,
0100
1000
0010
0020
0000
0030
0000
0100
,
1000
0100
0001
0002
0000
0000
0013
0100
,
2000
0000
0000
0020
0000
0000
3030
0000
,
0200
0000
0001
0000
0001
0000
0310
1000
,
0100
1000
0001
0100
0001
0000
0010
0000
,
0001
0100
0010
0000
1000
0000
0100
0010
,
0000
0100
1000
0001
0100
0010
0010
0100
,
0000
0001
0010
0100
0020
0000
0030
0001
,
1000
0010
1000
0100
0010
0000
0100
0000
,
1000
0001
0100
0000
0100
0000
0000
0001
,
2000
0000
0000
3020
0000
0000
0230
0000
,
0001
0000
0001
0000
0010
0000
1300
0010
,
1000
0010
0100
0001
1000
0000
0100
0000
,
0010
0100
1000
0000
0001
0000
1000
0010
,
0000
0100
0001
0100
0010
1000
1000
0010
,
0000
0100
0010
1000
0200
0000
0300
0010
,
0001
0100
0010
0100
0001
0000
0010
0000
,
0001
1000
0010
0000
0010
0000
0000
1000
,
0200
0000
0000
2300
0000
0000
3002
0000
,
0100
0000
0000
0000
1000
0000
0000
0000
0013
0000
0000
0000
0100
1000
0010
0000
,
0210
0000
0000
0000
0000
0000
0000
0000
0300
0000
0001
0000
0010
0001
0000
1000
,
0000
0000
0001
0000
0000
0000
0200
0000
0000
0000
0310
0000
0100
0010
1000
0000
,
2000
0000
0000
0000
0000
0000
3001
0100
0000
0010
0000
1000
0000
0010
0000
0200
,
0000
0000
0000
0000
0000
0000
0300
0000
0001
1000
0000
1000
0000
0100
0000
1000
,
0000
0000
1010
0000
0000
0000
0000
0000
0000
0000
0000
0000
1000
0001
0010
0000
,
0002
0000
0000
0003
0100
0010
0010
1000
,
0100
0000
0000
0000
1000
0000
0001
0100
0000
0000
0010
0000
0000
0000
1000
0000
,
0010
0100
0000
0010
0000
1000
0000
0001
0000
0000
0100
0000
0010
0000
0100
0000
,
0202
0000
0000
0300
0000
0000
0000
0000
1000
0000
0000
0000
1003
0000
0000
0000
,
0100
1000
0100
0000
0010
0000
0100
0000
,
1000
0000
0001
0100
0001
0000
0010
0100
,
0000
0100
1000
0100
0010
0000
0000
0001
,
1000
0010
0001
0010
0100
0000
0100
0000
,
0001
1000
0010
0000
1000
0000
1000
0001
,
0100
0000
0100
0010
0000
0010
1000
0000
,
1000
0001
0100
0010
0100
0001
1000
0000
,
2002
0000
0000
0000
,
3003
0000
0000
0000
;
