#VERSION:0.83;
#TITLE:NewAige;
#SUBTITLE:;
#ARTIST:BEMANI Sound Team "HuΣeR";
#TITLETRANSLIT:;
#SUBTITLETRANSLIT:;
#ARTISTTRANSLIT:;
#GENRE:;
#ORIGIN:;
#CREDIT:;
#BANNER:[Wind Jammers] - NewAige.png;
#BACKGROUND:[Wind Jammers] - NewAige-bg.png;
#PREVIEWVID:;
#JACKET:[Wind Jammers] - NewAige-jacket.png;
#CDIMAGE:;
#DISCIMAGE:;
#LYRICSPATH:;
#CDTITLE:;
#MUSIC:[Wind Jammers] - NewAige.ogg;
#OFFSET:-0.956000;
#SAMPLESTART:25.330000;
#SAMPLELENGTH:15.000000;
#SELECTABLE:YES;
#DISPLAYBPM:128.000000;
#BPMS:0.000=128.000;
#STOPS:;
#DELAYS:;
#WARPS:;
#TIMESIGNATURES:0.000=4=4;
#TICKCOUNTS:0.000=4;
#COMBOS:0.000=1;
#SPEEDS:0.000=1.000=0.000=0;
#SCROLLS:0.000=1.000;
#FAKES:;
#LABELS:0.000=Song Start;
#BGCHANGES:;
#KEYSOUNDS:;
#ATTACKS:
;

//---------------dance-single - ----------------
#NOTEDATA:;
#CHARTNAME:;
#STEPSTYPE:dance-single;
#DESCRIPTION:;
#CHARTSTYLE:DANCERUSH STARDOM;
#DIFFICULTY:Challenge;
#METER:6;
#RADARVALUES:0.293387,0.391837,0.197637,0.343716,0.000000,239.000000,216.000000,23.000000,40.000000,146.000000,0.000000,0.000000,0.000000,0.000000,0.293387,0.391837,0.197637,0.343716,0.000000,239.000000,216.000000,23.000000,40.000000,146.000000,0.000000,0.000000,0.000000,0.000000;
#CREDIT:ohaiimian;
#DISPLAYBPM:128.000000;
#NOTES:
// measure 0
0001
1000
0002
MMM0
,  // measure 1
2003
3010
2000
3100
,  // measure 2
0002
0103
0002
0013
,  // measure 3
2000
3100
2000
3010
,  // measure 4
0002
0013
0001
1000
,  // measure 5
MMMM
0001
MMMM
1000
,  // measure 6
MMMM
0001
MMMM
1000
,  // measure 7
MMMM
0001
MMMM
1000
,  // measure 8
MMMM
0001
1000
MMMM
,  // measure 9
1000
0100
1000
0100
,  // measure 10
0001
0010
0001
0020
,  // measure 11
1030
M000
0001
000M
1000
M000
0001
000M
,  // measure 12
1000
M000
0110
0000
MMMM
0000
1001
0000
,  // measure 13
0020
1000
2030
0100
,  // measure 14
0010
0000
0001
0000
0100
0000
3001
M000
,  // measure 15
M200
0301
0002
0010
,  // measure 16
0100
1000
0010
1000
,  // measure 17
0203
1000
0001
0010
,  // measure 18
0320
0001
0100
1000
,  // measure 19
0230
0000
0001
0000
000M
03M0
01MM
0000
,  // measure 20
0020
0000
1000
0000
M000
0M30
MM10
0000
,  // measure 21
1000
0020
MM0M
MM3M
,  // measure 22
0100
0200
M0MM
M3MM
,  // measure 23
0010
0020
MM0M
MM3M
,  // measure 24
0100
0000
0200
0000
M0MM
0000
M3MM
MMMM
,  // measure 25
2001
0100
0001
3010
,  // measure 26
1002
0100
1000
0013
,  // measure 27
1000
MMMM
0001
MMMM
,  // measure 28
1000
MMMM
0001
MMMM
,  // measure 29
2000
3100
0002
0103
,  // measure 30
2000
3010
0002
0013
,  // measure 31
2000
3100
2000
3010
,  // measure 32
0002
0103
0002
0013
,  // measure 33
0200
0010
1300
0010
,  // measure 34
0020
0100
0031
0100
,  // measure 35
1000
0100
0010
0001
,  // measure 36
0010
MMMM
1002
MMM0
,  // measure 37
1000
1000
1000
1000
,  // measure 38
1000
1000
1000
1003
,  // measure 39
0110
1001
0110
1010
,  // measure 40
0101
0110
MMMM
1001
,  // measure 41
0002
0000
1003
0010
0001
1000
0100
0001
,  // measure 42
1000
0010
2000
0000
0001
0000
3100
0000
,  // measure 43
1000
0010
0001
1000
0100
0001
1000
0010
,  // measure 44
1000
0000
0001
000M
1000
0001
MMMM
0000
,  // measure 45
1001
0110
1002
0000
0100
0000
0010
0000
,  // measure 46
1003
0001
1000
0001
,  // measure 47
MMMM
1001
MMMM
1001
,  // measure 48
1000
M000
0001
000M
1000
M000
0001
000M
,  // measure 49
2000
0000
3001
0010
1000
0001
0100
1000
,  // measure 50
0001
0010
0002
0000
1000
0000
0103
0000
,  // measure 51
0001
0010
1000
0001
0100
1000
0001
0100
,  // measure 52
0001
000M
1000
M000
0000
MMMM
1001
0000
,  // measure 53
1001
0110
2001
0000
0100
0000
0010
0000
,  // measure 54
3001
1000
0001
1000
,  // measure 55
MMMM
1001
MMMM
1001
,  // measure 56
0001
000M
1000
M000
0001
0010
0100
1000
,  // measure 57
MMMM
0000
0000
0000
;

//---------------dance-single - ----------------
#NOTEDATA:;
#CHARTNAME:;
#STEPSTYPE:dance-single;
#DESCRIPTION:;
#CHARTSTYLE:;
#DIFFICULTY:Hard;
#METER:8;
#RADARVALUES:0.461562,0.489796,0.180451,0.128894,0.300752,376.000000,355.000000,21.000000,15.000000,6.000000,0.000000,0.000000,0.000000,0.000000,0.461562,0.489796,0.180451,0.128894,0.300752,376.000000,355.000000,21.000000,15.000000,6.000000,0.000000,0.000000,0.000000,0.000000;
#CREDIT:ohaiimian;
#DISPLAYBPM:128.000000;
#NOTES:
// measure 0
0000
0000
0000
0000
,  // measure 1
0000
0000
0000
0000
,  // measure 2
0000
0000
0000
0000
,  // measure 3
0000
0000
0000
0000
,  // measure 4
0000
0000
0011
1010
,  // measure 5
1001
0000
0001
0100
0020
0000
1000
1030
,  // measure 6
0100
0000
0000
0000
1000
0000
0100
0000
0020
0000
0000
0100
0000
0000
0031
0000
,  // measure 7
0100
0000
0010
1000
0002
0000
0010
0013
,  // measure 8
0100
0000
0000
0000
1000
0000
0001
0000
0100
0000
0000
0100
0000
0000
0010
0000
,  // measure 9
2000
0000
0000
0000
,  // measure 10
0010
0000
0010
0000
0010
0000
3001
0010
,  // measure 11
0100
1000
0100
1000
0001
0100
0001
0100
,  // measure 12
0010
1000
0010
0000
1000
0000
0100
0000
0010
0000
0000
0001
0000
0000
1000
0000
,  // measure 13
1001
0000
0000
0000
1100
0000
0000
0000
0100
0000
0010
0001
0000
0100
0001
0000
,  // measure 14
0100
0000
0000
0010
0000
0000
1000
0010
1000
0000
0100
1000
0000
0010
1000
0000
,  // measure 15
0010
0000
0000
0100
0000
0000
0001
0100
0001
0000
0100
0001
0000
0010
0001
0000
,  // measure 16
0010
0000
0000
0100
0000
0000
1000
0100
0010
0000
0001
1000
0000
0001
1000
0000
,  // measure 17
1001
0000
0000
0000
0101
0000
0000
0000
0100
0000
0010
1000
0000
0100
1000
0000
,  // measure 18
0100
0000
0000
0010
0000
0000
0001
0010
0001
0000
0010
0001
0000
0100
0001
0000
,  // measure 19
0100
0000
0000
0010
0000
0000
1000
0010
1000
0000
0010
1000
0000
0100
1000
0000
,  // measure 20
0100
0000
0000
0010
0000
0000
0001
0000
1000
0000
0000
0000
0001
0000
0000
0000
,  // measure 21
1001
0000
0000
0000
0011
0000
0000
0000
0010
0000
0100
1000
0000
0100
0010
0000
,  // measure 22
0001
0000
0000
0100
0000
0000
0010
1000
0001
0000
0010
0001
0000
0100
0001
0000
,  // measure 23
1000
0000
0000
0100
0000
0000
0010
0001
1000
0000
0010
1000
0000
0100
1000
0000
,  // measure 24
0001
0000
0000
0100
0000
0000
0010
1000
0010
0000
1000
0001
0000
1000
0001
0000
,  // measure 25
1001
0000
0000
0000
1010
0000
0000
0000
0010
0000
0100
0001
0000
0010
0001
0000
,  // measure 26
0010
0000
0000
0100
0000
0000
1000
0100
0010
0000
0001
0100
0000
0001
0010
0100
,  // measure 27
1000
0000
0000
0100
0000
0000
0010
0001
0100
0000
0010
1000
0000
0100
1000
0000
,  // measure 28
0100
0000
0000
0010
0000
0000
0001
0000
1000
0000
0000
0000
0001
0000
0000
0000
,  // measure 29
1002
0103
2000
3100
,  // measure 30
0002
0000
0000
0000
0013
0000
0000
0000
1000
0000
0000
0010
0000
0000
0100
0000
,  // measure 31
0002
0013
0020
0130
,  // measure 32
0200
0000
1300
0000
2000
0000
3100
0010
,  // measure 33
0001
0000
0000
0000
0001
0100
0001
0000
0100
0000
0000
0000
0010
0000
0000
0000
,  // measure 34
1000
0000
0000
0000
0010
1000
0010
0000
1000
0000
0000
0000
0100
0000
0010
0000
,  // measure 35
0010
0000
0000
0000
0001
0010
0001
0000
0010
0000
0000
0000
0100
0000
0000
0000
,  // measure 36
1000
0000
0000
0000
0100
1000
0100
0000
2000
0000
0000
0000
3002
0000
0003
0000
,  // measure 37
0200
1000
1000
1000
,  // measure 38
0001
0001
0001
0010
,  // measure 39
0301
0010
0001
0010
0100
1000
0100
1000
,  // measure 40
0001
0000
1000
0000
0100
0010
0120
0130
,  // measure 41
1000
0000
0000
0000
0001
0000
0100
0000
0010
0000
0000
0000
1000
0000
0100
M000
,  // measure 42
0100
0000
0001
0000
0010
0000
0100
00M0
0100
0000
0001
0000
1000
0000
0010
0000
,  // measure 43
0100
0010
1000
0100
0010
0000
0001
0100
,  // measure 44
0010
0000
1000
0000
0100
M000
0100
0000
0010
0000
1000
0000
0100
0000
1000
0000
,  // measure 45
1001
0001
0101
1000
0100
0000
0010
0001
,  // measure 46
0100
000M
0100
0000
1000
0000
0010
0000
0100
0000
0010
0M00
0010
0000
0001
0000
,  // measure 47
0100
0001
0010
0100
0010
0000
0100
1000
,  // measure 48
0100
0000
0010
0000
0001
1000
0001
1000
,  // measure 49
0010
0000
0101
0000
1000
0000
1010
1000
,  // measure 50
0001
0000
0000
0000
0100
0000
0010
0000
1000
0000
0001
1000
0000
0001
1000
0000
,  // measure 51
0100
0000
0011
0001
0100
0010
1000
1000
,  // measure 52
0001
0000
1000
0000
0100
0010
0001
1000
,  // measure 53
1001
1000
1100
0001
0100
0000
0010
0010
,  // measure 54
1000
0000
0000
0000
0100
0000
0010
0000
0001
0000
1000
0001
0000
1000
0001
0000
,  // measure 55
0100
0000
0010
0000
1000
0000
1000
0000
0001
0000
0010
000M
0010
0000
1000
0000
,  // measure 56
0001
0000
1000
0000
0010
0100
0001
1000
,  // measure 57
1001
0000
0000
0000
;

//---------------dance-single - ----------------
#NOTEDATA:;
#CHARTNAME:;
#STEPSTYPE:dance-single;
#DESCRIPTION:;
#CHARTSTYLE:;
#DIFFICULTY:Medium;
#METER:5;
#RADARVALUES:0.322848,0.416327,0.085929,0.085929,0.030075,263.000000,253.000000,10.000000,10.000000,0.000000,0.000000,0.000000,0.000000,0.000000,0.322848,0.416327,0.085929,0.085929,0.030075,263.000000,253.000000,10.000000,10.000000,0.000000,0.000000,0.000000,0.000000,0.000000;
#CREDIT:ohaiimian;
#DISPLAYBPM:128.000000;
#NOTES:
// measure 0
0000
0000
0000
0000
,  // measure 1
0000
0000
0000
0000
,  // measure 2
0000
0000
0000
0000
,  // measure 3
0000
0000
0000
0000
,  // measure 4
0000
0000
0000
0000
,  // measure 5
1000
0000
0100
0000
0010
0000
0001
0010
,  // measure 6
0001
0000
0100
0000
0010
0000
1000
0010
,  // measure 7
1000
0000
0010
0000
0100
0000
0001
0100
,  // measure 8
0001
0010
0100
1000
,  // measure 9
2002
0000
0000
0000
,  // measure 10
0000
0000
0000
3003
,  // measure 11
1000
0001
1000
0001
1000
0001
1000
0001
,  // measure 12
1000
0010
0100
0001
,  // measure 13
1001
0000
0000
0000
0001
0000
0000
0000
0100
0000
0000
0100
0000
0000
0100
0000
,  // measure 14
0010
0000
0000
0000
1000
0000
0000
0000
0100
0000
0000
0100
0000
0000
0100
0000
,  // measure 15
0010
0000
0000
0000
0001
0000
0000
0000
1000
0000
0000
1000
0000
0000
1000
0000
,  // measure 16
0010
0000
0000
0000
0100
0000
0000
0000
0001
0000
0000
0001
0000
0000
0001
0000
,  // measure 17
1000
0000
0000
0000
0100
0000
0000
0000
0010
0000
0000
0010
0000
0000
0010
0000
,  // measure 18
0001
0000
0000
0000
0100
0000
0000
0000
0010
0000
0000
0010
0000
0000
0010
0000
,  // measure 19
0100
0000
0000
0000
0001
0000
0000
0000
1000
0000
0000
1000
0000
0000
1000
0000
,  // measure 20
0100
0010
0001
1000
,  // measure 21
1001
0000
0001
0000
0100
0010
1000
0010
,  // measure 22
0100
0000
0001
0000
0010
0100
1000
0100
,  // measure 23
0010
0000
0001
0000
1000
0001
0100
0001
,  // measure 24
1000
0000
0100
0000
0010
0001
1000
0001
,  // measure 25
0100
0000
0010
0000
1000
0100
0010
0001
,  // measure 26
0010
0000
0100
0000
0010
0001
0100
0001
,  // measure 27
0010
0000
0001
0000
0100
0010
0100
0001
,  // measure 28
0100
0010
1000
0001
,  // measure 29
1001
0000
1000
0000
,  // measure 30
0001
0000
0001
0000
,  // measure 31
0100
0000
0100
0000
,  // measure 32
0010
0000
0010
0000
,  // measure 33
2000
3100
0002
0103
,  // measure 34
2000
3010
0002
0013
,  // measure 35
0020
0130
0200
0310
,  // measure 36
1000
0100
0010
0001
,  // measure 37
2002
0000
0000
0000
,  // measure 38
0000
0000
0000
3003
,  // measure 39
0001
0001
1000
1000
,  // measure 40
0001
0000
1000
0000
0001
0010
0100
1000
,  // measure 41
1001
0000
0001
0100
0010
0000
1000
0010
,  // measure 42
1000
0010
1000
0100
1000
0100
1000
0010
,  // measure 43
1000
0000
0010
0100
0001
0000
0010
0001
,  // measure 44
0010
0001
0010
0100
0010
0100
0010
0001
,  // measure 45
0010
0100
0110
0000
0100
0000
1000
0100
,  // measure 46
1000
0100
1000
0001
1000
0001
1000
0100
,  // measure 47
1000
0000
0100
0010
0001
0000
0100
0001
,  // measure 48
0100
0001
0100
0010
0100
0010
0100
0001
,  // measure 49
0100
0000
0010
1000
0010
0000
1000
0100
,  // measure 50
0010
0000
0001
0010
0001
0000
0010
0000
,  // measure 51
0010
0000
0100
1000
0100
0000
0010
0001
,  // measure 52
0100
0010
1000
1001
,  // measure 53
0010
0100
0110
0000
0100
0000
0001
0010
,  // measure 54
0001
0000
0010
0100
1000
0000
0010
0000
,  // measure 55
0010
0000
0100
0010
1000
0000
0001
1000
,  // measure 56
0001
0000
0010
0000
0100
1000
0001
1000
,  // measure 57
1001
0000
0000
0000
;

//---------------dance-single - ----------------
#NOTEDATA:;
#CHARTNAME:;
#STEPSTYPE:dance-single;
#DESCRIPTION:;
#CHARTSTYLE:;
#DIFFICULTY:Easy;
#METER:3;
#RADARVALUES:0.214823,0.269388,0.094522,0.068743,0.000000,175.000000,164.000000,11.000000,8.000000,0.000000,0.000000,0.000000,0.000000,0.000000,0.214823,0.269388,0.094522,0.068743,0.000000,175.000000,164.000000,11.000000,8.000000,0.000000,0.000000,0.000000,0.000000,0.000000;
#CREDIT:ohaiimian;
#DISPLAYBPM:128.000000;
#NOTES:
// measure 0
0000
0000
0000
0000
,  // measure 1
0000
0000
0000
0000
,  // measure 2
0000
0000
0000
0000
,  // measure 3
0000
0000
0000
0000
,  // measure 4
0000
0000
0000
0000
,  // measure 5
1000
0000
1000
0000
,  // measure 6
0001
0000
0001
0000
,  // measure 7
0100
0000
0100
0000
,  // measure 8
0010
0000
0010
1000
,  // measure 9
2002
0000
0000
0000
,  // measure 10
0000
0000
0000
3003
,  // measure 11
1000
1000
0001
0001
,  // measure 12
0100
0010
0110
1001
,  // measure 13
1000
1000
0100
0010
,  // measure 14
0001
0001
0100
0010
,  // measure 15
0100
0100
0001
1000
,  // measure 16
0010
0010
1000
0100
,  // measure 17
0010
0010
0001
0100
,  // measure 18
0001
0001
0010
0100
,  // measure 19
1000
1000
0001
0010
,  // measure 20
0100
0100
1000
0001
,  // measure 21
1001
0100
0010
1000
,  // measure 22
0100
0010
0100
1000
,  // measure 23
0001
0100
0010
0100
,  // measure 24
0001
0010
0100
1000
,  // measure 25
0010
0100
0001
1000
,  // measure 26
0100
0010
0001
0010
,  // measure 27
0010
0100
1000
0001
,  // measure 28
0100
0010
1000
0001
,  // measure 29
1001
0000
0001
0000
,  // measure 30
1000
0000
0001
0000
,  // measure 31
0100
0000
0010
0000
,  // measure 32
0100
0000
0010
0000
,  // measure 33
2000
0000
0000
3000
,  // measure 34
0002
0000
0000
0003
,  // measure 35
0020
0000
0000
0030
,  // measure 36
0200
0000
0000
0300
,  // measure 37
2002
0000
0000
0000
,  // measure 38
0000
0000
0000
3003
,  // measure 39
1000
1000
0001
0001
,  // measure 40
1000
0001
0100
0110
,  // measure 41
0010
0010
0010
0000
,  // measure 42
1000
0001
1000
1000
,  // measure 43
0100
0100
0100
0000
,  // measure 44
0010
0001
0100
0001
,  // measure 45
1000
1001
1000
0000
,  // measure 46
1000
0100
0010
0010
,  // measure 47
0001
0001
0001
0000
,  // measure 48
0100
0010
1000
0001
,  // measure 49
1001
1000
0100
0001
,  // measure 50
0100
1000
0010
0001
,  // measure 51
0001
0010
1000
0010
,  // measure 52
0001
0100
0010
1000
,  // measure 53
0001
1001
1000
0001
,  // measure 54
0001
0100
0010
1000
,  // measure 55
1000
0100
0010
0100
,  // measure 56
0100
0010
0001
1000
,  // measure 57
1001
0000
0000
0000
;

//---------------dance-single - ----------------
#NOTEDATA:;
#CHARTNAME:;
#STEPSTYPE:dance-single;
#DESCRIPTION:;
#CHARTSTYLE:;
#DIFFICULTY:Beginner;
#METER:1;
#RADARVALUES:0.123983,0.244898,0.189044,0.000000,0.000000,101.000000,79.000000,22.000000,0.000000,0.000000,0.000000,0.000000,0.000000,0.000000,0.123983,0.244898,0.189044,0.000000,0.000000,101.000000,79.000000,22.000000,0.000000,0.000000,0.000000,0.000000,0.000000,0.000000;
#CREDIT:;
#DISPLAYBPM:128.000000;
#NOTES:
// measure 0
0000
0000
0000
0000
,  // measure 1
0000
0000
0000
0000
,  // measure 2
0000
0000
0000
0000
,  // measure 3
0000
0000
0000
0000
,  // measure 4
0000
0000
0000
0000
,  // measure 5
1000
0000
1000
0000
,  // measure 6
0001
0000
0001
0000
,  // measure 7
1000
0000
0001
0000
,  // measure 8
1000
0000
0000
0000
,  // measure 9
1001
0000
0000
0000
,  // measure 10
0000
0000
0000
0000
,  // measure 11
0100
0100
0100
0000
,  // measure 12
0010
0010
0010
0000
,  // measure 13
1000
0000
1000
0000
,  // measure 14
1000
0000
0000
0000
,  // measure 15
0001
0000
0001
0000
,  // measure 16
0001
0000
0000
0000
,  // measure 17
0010
0000
0010
0000
,  // measure 18
0010
0000
0000
0000
,  // measure 19
0100
0000
0100
0000
,  // measure 20
0100
0000
0000
0000
,  // measure 21
1000
0000
0100
0000
,  // measure 22
0010
0000
0000
0000
,  // measure 23
0001
0000
0100
0000
,  // measure 24
0010
0000
0000
0000
,  // measure 25
1000
0000
0010
0000
,  // measure 26
0100
0000
0000
0000
,  // measure 27
0001
0000
0010
0000
,  // measure 28
0100
0000
0000
0000
,  // measure 29
1001
0000
0000
0000
,  // measure 30
0000
0000
0000
0000
,  // measure 31
0000
0000
0000
0000
,  // measure 32
0000
0000
0000
0000
,  // measure 33
1000
0000
0000
0000
,  // measure 34
0001
0000
0000
0000
,  // measure 35
1000
0000
0000
0000
,  // measure 36
0001
0000
0000
0000
,  // measure 37
1001
0000
0000
0000
,  // measure 38
0000
0000
0000
0000
,  // measure 39
1000
1000
1000
0000
,  // measure 40
0001
0001
0001
0000
,  // measure 41
1001
0000
1001
0000
,  // measure 42
1001
0000
0000
0000
,  // measure 43
0110
0000
0110
0000
,  // measure 44
0110
0000
0000
0000
,  // measure 45
1001
0000
0110
0000
,  // measure 46
1001
0000
0000
0000
,  // measure 47
0110
0000
1001
0000
,  // measure 48
0110
0000
0000
0000
,  // measure 49
1000
0000
0100
0000
,  // measure 50
0010
0000
0001
0000
,  // measure 51
0100
0000
0010
0000
,  // measure 52
1000
0000
0001
0000
,  // measure 53
1001
0000
0110
0000
,  // measure 54
1001
0000
0110
0000
,  // measure 55
1001
0000
0110
0000
,  // measure 56
1000
0000
0001
0000
,  // measure 57
1001
0000
0000
0000
;
