#TITLE:My Way;
#SUBTITLE:;
#ARTIST:One Bit & Noah Cyrus;
#TITLETRANSLIT:;
#SUBTITLETRANSLIT:;
#ARTISTTRANSLIT:;
#GENRE:;
#CREDIT:hooky;
#BANNER:[Wind Jammers] - My Way.png;
#BACKGROUND:[Wind Jammers] - My Way-bg.png;
#LYRICSPATH:;
#CDTITLE:;
#MUSIC:[Wind Jammers] - My Way.ogg;
#OFFSET:0.000000;
#SAMPLESTART:79.353065;
#SAMPLELENGTH:15.439996;
#SELECTABLE:YES;
#DISPLAYBPM:124.000000;
#BPMS:0.000000=124.000000
,131.000000=248.000000
,132.000000=124.000000
;
#STOPS:131.000000=0.242000
;
#BGCHANGES:0.000=[Wind Jammers] - My Way.avi=1.000=0=0=0=StretchNoLoop====,
99999=-nosongbg-=1.000=0=0=0 // don't automatically add -songbackground-
;
#KEYSOUNDS:;
#ATTACKS:;

//---------------dance-single - ----------------
#NOTES:
     dance-single:
     :
     Hard:
     8:
     0.361659,0.495411,0.225517,0.087297,0.225517,348.000000,317.000000,31.000000,12.000000,0.000000,0.000000,0.361659,0.495411,0.225517,0.087297,0.225517,348.000000,317.000000,31.000000,12.000000,0.000000,0.000000:
0000
0000
0000
0000
,
0000
0000
0000
0000
,
0000
0000
0000
0000
,
0000
0000
0000
0000
,
0000
0000
0000
0000
,
1000
1000
0001
0001
,
1000
0001
0100
0000
,
0001
0001
1000
1000
,
0001
1000
0020
0130
,
0100
0100
0110
0000
0010
0000
1010
0000
,
1000
0001
0100
0000
0100
0100
0010
0000
,
0100
0100
0101
0000
0001
0000
0011
0000
,
0000
0001
0001
1000
1000
0001
0001
0100
,
0000
0001
0100
0000
0010
0000
1010
0000
,
1000
1000
2000
0000
0010
0010
3100
0000
,
1000
0000
0001
0000
1000
0000
0001
0100
0001
0000
0000
0000
0011
0000
0000
0000
,
0200
0000
0000
0300
,
0010
1000
0010
1000
0010
0100
0001
0010
0001
0100
0000
0000
,
0001
0010
0001
0100
0010
1000
0100
1000
0100
1000
0000
0010
,
0100
0001
0010
0001
0100
0001
1000
1000
1000
0001
0001
0001
,
0100
0000
0000
0010
0000
0000
0100
0000
0000
0000
0000
0000
0001
0000
0000
0000
0000
0000
1000
0000
0000
0000
0000
0000
1010
0000
0000
0000
0000
0000
0000
0000
0000
0000
0000
0000
0110
0000
0000
0000
0000
0000
0000
0000
0010
0000
0000
0000
,
0100
0001
0100
0001
0100
0010
1000
0100
1000
0010
0000
0010
,
1000
0100
1000
0100
0010
0001
0010
0001
0010
0001
0000
0100
,
0010
1000
0100
1000
0010
1000
0001
0001
0001
1000
1000
1000
,
0010
0100
0010
0000
1000
0000
0001
0000
0101
0000
0000
0000
0110
0000
0000
0000
,
0020
0000
0130
0000
,
0200
0000
0301
0000
,
0002
0000
1003
0000
,
2000
0000
3010
0000
,
0010
1000
0100
0100
1000
1000
0001
0001
,
0100
0001
0010
0000
,
0000
0001
1000
0001
0000
1000
0010
1000
,
0000
0010
0100
0010
0100
0010
0200
0000
,
0310
0000
0000
0000
1010
0000
0000
0000
0101
0000
0000
0000
0001
0000
0000
0010
,
0000
0010
0010
0000
0001
0000
1000
0000
0001
0000
0000
0000
0101
0000
0000
0000
,
0100
0000
0000
0000
0110
0000
0000
0000
1010
0000
0000
0000
0100
0000
0000
1000
,
0000
1000
1000
0000
0001
0000
0100
0000
0010
0000
0010
0000
0200
0000
0000
0000
,
0301
0000
0000
0000
0011
0000
0000
0000
1100
0000
0000
0000
1010
0000
0000
0010
,
0000
0100
0001
0000
0001
0000
0010
0000
0002
0000
0000
0000
0103
0000
0000
0000
,
0001
0000
0010
0000
0001
0000
0100
0000
0001
0000
0000
0000
1001
0000
0000
0001
,
0000
0001
0100
0000
0010
0000
0100
0000
0001
0000
0001
0000
1000
0010
0100
0000
,
0001
0100
0001
0010
0010
0001
1000
0000
,
1100
1000
1100
0011
,
0001
0100
0010
0010
0100
0100
0001
0000
,
1000
0001
1000
1001
,
0001
0100
0010
0100
0001
0001
0100
0000
,
0010
1000
0100
0100
1000
0000
1010
0000
,
0010
1000
0010
0001
0100
1000
0010
0000
,
1000
0010
1000
1001
,
0001
0000
0100
0000
0010
0000
0100
0000
0001
0000
0001
0000
1000
0000
0000
0010
,
0000
0010
0100
0000
0100
0000
0001
0000
0100
0000
0000
0000
0011
0000
0000
0000
,
1100
0000
1000
0000
0010
0000
0100
0000
0001
0000
0001
0000
1000
0000
0000
0010
,
0000
0010
0010
0000
1000
0000
0001
0000
0100
0000
0000
0000
0001
0000
0010
0000
,
0011
0000
0000
0000
0101
0000
0000
0000
0001
0000
1000
0000
0010
0000
0000
0100
,
0000
0100
0010
0000
0010
0000
0100
0000
0001
0000
0000
0000
0101
0000
0000
0000
,
0001
0100
1000
0100
0001
0001
2000
0000
,
3010
2000
3010
1001
;

//---------------dance-single - ----------------
#NOTES:
     dance-single:
     :
     Medium:
     5:
     0.225517,0.268347,0.130946,0.043649,0.000000,217.000000,199.000000,18.000000,6.000000,0.000000,0.000000,0.225517,0.268347,0.130946,0.043649,0.000000,217.000000,199.000000,18.000000,6.000000,0.000000,0.000000:
0000
0000
0000
0000
,
0000
0000
0000
0000
,
0000
0000
0000
0000
,
0000
0000
0000
0000
,
0000
0000
0000
0000
,
1000
0000
0100
0000
,
1000
0000
1000
0000
,
0001
0000
0100
0000
,
0001
0001
0001
0001
,
1001
1000
1010
0000
,
0010
0010
0100
0001
,
0010
0001
1000
0000
,
0000
0010
0000
1000
0000
0001
0000
0100
,
0101
0010
1010
0000
,
1000
0000
0100
0000
1000
1000
1000
0000
,
0001
0100
0010
0000
,
0200
0000
0310
0000
,
0010
0000
1000
0000
0100
0100
0100
0000
,
1000
0000
0010
0000
0100
0100
0100
0000
,
0001
0000
0010
0000
0001
1000
0001
1000
,
0001
0001
0100
0101
,
0100
0000
0010
0000
1000
1000
1000
0000
,
0100
0000
1000
0000
0001
0001
0001
0000
,
0100
0000
0010
0000
1000
0100
1000
0100
,
1000
0000
1000
0001
1000
0000
1001
0000
,
0200
0000
0310
0000
,
0020
0000
1030
0000
,
2000
0000
3100
0000
,
0200
0000
0301
0000
,
0001
0000
0100
0000
,
1000
0000
0010
0000
,
0000
0001
0000
0000
0000
1000
0000
0000
,
0000
0001
0000
1000
0000
0001
2000
0000
,
3010
0010
0110
0000
,
0100
0000
0001
0010
0001
0000
0101
0000
,
0010
1000
0100
0000
,
1000
0000
1000
0010
1000
0000
1010
0000
,
0010
0100
0001
0000
,
0010
0000
0010
0001
0010
0000
0011
0000
,
0001
0100
0001
0000
,
1000
0000
0001
1000
0001
0000
1001
0000
,
0010
0010
0100
0010
,
0100
0010
0100
0110
,
0010
1000
0100
1000
,
0001
1000
0001
1001
,
0001
0000
0100
0000
0010
0010
0010
0000
,
1000
0000
0100
0000
1000
1000
1000
0000
,
0010
1000
0100
1000
,
0001
1000
0001
1001
,
0010
0000
0100
0000
0001
0001
0001
0000
,
1000
0000
0010
0100
0010
0000
0110
0000
,
0010
1000
0100
1000
,
0100
1000
0100
1000
0010
0000
1010
0000
,
0010
0100
0001
0001
,
0010
0000
0001
0010
0001
0000
0011
0000
,
0001
0100
0010
0100
,
0100
0010
0100
0110
;

//---------------dance-single - ----------------
#NOTES:
     dance-single:
     :
     Easy:
     4:
     0.187065,0.227063,0.087297,0.087297,0.000000,180.000000,168.000000,12.000000,12.000000,0.000000,0.000000,0.187065,0.227063,0.087297,0.087297,0.000000,180.000000,168.000000,12.000000,12.000000,0.000000,0.000000:
0000
0000
0000
0000
,
0000
0000
0000
0000
,
0000
0000
0000
0000
,
0000
0000
0000
0000
,
0000
0000
0000
0000
,
1000
0000
0001
0000
,
1000
0000
0001
0000
,
1000
0000
0001
0000
,
1000
0000
0001
0000
,
0100
0000
0100
0000
,
0010
0010
0010
0000
,
1000
0100
1000
0000
,
0000
0001
0000
1000
0000
0001
0000
1000
,
0001
0100
0010
0000
,
0010
0000
1000
0000
0100
0100
0100
0000
,
1000
0001
1000
0000
,
0020
0000
0000
0030
,
0010
1000
0001
0001
,
1000
0100
1000
1000
,
0010
1000
0001
1000
,
0001
0001
0202
0303
,
0100
0010
1000
1000
,
0100
0010
1000
1000
,
0100
0010
1000
0001
,
1000
0010
0220
0330
,
0020
0000
1030
0000
,
2000
0000
3100
0000
,
0200
0000
0310
0000
,
0020
0000
0031
0000
,
0002
0000
0103
0000
,
0200
0000
0310
0000
,
0000
0010
0000
0100
0000
0010
0000
0100
,
0000
0001
0000
1000
0000
0002
0000
0000
,
0103
0010
0110
0000
,
0010
1000
0100
0000
,
1000
0001
1001
0000
,
0001
0100
0010
0000
,
0010
1000
0100
0000
,
1000
0100
0001
0000
,
1000
0010
1000
0000
,
0001
0001
0101
0000
,
0100
0010
1000
0100
,
0100
1000
1000
1001
,
0010
0100
0001
0010
,
0010
0001
0001
0101
,
0100
0010
1000
0000
,
1000
0001
1000
0000
,
0001
0100
0010
1000
,
1000
0001
1000
0110
,
1001
0001
0010
0001
,
1000
0001
0001
0100
,
0010
1000
0100
0100
,
1000
0000
1000
0001
1000
0000
1010
0000
,
0010
0100
0001
0001
,
0010
0001
1000
1100
,
1000
0010
0100
0001
,
0001
1000
1000
1001
;

//---------------dance-single - ----------------
#NOTES:
     dance-single:
     :
     Beginner:
     1:
     0.104964,0.184961,0.065473,0.000000,0.000000,101.000000,92.000000,9.000000,0.000000,0.000000,0.000000,0.104964,0.184961,0.065473,0.000000,0.000000,101.000000,92.000000,9.000000,0.000000,0.000000,0.000000:
// measure 0
0000
0000
0000
0000
,  // measure 1
0000
0000
0000
0000
,  // measure 2
0000
0000
0000
0000
,  // measure 3
0000
0000
0000
0000
,  // measure 4
0000
0000
0000
0000
,  // measure 5
0001
0000
0000
0000
,  // measure 6
1000
0000
0000
0000
,  // measure 7
0001
0000
0000
0000
,  // measure 8
1000
0000
0000
0000
,  // measure 9
0010
0000
0010
0000
,  // measure 10
0010
0000
0000
0000
,  // measure 11
0100
0000
0100
0000
,  // measure 12
0100
0000
0000
0000
,  // measure 13
0001
0000
0001
0000
,  // measure 14
0001
0000
0000
0000
,  // measure 15
1000
0000
1000
0000
,  // measure 16
1000
0000
0000
0000
,  // measure 17
0001
0000
1000
0000
,  // measure 18
0001
0000
0001
0000
,  // measure 19
1000
0000
0010
0000
,  // measure 20
0100
0000
0000
0000
,  // measure 21
0100
0000
0010
0000
,  // measure 22
0100
0000
0010
0000
,  // measure 23
0100
0000
0001
0000
,  // measure 24
1000
0000
0000
0000
,  // measure 25
0001
0000
0000
0000
,  // measure 26
0100
0000
0000
0000
,  // measure 27
0010
0000
0000
0000
,  // measure 28
1000
0000
0000
0000
,  // measure 29
1000
0000
0000
0000
,  // measure 30
0100
0000
0000
0000
,  // measure 31
0010
0000
0000
0000
,  // measure 32
0001
0000
1000
0000
,  // measure 33
1001
0000
0100
0000
,  // measure 34
0010
0000
1000
0000
,  // measure 35
0100
0000
1000
0000
,  // measure 36
0001
0000
0100
0000
,  // measure 37
0001
0000
1000
0000
,  // measure 38
0001
0001
0001
0000
,  // measure 39
1000
0000
0010
0000
,  // measure 40
0100
0100
0100
0000
,  // measure 41
0110
0000
1001
0000
,  // measure 42
0110
0000
1001
0000
,  // measure 43
1000
0000
0100
0000
,  // measure 44
1000
1000
1000
0000
,  // measure 45
0010
0000
0100
0000
,  // measure 46
0001
0000
0010
0000
,  // measure 47
0001
0000
1000
0000
,  // measure 48
0001
0001
0001
0000
,  // measure 49
0101
0000
0010
0000
,  // measure 50
0100
0000
0010
0000
,  // measure 51
1000
0000
0100
0000
,  // measure 52
1100
0000
0101
0000
,  // measure 53
0100
0000
0010
0000
,  // measure 54
0100
0000
0011
0000
,  // measure 55
1000
0000
0010
0000
,  // measure 56
0100
0100
0100
0000
;
