#TITLE:Midnight Lady;
#SUBTITLE:;
#ARTIST:Dirty Androids;
#TITLETRANSLIT:;
#SUBTITLETRANSLIT:;
#ARTISTTRANSLIT:;
#GENRE:;
#CREDIT:;
#BANNER:;
#BACKGROUND:;
#LYRICSPATH:;
#CDTITLE:loodeecdtitle.png;
#MUSIC:Midnight Lady.ogg;
#OFFSET:-0.865;
#SAMPLESTART:76.391;
#SAMPLELENGTH:27.000;
#SELECTABLE:YES;
#DISPLAYBPM:128.000;
#BPMS:0.000=64.000,0.500=85.000,0.688=68.000,1.000=107.800,4.000=242.000,4.500=123.000,4.750=25.000,4.875=64.000,5.375=22.220,5.500=135.600,9.000=199.000,9.250=69.000,9.375=205.000,9.750=238.000,12.000=128.000;
#STOPS:0.417=0.060
,5.021=0.070
,5.271=0.070
,9.667=0.100
;
#BGCHANGES:;
#KEYSOUNDS:;

//---------------dance-single - Loodee----------------
#NOTES:
     dance-single:
     Loodee:
     Challenge:
     11:
     0.818,0.788,0.194,0.541,1.000:
0000
0000
0000
0000
0M00
0000
00M0
0M00
0000
M000
0000
000M
0000
0000
0000
0000
M000
0000
0000
0000
00M0
0000
0000
0000
,
M000
0000
0000
M000
000M
0000
M000
0000
0000
0000
0000
0000
0000
0000
0000
0000
0000
0000
0000
0000
0000
0000
0000
0000
0000
0000
0000
0000
0000
0000
0000
0000
0000
0000
0000
0000
0000
0000
0000
0000
0000
0000
0M00
0000
0000
0000
0000
0000
0000
0000
0000
0000
0000
0000
0000
0000
0000
0000
0000
0000
0000
0000
0000
0000
0000
0000
0000
0000
0M00
0000
0000
0000
00M0
0000
0000
0000
0000
0000
0000
0000
0000
0000
0000
0000
0000
0000
0000
0000
0000
0000
0000
0000
0000
0000
0000
0000
0000
0000
0000
0000
0000
0000
M000
0000
0000
0000
0000
0000
0000
0000
0000
0000
0000
0000
0000
0000
0000
0000
0000
0000
0000
0000
0000
0000
0000
0000
000M
0000
0000
0000
0000
0000
0000
0000
0000
0000
0000
0000
0000
0000
0000
0000
0000
0000
0000
0000
0000
0000
0000
0000
0000
0000
0000
0000
0000
0000
0M00
0000
0000
0000
0000
0000
0000
0000
0000
0000
0000
0000
0000
0000
0000
0000
0000
0000
0000
0000
0000
0000
0000
0000
0000
0000
0000
0000
0000
0000
0000
0000
0000
0000
0000
0000
,
000M
0000
0000
0000
0000
0000
0000
0000
0000
0000
0000
0000
0000
0000
0000
0000
0000
0000
0000
0000
0000
0000
0000
0000
M000
0000
0000
0000
0000
0000
0000
0000
0000
0000
0000
0000
0000
0000
0000
0000
0000
0000
0000
0000
0000
0000
0000
0000
0M00
0000
0000
0000
0000
0000
000M
0000
0000
0000
0000
0000
00M0
0000
0000
0000
000M
0000
0000
0000
0000
0000
0000
0000
00M0
0000
0000
0000
0000
0000
0000
0000
0000
0000
0000
0000
0000
0000
0000
0000
0000
0000
0000
0000
0000
0000
0000
0000
0M00
0000
0000
0000
0000
0000
0000
0000
0000
0000
0000
0000
0000
0000
0000
0000
0000
0000
0000
0000
0000
0000
0000
0000
0M00
0000
0000
0000
0000
0000
0000
0000
0000
0000
0000
0000
0000
0000
0000
0000
0000
0000
0000
0000
0000
0000
0000
0000
0M00
0000
0000
0000
0000
0000
0000
0000
0000
0000
0000
0000
0000
0000
0000
0000
0000
0000
0000
0000
0000
0000
0000
0000
0M00
0000
0000
0000
0000
0000
0000
0000
0000
0000
0000
0000
0000
0000
0000
0000
0000
0000
0000
0000
0000
0000
0000
0000
,
0M00
0000
0000
0000
,
0M00
0000
00M0
0000
,
0M00
0000
0000
0000
,
0M00
0000
0000
0000
0000
0000
0000
0000
0000
0000
0000
0000
0000
0000
0000
0000
0000
0000
0000
0000
0000
0000
0000
0000
0001
0000
0000
1000
0000
0000
0100
0000
0010
0000
0100
0000
0010
0000
0000
0001
0000
0000
1000
0000
0000
0000
0000
0000
,
1010
0000
0010
0100
0001
1000
0100
0010
0000
0000
0001
0100
0000
0001
0010
0100
,
0010
0000
0001
0000
1000
0010
1000
0010
0100
0001
0000
0010
0000
1000
0000
0010
,
0100
0000
1000
0001
1000
0010
0100
0001
0000
0000
0010
0100
0000
0010
0001
1000
,
0010
0000
0100
0000
0001
1000
0001
1000
0100
0000
0010
0100
1000
0000
0001
0100
,
0010
0000
1000
0001
0010
0100
0010
0001
0000
0000
1000
0010
0000
0100
0010
1000
,
0001
0000
1000
0000
0100
0010
0100
0010
0001
0100
0000
0010
0000
0001
0000
0010
,
1000
0000
0001
1000
0100
0010
0001
0100
0000
0000
0001
0010
0000
0100
0010
0001
,
1000
0000
0001
0100
0000
0100
0000
0001
1000
0001
0010
0000
0110
0000
0100
1000
,
1001
0000
0001
1000
0010
1000
0001
0010
0000
0000
0100
1000
0000
0001
0100
0010
,
0200
0000
0301
0000
0001
1000
0100
1000
0002
0000
0000
0103
0000
1000
0000
0100
,
0020
0000
1030
0001
0010
0100
1000
0100
0000
0000
0010
0001
0000
1000
0010
0100
,
0001
0000
1000
0000
0001
0010
0001
0010
0100
0010
0000
0001
0000
1000
0000
0010
,
1000
0000
0001
0010
0001
1000
0010
0100
0000
0000
0001
0010
0000
0001
1000
0010
,
1000
0000
0100
0000
0010
0100
0010
0100
2000
0000
0000
3010
0000
0001
0000
0010
,
0100
0000
0001
0010
0100
1000
0001
0100
0000
0000
0010
1000
0000
0001
1000
0100
,
0010
0000
0000
0000
0000
0000
0100
0000
0000
1000
0000
0000
0002
0000
0000
0000
0000
0000
0000
0000
0000
0000
0000
0000
0103
0000
0000
0010
0000
0000
1000
0000
0001
0000
1000
0000
0001
0000
0000
0010
0000
0000
0100
0000
0000
1000
0000
0000
,
2100
0000
0000
0000
3001
0100
0010
0100
0001
1000
0100
1000
0001
0000
0100
0000
,
0010
0000
1000
0000
0100
0010
0001
0010
0100
0000
1000
0010
1000
0100
1000
0100
,
0010
0000
0001
0000
0100
0010
1000
0001
0100
0010
1000
0100
0010
0000
0001
0010
,
0100
0000
0010
0000
0100
1000
0001
1000
0010
0100
0000
0100
0001
0000
0010
0001
,
0010
0000
0100
0000
1000
0010
1000
0001
1000
0100
0010
0001
1000
0000
0010
0000
,
1000
0000
0001
0010
0100
1000
0010
1000
0001
0010
0001
0010
0100
0000
0010
0001
,
0100
0000
0010
0000
1000
0001
0010
0001
1000
0010
0100
0001
0010
0100
1000
0100
,
0020
0000
0000
0000
0000
0000
0001
0000
0000
0000
0000
0000
0130
0000
0000
0000
0000
0000
1000
0000
0001
0000
1000
0000
0001
0000
0000
0100
0000
0000
0000
0000
0000
0100
0000
0000
0010
0000
0000
1000
0000
0000
0001
0000
0000
0010
0000
0000
,
0011
0000
0000
0000
0101
0000
0000
0000
1010
0000
0000
0000
1100
0100
0010
0001
,
2001
0000
0000
0000
3010
0010
0100
0001
2000
0000
0000
3100
0010
0000
0200
0000
,
1300
0000
0001
0100
0010
1000
0001
0010
0200
0000
0310
0000
0001
1000
0000
0000
,
1020
0000
0000
0000
0130
0100
0001
1000
0200
0000
0000
0310
0100
0000
2000
0000
,
3001
0000
0200
0000
0310
2000
0000
0000
3100
0010
0000
0100
0000
0000
1000
0000
,
2001
0000
0000
0000
3100
0100
0010
0001
0200
0000
0000
0310
1000
0000
0002
0000
,
0013
0000
0100
0010
0100
1000
0001
0001
1000
0010
0000
0001
0000
0010
0100
0000
,
0120
0000
0000
0000
0000
0000
0000
0000
0000
0000
0000
0000
0000
0000
0000
0000
1030
0000
0000
0000
1000
0000
0000
0000
0001
0000
0000
0000
0010
0000
0000
0000
0100
0000
0000
0000
0000
1000
0000
0000
0001
0000
0000
0000
0000
1000
0000
0000
0001
0000
0000
0000
0000
0000
0000
0000
0200
0000
0000
0000
0300
0000
0000
0000
,
0010
0000
0000
0000
0000
0000
1000
0000
0000
0001
0000
0000
0010
0000
0000
0000
0000
0000
0100
0000
0000
0000
0000
0000
1000
0000
0000
0100
0000
0000
0010
0000
0001
0000
1000
0000
0001
0000
0100
0000
0010
0000
1000
0000
0001
0000
0010
0000
,
0200
0000
0000
0000
0000
0000
0000
0000
1300
0000
1000
0000
0001
0000
1000
0000
0010
0000
0000
0000
0100
0001
0100
0000
0010
0000
0000
0000
2000
0000
0000
0000
,
3001
0000
0010
0001
0010
0100
0010
1000
0020
0000
0031
1000
0010
0000
0100
0000
,
2010
0000
0000
0000
3001
0001
0010
0001
1000
0000
0000
0010
0100
0000
0002
0000
,
0013
0000
0100
0010
0001
0010
0100
1000
0020
0000
0000
0230
0000
0000
0302
0000
,
2003
0000
0000
3100
1000
1000
0001
0100
0010
0000
1000
0100
0010
0100
1100
0000
,
0000
0000
0000
0000
0001
0000
0000
0000
1000
0000
0000
0000
0010
0000
0000
0000
0100
0000
0000
0000
0001
0000
0000
0000
1001
0000
0000
0000
0000
0000
0000
0000
0000
0000
0000
0000
0000
1000
0000
0000
0100
0000
0000
0000
0000
1000
0000
0000
0100
0000
0000
0000
0000
0000
0000
0000
0100
0000
0000
0000
0000
0010
0000
0000
,
0002
0000
0000
0000
0103
0100
0010
0100
0001
0000
1000
0100
0010
0001
0010
0100
,
0010
0000
0000
0001
0000
0000
0100
0000
0000
0000
0000
0000
0010
0000
0000
1000
0000
0000
0001
0000
0010
0000
0100
0000
0010
0000
0000
0001
0000
0000
0000
0000
0000
0001
0000
0000
1000
0000
0000
0010
0000
0000
1000
0000
0000
0100
0000
0000
,
0020
0000
0032
0000
2003
0000
3020
0000
0230
0000
0000
0320
0000
0000
2030
0000
,
0000
0000
0000
3200
0000
0320
0000
0000
,
0000
0000
0032
0000
2003
0000
3020
0000
0230
0000
0000
0302
0000
0000
2003
0000
,
0000
0000
0000
3200
0302
0000
0203
0000
,
0300
0000
0020
0000
0032
0000
2003
0000
3020
0000
0000
0230
0000
0000
0302
0000
,
0000
0000
0000
0000
0013
0000
0020
0000
0000
0000
0230
0000
0000
0000
0310
0001
,
0100
0000
1020
0130
1001
0000
1001
0000
,
0001
0000
0000
0000
0000
0000
0001
0000
0000
0000
0000
0000
0001
0000
0000
0000
0000
0000
0001
0000
0100
0000
0010
0000
1000
0000
0000
0001
0000
0000
0100
0000
0000
1000
0000
0000
0100
0000
0000
0010
0000
0000
1000
0000
0000
0001
0000
0000
,
1001
0000
1000
0000
0100
0100
1000
0001
0100
0000
0000
0010
1000
0000
0002
0000
,
0000
0000
0013
0100
0010
0001
0100
0010
2000
0000
0001
0000
3100
0010
0001
0000
,
0011
0000
0100
0000
1000
1000
0001
0100
0010
0000
0000
1000
0001
0000
0020
0000
,
0000
0000
0130
1000
0010
0000
0100
0000
0002
0000
2003
0000
3200
0000
0310
0001
,
1001
0000
0000
0001
0101
0100
0010
0100
1000
0000
0000
0100
0010
1000
1002
0000
,
0000
0000
0013
1000
0010
0100
2000
0000
0000
3001
0100
0010
0100
0000
0100
0001
,
1000
0000
0001
0000
1000
1000
0100
1000
0001
0000
0100
0010
1000
0000
0100
0010
,
0011
0000
0000
0000
0000
0000
0001
0000
0000
1000
0000
0000
0001
0000
0000
0100
0000
0000
0010
0000
1000
0000
0010
0000
0100
0000
0000
0001
0000
0000
0000
0000
0000
1000
0000
0000
0100
0000
0000
0010
0000
0000
0001
0000
0000
1000
0000
0000
,
0020
0000
0000
0000
,
0000
0030
0000
0000
0000
0000
0000
0000
0000
0000
0000
0000
0000
0000
0000
0000
;

//---------------dance-single - dumb----------------
#NOTES:
     dance-single:
     dumb:
     Edit:
     11:
     0.818,0.762,0.202,0.509,1.000:
0000
0000
0000
0000
0M00
0000
00M0
0M00
0000
M000
0000
000M
0000
0000
0000
0000
M000
0000
0000
0000
00M0
0000
0000
0000
,
M000
0000
0000
M000
000M
0000
M000
0000
0000
0000
0000
0000
0000
0000
0000
0000
0000
0000
0000
0000
0000
0000
0000
0000
0000
0000
0000
0000
0000
0000
0000
0000
0000
0000
0000
0000
0000
0000
0000
0000
0000
0000
0M00
0000
0000
0000
0000
0000
0000
0000
0000
0000
0000
0000
0000
0000
0000
0000
0000
0000
0000
0000
0000
0000
0000
0000
0000
0000
0M00
0000
0000
0000
00M0
0000
0000
0000
0000
0000
0000
0000
0000
0000
0000
0000
0000
0000
0000
0000
0000
0000
0000
0000
0000
0000
0000
0000
0000
0000
0000
0000
0000
0000
M000
0000
0000
0000
0000
0000
0000
0000
0000
0000
0000
0000
0000
0000
0000
0000
0000
0000
0000
0000
0000
0000
0000
0000
000M
0000
0000
0000
0000
0000
0000
0000
0000
0000
0000
0000
0000
0000
0000
0000
0000
0000
0000
0000
0000
0000
0000
0000
0000
0000
0000
0000
0000
0000
0M00
0000
0000
0000
0000
0000
0000
0000
0000
0000
0000
0000
0000
0000
0000
0000
0000
0000
0000
0000
0000
0000
0000
0000
0000
0000
0000
0000
0000
0000
0000
0000
0000
0000
0000
0000
,
000M
0000
0000
0000
0000
0000
0000
0000
0000
0000
0000
0000
0000
0000
0000
0000
0000
0000
0000
0000
0000
0000
0000
0000
M000
0000
0000
0000
0000
0000
0000
0000
0000
0000
0000
0000
0000
0000
0000
0000
0000
0000
0000
0000
0000
0000
0000
0000
0M00
0000
0000
0000
0000
0000
000M
0000
0000
0000
0000
0000
00M0
0000
0000
0000
000M
0000
0000
0000
0000
0000
0000
0000
00M0
0000
0000
0000
0000
0000
0000
0000
0000
0000
0000
0000
0000
0000
0000
0000
0000
0000
0000
0000
0000
0000
0000
0000
0M00
0000
0000
0000
0000
0000
0000
0000
0000
0000
0000
0000
0000
0000
0000
0000
0000
0000
0000
0000
0000
0000
0000
0000
0M00
0000
0000
0000
0000
0000
0000
0000
0000
0000
0000
0000
0000
0000
0000
0000
0000
0000
0000
0000
0000
0000
0000
0000
0M00
0000
0000
0000
0000
0000
0000
0000
0000
0000
0000
0000
0000
0000
0000
0000
0000
0000
0000
0000
0000
0000
0000
0000
0M00
0000
0000
0000
0000
0000
0000
0000
0000
0000
0000
0000
0000
0000
0000
0000
0000
0000
0000
0000
0000
0000
0000
0000
,
0M00
0000
0000
0000
,
0M00
0000
00M0
0000
,
0M00
0000
0000
0000
,
0M00
0000
0000
0000
0000
0000
0000
0000
0000
0000
0000
0000
0000
0000
0000
0000
0000
0000
0000
0000
0000
0000
0000
0000
0001
0000
0000
1000
0000
0000
0100
0000
0010
0000
0100
0000
0010
0000
0000
0001
0000
0000
1000
0000
0000
0000
0000
0000
,
1010
0000
0010
0100
0001
1000
0100
0010
0000
0000
0001
0100
0000
0001
0010
0100
,
0010
0000
0001
0000
1000
0010
1000
0010
0100
0001
0000
0010
0000
1000
0000
0010
,
0100
0000
1000
0001
1000
0010
0100
0001
0000
0000
0010
0100
0000
0010
0001
1000
,
0010
0000
0100
0000
0001
1000
0001
1000
0100
0000
0010
0100
1000
0000
0001
0100
,
0010
0000
1000
0001
0010
0100
0010
0001
0000
0000
1000
0010
0000
0100
0010
1000
,
0001
0000
1000
0000
0100
0010
0100
0010
0001
0100
0000
0010
0000
0001
0000
0010
,
1000
0000
0001
1000
0100
0010
0001
0100
0000
0000
0001
0010
0000
0100
0010
0001
,
1000
0000
0001
0100
0000
0100
0000
0001
1000
0001
0010
0000
0110
0000
0100
1000
,
1001
0000
0001
1000
0010
1000
0001
0010
0000
0000
0100
1000
0000
0001
0100
0010
,
0200
0000
0301
0000
0001
1000
0100
1000
0002
0000
0000
0103
0000
1000
0000
0100
,
0020
0000
1030
0001
0010
0100
1000
0100
0000
0000
0010
0001
0000
1000
0010
0100
,
0001
0000
1000
0000
0001
0010
0001
0010
0100
0010
0000
0001
0000
1000
0000
0010
,
0100
0000
0001
1000
0100
0010
0100
1000
0000
0000
0010
0100
0000
0001
0100
0010
,
1000
0000
0100
0000
0010
0001
0010
0001
0200
0000
0000
0310
0000
0001
0000
0010
,
1000
0000
0001
0010
0100
0010
0100
1000
0000
0000
0010
0100
0000
0001
1000
0010
,
1000
0000
0000
0000
0000
0000
0100
0000
0000
0010
0000
0000
0200
0000
0000
0000
0000
0000
0000
0000
0000
0000
0000
0000
1300
0000
0000
0100
0000
0000
0010
0000
0001
0000
1000
0000
0010
0000
0100
0000
0001
0000
0010
0000
0000
0100
0000
0000
,
2100
0000
0000
0000
3001
0100
0010
0100
0001
1000
0100
1000
0001
0000
0100
0000
,
0010
0000
1000
0000
0100
0010
0001
0010
0100
0000
1000
0010
0100
0001
0100
0001
,
1000
0000
0100
0000
0010
0001
1000
0001
0100
0010
1000
0010
0100
0000
0001
0010
,
0100
0000
0010
0000
0100
1000
0001
1000
0010
0100
0000
0100
0001
0000
0010
0001
,
0010
0000
0100
0000
1000
0010
1000
0001
1000
0100
0010
0001
1000
0000
0010
0000
,
1000
0000
0001
0010
0100
1000
0010
1000
0001
0010
0001
0010
0100
0000
0010
0001
,
0100
0000
0010
0000
1000
0001
0010
0001
1000
0010
0100
0001
0010
0100
1000
0100
,
0020
0000
0000
0000
0000
0000
0001
0000
0000
0000
0000
0000
0130
0000
0000
0000
0000
0000
1000
0000
0001
0000
1000
0000
0001
0000
0000
0100
0000
0000
0000
0000
0000
0100
0000
0000
0010
0000
0000
1000
0000
0000
0001
0000
0000
0010
0000
0000
,
0011
0000
0000
0000
0101
0000
0000
0000
1010
0000
0000
0000
1100
0100
0010
0001
,
2001
0000
0000
0000
0000
0000
0000
0000
3100
00M0
0100
0000
0100
0000
0100
0000
0001
0000
0000
0000
0000
0000
1000
0000
0001
0000
0000
0000
0200
0000
0000
0000
,
0310
0000
0100
0001
1000
0100
0010
0001
2000
0000
3100
0000
0010
0100
0000
0000
,
0012
0000
0000
0000
0000
0000
0000
0000
0103
00M0
0100
0000
0100
0000
0100
0000
1000
0000
0000
0000
0000
0000
0001
0000
1000
0000
0000
0000
0020
0000
0000
0000
,
0130
0000
2000
0000
3100
0002
0000
0003
0010
0100
0000
0010
0000
0000
0100
0000
,
2001
0000
0000
0000
0000
0000
0000
0000
3100
00M0
0100
0000
0100
0000
0100
0000
0001
0000
0000
0000
0000
0000
0010
0000
0001
0000
0000
0000
2000
0000
0000
0000
,
3010
0000
0000
0000
0100
0000
0010
0000
1000
0000
0001
0000
0010
0M00
0010
0000
1000
0000
0100
0000
0000
0000
0001
0000
0000
0000
0100
0000
0010
0000
0000
0000
,
0012
0000
0000
0000
0000
0000
0000
0000
0000
0000
0000
0000
0000
0000
0000
0000
0103
0000
00M0
0000
0100
0000
0000
0000
0100
0000
0000
0000
0100
0000
0000
0000
1000
0000
0000
0000
0000
0001
0000
0000
1000
0000
0000
0000
0000
0001
0000
0000
0100
0000
0000
0000
0000
0000
0000
0000
0010
0000
0000
0000
0000
0000
0000
0000
,
1000
0000
0000
0000
0000
0000
0100
0000
0000
0010
0000
0000
0001
0000
0000
0000
0000
0000
1000
0000
0000
0000
0000
0000
0001
0000
0000
0100
0000
0000
0010
0000
1000
0000
0001
0000
0010
0000
0100
0000
1000
0000
0100
0000
0010
0000
0001
0000
,
2000
0000
0000
0000
0000
0000
0000
0000
3100
00M0
0100
0000
0100
0000
0100
0000
0001
0000
0000
0000
1000
0001
1000
0000
0010
0000
0000
0000
0200
0000
0000
0000
,
0301
0000
1000
0100
1000
0001
0010
1000
0020
0000
0130
0010
0001
0000
1000
0000
,
1020
0000
0000
0000
0000
0000
0000
0000
0130
000M
0100
0000
0100
0000
0100
0000
1000
0000
0000
0000
0000
0000
0001
0000
1000
0000
0000
0000
0200
0000
0000
0000
,
0310
0000
0001
1000
0010
0100
1000
0100
0002
0000
0000
0023
0000
0000
0230
0000
,
0320
0000
0000
0000
0000
0000
0031
0000
0100
00M0
0100
0000
0100
0000
0100
0000
1000
0000
0000
0000
0001
0000
0100
0000
0010
0000
0100
0000
0101
0000
0000
0000
,
0000
0000
0000
0000
0001
0000
0000
0000
1000
0000
0000
0000
0100
0000
0000
0000
0010
0000
0000
0000
0100
0000
0000
0000
1100
0000
0000
0000
0000
0000
0000
0000
0000
0000
0000
0000
0000
1000
0000
0000
0001
0000
0000
0000
0000
1000
0000
0000
0010
0000
0000
0000
0000
0000
0000
0000
0100
0000
0000
0000
0000
0001
0000
0000
,
2000
0000
0000
0000
0000
0000
0000
0000
3100
00M0
0100
0000
0100
0000
0100
0000
0001
0000
0000
0000
0010
0000
0100
0000
0010
0000
0001
0000
1000
0000
0001
0000
,
0100
0000
0000
0010
0000
0000
1000
0000
0000
0010
0000
0000
0100
0000
0000
0001
0000
0000
1000
0000
0001
0000
1000
0000
0100
0000
0000
0010
0000
0000
0000
0000
0000
0010
0000
0000
0001
0000
0000
1000
0000
0000
0010
0000
0000
0100
0000
0000
,
0101
0000
0002
0000
0023
0000
0230
0000
0320
0000
0000
0032
0000
0000
2003
0000
,
0000
0000
0000
3020
0000
0230
0000
0000
,
0000
0000
0302
0000
2003
0000
3200
0000
0320
0000
0000
0032
0000
0000
2003
0000
,
0000
0000
0000
3020
0032
0000
0023
0000
,
0030
0000
0200
0000
0302
0000
0023
0000
0230
0000
0000
0320
0000
0000
0032
0000
,
0000
0000
0000
0000
2003
0000
3020
0000
0000
0000
0230
0000
0000
0000
0301
1000
,
0001
0000
0021
0130
1100
0000
1001
0000
,
0001
0000
0000
0000
0000
0000
0001
0000
0000
0000
0000
0000
0001
0000
0000
0000
0000
0000
0001
0000
0100
0000
0010
0000
1000
0000
0000
0001
0000
0000
0100
0000
0000
1000
0000
0000
0100
0000
0000
0010
0000
0000
1000
0000
0000
0001
0000
0000
,
0011
0000
0000
0000
0001
0000
0000
0000
0100
00M0
0100
0000
0100
0000
0100
0000
1000
0000
0000
0000
0000
0000
0010
0000
0100
0000
0000
0000
0002
0000
0000
0000
,
0000
0000
0013
0100
0010
0100
1000
0001
0200
0000
0010
0000
0301
1000
0010
0000
,
1010
0000
0000
0000
0100
0000
0000
0000
0010
M000
0010
0000
0010
0000
0010
0000
0001
0000
0000
0000
0000
0000
0010
0000
0100
0000
0000
0000
2000
0000
0000
0000
,
0000
0000
3001
0100
0010
0000
1000
0100
0020
0000
0230
0000
0320
0000
0031
1000
,
1001
0000
0000
0001
0101
0100
0010
0100
1000
0000
0000
0100
0010
1000
1002
0000
,
0000
0000
0013
1000
0010
0100
2000
0000
0000
3001
0100
0010
0100
0000
0100
0001
,
1000
0000
0000
0000
0001
0000
0000
0000
0010
0M00
0010
0000
0010
0000
0010
0000
1000
0000
0000
0000
0010
0000
0100
0000
0001
0000
0000
0000
0010
0000
0100
0000
,
1100
0000
0000
0000
0000
0000
1000
0000
0000
0010
0000
0000
0100
0000
0000
0001
0000
0000
1000
0000
0001
0000
0010
0000
0100
0000
0000
1000
0000
0000
0000
0000
0000
0001
0000
0000
0100
0000
0000
0010
0000
0000
1000
0000
0000
0100
0000
0000
,
0020
0000
0000
0000
,
0000
0030
0000
0000
0000
0000
0000
0000
0000
0000
0000
0000
0000
0000
0000
0000
;
