#TITLE:MUSCLE HORN;
#SUBTITLE:;
#ARTIST:P*Light;
#TITLETRANSLIT:;
#SUBTITLETRANSLIT:;
#ARTISTTRANSLIT:;
#GENRE:;
#CREDIT:;
#BANNER:MUSCLE HORN.png;
#BACKGROUND:MUSCLE HORN-bg.png;
#LYRICSPATH:;
#CDTITLE:;
#MUSIC:MUSCLE HORN.ogg;
#OFFSET:0.000000;
#SAMPLESTART:39.750023;
#SAMPLELENGTH:15.000000;
#SELECTABLE:YES;
#BPMS:0.000000=145.000000
;
#STOPS:
;
#BGCHANGES:;
#KEYSOUNDS:;
#ATTACKS:;

//---------------dance-single - ----------------
#NOTES:
     dance-single:
     :
     Hard:
     9:
     0.688400,0.949517,0.387720,0.696313,0.379807,472.000000,49.000000,88.000000,0.000000,0.000000,0.000000,0.688400,0.949517,0.387720,0.696313,0.379807,472.000000,49.000000,88.000000,0.000000,0.000000,0.000000:
// measure 0
0000
0000
0000
0000
,  // measure 1
0000
0000
0000
0000
,  // measure 2
0000
0000
0000
0000
,  // measure 3
0000
0000
0000
0000
,  // measure 4
1000
0000
0100
0000
0010
0000
0100
0000
1000
0000
0000
1010
0000
0000
1000
0000
,  // measure 5
0001
0000
0100
0000
0010
0000
0100
0000
0001
0000
0000
0011
0000
0000
0001
0000
,  // measure 6
1000
0000
0000
0100
0000
0000
0001
0000
1000
0000
0000
0010
0000
0000
0001
0000
,  // measure 7
0100
0000
0001
1000
0001
0000
0010
0100
0010
0100
0010
0000
0001
0000
1000
0000
,  // measure 8
0010
0100
0001
1000
0010
0100
0001
1000
,  // measure 9
0010
0000
0100
0000
0001
0100
0002
0000
0003
0000
1000
0000
0000
0100
0000
0000
,  // measure 10
0010
0100
1000
0001
0010
0100
1000
0001
,  // measure 11
0010
0000
0100
0000
1000
0010
1000
0000
0002
0000
0203
0000
0320
0000
2030
0000
,  // measure 12
3001
0100
0010
0100
0001
0100
0010
0100
,  // measure 13
0001
0000
1000
0000
0100
1000
0200
0000
0300
0000
0010
0000
0000
0001
0000
0000
,  // measure 14
1000
0000
0100
0000
0010
0000
0100
0000
1000
0000
0000
1100
0000
0000
0100
0000
,  // measure 15
2000
0000
3002
0000
0103
0100
0100
0200
,  // measure 16
0302
0000
0000
0000
2003
0000
0000
3010
0000
0000
0000
0100
0000
0100
0010
0000
,  // measure 17
2000
0000
0000
0000
3002
0000
0000
0103
0000
0000
0000
1010
0000
0000
0000
0000
,  // measure 18
2000
0000
0000
0000
3002
0000
0000
0013
0000
0000
0000
0100
0000
0100
1000
0000
,  // measure 19
0002
0000
0000
0000
2003
0000
0000
3100
0000
0000
0000
0110
0000
0000
0000
0000
,  // measure 20
0100
0000
1000
0000
0001
0000
1000
0000
0100
0000
1000
0010
0000
0010
0100
0000
,  // measure 21
0001
0000
0010
0000
0100
0000
0010
0000
0001
0000
0100
0010
0000
0010
1000
0000
,  // measure 22
0001
0000
0000
0101
0000
0000
0001
0000
1000
0000
0000
1010
0000
0000
0010
0000
,  // measure 23
1000
0000
0100
0010
0100
0000
1100
0000
1000
0010
1000
0000
1010
0000
0010
0100
,  // measure 24
0001
0000
0000
0000
0002
0000
0000
0103
0000
0000
0000
0010
0000
0000
0100
0000
,  // measure 25
0001
0000
0000
0000
0002
0000
0000
0103
0000
0000
0000
1010
0000
0000
0000
0000
,  // measure 26
1000
0000
0000
0000
2000
0000
0000
3100
0000
0000
0000
0010
0000
0000
0001
0000
,  // measure 27
1000
0000
0000
0000
2000
0000
0000
3001
0000
0000
0000
0110
0000
0000
0000
0000
,  // measure 28
0001
0000
0000
0000
0201
0000
0000
0310
0000
0000
0000
1000
0000
0000
0100
0000
,  // measure 29
1000
0000
0000
0000
2001
0000
0000
3100
0000
0000
0000
0110
0000
0000
0000
0000
,  // measure 30
0001
0100
1000
0100
0001
0010
1000
0010
,  // measure 31
0002
0003
0002
0003
0001
0001
1000
1000
,  // measure 32
0001
0000
0100
0000
0010
0000
0100
0002
0000
0000
0000
1003
0000
1000
0010
0000
,  // measure 33
1000
0000
0100
0000
0010
0000
0100
1000
0000
1000
0000
1002
0000
0000
0000
0000
,  // measure 34
1003
0000
0100
0000
0010
0000
0100
2000
0000
0000
0000
3001
0000
0001
0100
0000
,  // measure 35
0001
0000
0100
0000
0010
0000
1000
0001
0000
0001
0000
2001
0000
0000
0000
0000
,  // measure 36
3100
0000
0010
0000
0001
0000
1000
0000
0100
0000
0010
0001
0000
0001
0100
0000
,  // measure 37
0010
0000
1000
0000
0001
0000
0100
0000
0010
0000
1000
0001
0000
0001
0010
0000
,  // measure 38
0100
0000
0000
1100
0000
0000
1000
0000
0001
0000
0000
0101
0000
0000
0100
0000
,  // measure 39
0001
0010
0002
0000
1003
0100
2000
0000
3001
0010
0002
0000
0103
0000
0100
0000
,  // measure 40
0002
0100
1000
0100
,  // measure 41
0010
0100
1000
0023
,  // measure 42
0230
1000
0010
1000
,  // measure 43
0001
1000
0010
1000
,  // measure 44
2300
0100
0001
0100
,  // measure 45
0010
0001
0100
3002
,  // measure 46
0023
0031
0020
0130
,  // measure 47
1100
0101
2100
3002
,  // measure 48
1003
0000
0001
0000
0010
0000
0001
0000
1000
0000
0100
0020
0000
0000
0000
0000
,  // measure 49
0031
0000
1000
0000
0010
0000
1000
0000
0001
0000
0100
0020
0000
0000
0000
0000
,  // measure 50
1030
0000
0100
0000
0010
0000
0100
0000
1000
0000
0010
0200
0000
0000
0000
0000
,  // measure 51
0301
0000
0100
0000
0010
0000
0100
0000
0001
0000
0010
0200
0000
0000
0000
0000
,  // measure 52
2300
0000
3001
0100
0120
0000
1030
0100
,  // measure 53
0120
0000
0031
0100
0120
0000
1030
0100
,  // measure 54
2200
3300
2020
3030
0022
0033
0202
0303
,  // measure 55
0001
1000
0001
1000
0010
0100
0010
0100
0001
1000
0001
1000
0100
0010
0100
0010
,  // measure 56
0001
0000
0100
0001
0010
0000
1100
0000
1000
0010
0100
0000
0101
0000
0001
0010
,  // measure 57
0000
0000
0011
0000
0000
0110
0000
0000
1001
0000
0000
0100
1000
0000
1000
0000
,  // measure 58
0001
0000
0100
0000
0010
0000
1000
0000
0010
0000
0100
0001
0000
0000
0001
0000
,  // measure 59
2000
3000
2002
3003
2200
3300
2002
3003
,  // measure 60
1000
0000
0001
0000
0010
0000
0100
0000
0010
0000
0001
1000
0000
0000
1000
0000
,  // measure 61
0002
0003
2002
3003
0022
0033
2002
3003
,  // measure 62
0001
0000
0100
0000
0001
0000
1000
0000
0010
0000
1000
0001
0000
0000
0010
0000
,  // measure 63
0200
0300
2200
3300
0220
0330
0022
0033
,  // measure 64
1000
0000
0100
0000
1000
0000
0001
0000
0010
0000
0001
1000
0000
0000
0010
0000
,  // measure 65
0200
0000
0320
0000
1030
1000
0001
0001
,  // measure 66
1000
0000
0100
0000
1000
0000
0010
0000
1000
0000
0001
0010
0000
0100
1000
0000
,  // measure 67
0001
0000
0100
0000
0001
0000
0010
0000
0001
0000
0100
0010
0000
1000
0001
0000
,  // measure 68
1000
0000
0010
0000
0100
0000
0010
0000
1000
0000
0100
0010
0000
0001
0100
0000
,  // measure 69
0001
0000
0010
0000
0100
0000
0010
0000
0001
0000
1000
0010
0000
1000
0100
0000
,  // measure 70
0020
0000
0031
0101
0020
0000
1030
1100
,  // measure 71
0200
0000
1300
1010
0200
0000
0301
0011
,  // measure 72
0020
0000
0230
0000
1300
1000
0001
0001
,  // measure 73
0000
0000
1010
0000
0000
0110
0000
0000
0101
0000
0000
0001
0010
0000
0020
0000
,  // measure 74
0200
0000
0000
0000
,  // measure 75
0330
0000
0000
0000
;

//---------------dance-single - ----------------
#NOTES:
     dance-single:
     :
     Beginner:
     2:
     0.113038,0.175661,0.039563,0.000000,0.000000,95.000000,5.000000,0.000000,0.000000,0.000000,0.000000,0.113038,0.175661,0.039563,0.000000,0.000000,95.000000,5.000000,0.000000,0.000000,0.000000,0.000000:
0000
0000
0000
0000
,
0000
0000
0000
0000
,
0000
0000
0000
0000
,
0000
0000
0000
0000
,
0000
0000
0000
0000
,
0000
0000
0000
0000
,
1000
0000
0001
0000
,
1001
0000
0000
0000
,
0010
0000
0000
0000
,
1000
0000
1000
0000
,
0010
0000
0000
0000
,
0001
0000
0001
0000
,
0100
0000
0000
0000
,
1000
0000
1000
0000
,
0100
0000
0000
0000
,
0100
0000
0000
0000
,
1001
0000
0000
0000
,
0000
0000
0000
0000
,
0110
0000
0000
0000
,
0000
0000
0000
0000
,
0001
0000
0000
0000
,
1000
0000
0000
0000
,
0001
0000
1000
0000
,
1001
0000
0000
0000
,
1000
0000
0000
0000
,
0001
0000
0000
0000
,
0100
0000
0000
0000
,
0010
0000
0000
0000
,
1000
0000
0000
0000
,
0001
0000
0000
0000
,
0010
0000
0000
0000
,
0100
0100
0100
0000
,
0010
0000
0000
0000
,
0001
0000
0000
0000
,
1000
0000
0000
0000
,
0100
0000
0000
0000
,
1000
0000
0000
0000
,
0001
0000
0000
0000
,
0010
0000
0100
0000
,
0010
0000
0000
0000
,
0001
0000
0000
0000
,
0001
0000
0000
0000
,
0100
0000
0000
0000
,
0100
0000
0000
0000
,
1000
0000
0000
0000
,
1000
0000
0000
0000
,
0100
0000
0000
0000
,
0100
0000
0000
0000
,
0001
0000
0000
0000
,
0100
0000
0000
0000
,
1000
0000
0000
0000
,
0100
0000
0000
0000
,
0010
0000
0000
0000
,
0010
0000
0000
0000
,
0010
0000
0010
0000
,
0001
1000
0001
1000
,
0000
0000
0000
0000
,
0000
0000
0000
0000
,
1000
0000
0100
0000
,
1000
0000
0100
0000
,
0010
0000
0001
0000
,
0010
0000
0001
0000
,
0100
0000
0001
0000
,
0100
0000
0001
0000
,
1000
0000
0010
0000
,
1000
0000
0010
0000
,
1000
0000
1000
0000
,
0100
0000
0100
0000
,
0010
0000
0010
0000
,
0001
0000
0001
0000
,
1000
0000
0100
0000
,
0010
0000
0001
0000
,
1000
1000
1000
1000
,
0001
0000
1000
0000
,
1001
0000
0000
0000
;

//---------------dance-single - ----------------
#NOTES:
     dance-single:
     :
     Easy:
     3:
     0.207990,0.263491,0.055389,0.276943,0.000000,142.000000,7.000000,35.000000,0.000000,0.000000,0.000000,0.207990,0.263491,0.055389,0.276943,0.000000,142.000000,7.000000,35.000000,0.000000,0.000000,0.000000:
0000
0000
0000
0000
,
0000
0000
0000
0000
,
0000
0000
0000
0000
,
0000
0000
0000
0000
,
1000
0000
0100
0100
,
0010
0000
0001
0001
,
2000
3000
0002
0003
,
2002
0000
0000
3003
,
1001
0001
0100
0100
,
0020
0030
0200
0300
,
0001
1000
0100
0100
,
0020
0030
0020
0030
,
0100
0100
1000
0001
,
0200
0300
0020
0030
,
1000
1000
0001
0001
,
0020
0000
0000
0030
,
0100
0000
1000
0001
,
0100
0000
0001
1000
,
0010
0000
1000
0001
,
0010
0000
0001
1000
,
0100
0000
0100
0000
,
0010
0000
0010
0000
,
0100
0000
0010
0000
,
0220
0000
0000
0330
,
0000
0001
0000
0001
,
0000
1000
0000
1000
,
0000
0001
0000
0001
,
0000
1000
0000
1000
,
0000
0100
0000
0100
,
0000
0010
0000
0010
,
0000
0100
0000
0100
,
0010
0010
0020
0030
,
0000
0001
0000
0001
,
0000
1000
0000
1000
,
0000
0001
0000
0001
,
0000
1000
0000
1000
,
0000
0010
0000
0010
,
0000
0100
0000
0100
,
0010
0000
0100
0000
,
0220
0000
0000
0330
,
2000
0000
0000
0000
,
0000
0000
0000
3200
,
0320
0000
0000
0000
,
0000
0000
0000
0000
,
0032
0000
0000
0000
,
0000
0000
0000
2003
,
3020
0000
0000
0000
,
0000
0000
0000
0030
,
1000
0000
0000
1000
,
0001
0000
0000
0001
,
0100
0000
0000
0100
,
0010
0000
0000
0010
,
0110
0000
0000
0000
,
1001
0000
0000
0000
,
0001
0000
0001
0000
,
0002
0000
0000
0000
,
1003
0000
0000
0000
,
0000
0000
0000
0000
,
1000
0000
0100
0000
,
0020
0030
0020
0030
,
0001
0000
0100
0000
,
0020
0030
0020
0030
,
1000
0000
0001
0000
,
0200
0300
0200
0300
,
0001
0000
1000
0000
,
0200
0300
0200
0300
,
1000
0000
0100
0100
,
1000
0000
0001
0001
,
1000
0000
0010
0010
,
1000
0000
0001
0001
,
0020
0030
0020
0030
,
0020
0030
0020
0030
,
0010
0010
0010
0010
,
0001
0000
1000
0000
,
1001
0000
0000
0000
;

//---------------dance-single - ----------------
#NOTES:
     dance-single:
     :
     Medium:
     5:
     0.422761,0.504431,0.174078,0.395632,0.039563,302.000000,22.000000,50.000000,0.000000,0.000000,0.000000,0.422761,0.504431,0.174078,0.395632,0.039563,302.000000,22.000000,50.000000,0.000000,0.000000,0.000000:
0000
0000
0000
0000
,
0000
0000
0000
0000
,
0000
0000
0000
0000
,
0000
0000
0000
0000
,
0001
0000
0000
0000
0100
0000
0000
0000
0001
0000
0000
0001
0000
0000
0001
0000
,
0010
0000
0000
0000
0100
0000
0000
0000
1000
0000
0000
1000
0000
0000
1000
0000
,
0001
0000
0000
0100
0000
0000
0001
0000
1000
0000
0000
0100
0000
0000
1000
0000
,
0020
0100
0100
0130
,
2000
3100
0010
0100
,
1000
0000
0001
0000
0100
0010
0100
0000
,
0002
0103
0010
0100
,
0001
0000
0001
0000
1000
0100
1000
0100
,
0020
0031
1000
0010
,
1000
0000
0001
0000
0010
0100
0010
0000
,
0100
0000
0000
0000
0100
0000
0000
0000
1000
0000
0000
0001
0000
0000
1000
0000
,
0020
0230
0310
0010
,
2000
3100
0100
0010
,
0002
0013
0010
0100
,
2000
3010
0010
0100
,
0002
0103
0100
0010
,
2000
3100
0010
0001
,
0002
0103
0010
1000
,
0002
0103
2000
3100
,
0002
1000
1000
2003
,
3001
0100
0010
0100
,
0001
1000
0100
1000
,
0100
0010
0001
0010
,
0100
1000
0001
0100
,
0010
1000
0100
1000
,
0010
0100
0001
0100
,
0001
0001
1000
1000
,
0100
0000
0100
0000
0100
0100
0020
0000
,
0031
1000
0100
0010
,
0001
1000
0010
0110
,
1000
0001
0010
0100
,
1000
0001
0011
1100
,
1000
0000
0100
0000
0010
0100
1000
0000
,
0001
0000
0100
0000
0010
0100
0001
0000
,
1000
0000
0000
0010
0000
0000
0100
0000
0001
0000
0000
0010
0000
0000
0100
0000
,
0020
0100
0100
0230
,
0310
0010
0001
0001
,
0010
0010
0200
0000
,
1300
1000
0010
0010
,
1000
1000
0002
0000
,
0013
0010
0100
0100
,
1000
1000
0020
0000
,
0130
0100
0001
0001
,
1000
1000
2000
3001
,
1000
0000
0001
1000
0200
0000
0000
0000
,
1300
0000
0001
0100
0020
0000
0000
0000
,
1030
0000
0010
0100
0002
0000
0000
0000
,
1003
0000
0001
0010
0200
0000
0000
0000
,
0320
0031
0200
1300
,
0020
0031
0200
1300
,
0011
0101
1100
1010
,
0010
0100
0010
1000
0001
0100
0001
0010
,
0200
0000
0300
0200
0000
0300
0200
0300
,
0000
0000
1100
0000
0000
0110
0000
0000
2002
0000
0000
0000
3003
0000
0000
0000
,
0001
0100
1000
0100
,
0001
1010
0202
0303
,
1000
0100
0001
0100
,
1000
0011
2200
3300
,
0001
1000
0010
1000
,
0001
0101
0022
0033
,
1000
0100
0010
0100
,
1000
1100
2001
3001
,
0001
0000
0100
0010
0100
0000
0001
0000
,
1000
0000
0100
0010
0100
0000
1000
0000
,
0001
0000
0100
0010
1000
0000
0010
0000
,
1000
0000
0100
0010
0001
0000
0010
0000
,
0002
0000
0103
0010
2000
0000
3100
0010
,
0002
0000
0013
0100
2000
0000
3010
0100
,
0002
0000
2003
0000
3001
0001
1000
1000
,
0000
0000
1001
0000
0000
0110
0000
0000
0110
0000
0000
1001
0000
0000
1000
0000
,
0020
0000
0000
0000
,
0030
0000
0000
0000
;
