#TITLE:Light it Up (feat. Nyla & Fuse ODG);
#SUBTITLE:;
#ARTIST:Major Lazer;
#TITLETRANSLIT:;
#SUBTITLETRANSLIT:;
#ARTISTTRANSLIT:;
#CREDIT:SupremeX;
#BANNER:Light It Up.png;
#BACKGROUND:Light It Up-bg.png;
#LYRICSPATH:;
#CDTITLE:cdtitle.png;
#MUSIC:Light It Up.ogg;
#OFFSET:-0.092;
#SAMPLESTART:36.120;
#SAMPLELENGTH:12.000;
#SELECTABLE:YES;
#BPMS:0.000=108.050;
#STOPS:;
#BGCHANGES:;

//---------------dance-single - ----------------
#NOTES:
     dance-single:
     :
     Hard:
     9:
     0.560,0.576,0.137,0.091,0.425: // measure 1
0000
0000
0000
0000
,  // measure 2
0000
0000
0000
0000
,  // measure 3
0000
0000
0000
0000
,  // measure 4
0000
0000
0000
0000
,  // measure 5
0000
0000
0000
0000
0001
0000
0000
0000
0010
0000
0000
0000
0100
0000
0000
1100
,  // measure 6
0000
0000
0100
0000
0000
0000
0010
0000
0000
0001
0000
0000
0010
0000
0000
0110
,  // measure 7
0000
0000
1000
0000
1000
0000
0000
0000
0001
0000
0000
0000
1000
0000
0000
0110
,  // measure 8
0000
0000
0001
0000
0000
0000
1000
0000
0000
1000
0000
0000
0100
0000
0000
0010
,  // measure 9
0000
0000
0001
0000
0100
0000
0010
0000
0100
0000
0001
0000
1000
0100
1000
0100
,  // measure 10
0020
0000
0031
0000
0000
0010
0100
0010
0100
0000
0001
0000
0001
1000
0100
1000
,  // measure 11
0200
0000
0310
0000
0000
0000
0001
1000
0001
0000
1000
0000
0100
1000
0100
1000
,  // measure 12
0020
0000
0130
0000
0000
1000
0100
1000
0100
0000
0010
0000
0001
0000
1100
0000
,  // measure 13
0101
0000
1100
0000
0000
0001
0010
0001
0010
0000
0100
0000
1000
0100
0010
0001
,  // measure 14
2000
0000
3001
0000
0000
0100
0010
0100
0010
0000
0010
0000
1000
0001
1000
0001
,  // measure 15
2000
0000
3100
0000
0000
0000
0010
0001
0010
0000
0001
0000
0100
0010
1000
0001
,  // measure 16
0200
0000
0301
0000
0000
1000
0010
0100
0001
1000
0010
0000
0100
0000
0001
1000
,  // measure 17
0001
0000
0000
0000
0100
0000
0001
0100
0001
0000
0100
0000
0010
0000
1000
0000
,  // measure 18
0100
0010
0100
0000
0010
0000
1000
0001
1000
0000
0010
0000
0100
0001
0000
1000
,  // measure 19
0001
0000
1100
0000
0010
0000
0001
0100
0001
0000
0100
0000
0010
0000
1000
0000
,  // measure 20
0010
1000
0010
0000
0100
0000
0001
0100
0001
0000
0010
0000
0100
1000
0000
0100
,  // measure 21
1000
0000
1100
0000
0010
0000
0001
0010
0001
0000
0010
0000
0100
0000
1000
0000
,  // measure 22
0100
0010
0100
0000
0010
0000
0001
0010
0001
0000
1000
0000
0010
1000
0000
0010
,  // measure 23
0100
0000
0110
0000
0001
0000
0100
0001
0100
0000
0010
0000
1000
0000
0100
1000
,  // measure 24
0100
1000
0100
0000
0010
0000
0001
0100
0010
0000
1000
0000
1000
0010
0000
1000
,  // measure 25
0010
0000
1010
0000
0001
0000
0100
0000
0010
0000
1000
0000
0001
0000
0100
0010
,  // measure 26
0100
0010
0000
0000
1000
0000
0100
0000
1000
0000
0100
0000
0010
0000
0001
0010
,  // measure 27
0001
0010
0000
0000
0100
0000
1000
0000
0100
0000
0010
0000
0001
0000
1000
0100
,  // measure 28
1000
0100
0000
1000
0001
0000
0100
0000
0001
0000
1000
0000
0100
0000
0010
0000
,  // measure 29
0001
0100
0001
0000
1000
0000
0010
0000
1000
0000
0010
0000
0100
0000
0001
0000
,  // measure 30
1000
0010
0100
0000
0001
0000
0010
0000
0100
0000
1000
0000
1000
0000
0100
0010
,  // measure 31
0100
0000
0010
0000
0002
0000
0013
0000
0100
0000
1000
0000
0100
0000
0010
0001
,  // measure 32
0020
0000
0000
0000
0130
0000
1000
0000
0010
0000
0100
0010
0200
0000
0000
0000
,  // measure 33
0301
0000
1000
0000
0010
0000
0100
0000
0001
0000
1000
0100
1000
0000
1100
0000
,  // measure 34
0010
0000
0001
0000
1000
0000
0001
0000
0100
0000
0010
0100
0010
0000
0110
0000
,  // measure 35
0001
0000
1000
0000
0100
0000
0010
0000
0001
0000
0100
0001
1000
0000
1100
0000
,  // measure 36
0000
0000
0100
0000
1000
0000
0100
0000
0010
0000
0001
0000
0001
0000
0010
0100
,  // measure 37
0010
0000
0100
0000
1000
0000
0100
0000
0010
0000
0001
0010
0001
0000
1000
0000
,  // measure 38
0100
0000
1000
0000
0001
0000
0100
0000
0010
0000
1000
0001
1000
0000
0010
0000
,  // measure 39
0100
0000
0001
0000
1000
0000
0010
0000
0100
0000
0001
1000
0010
0000
0100
0000
,  // measure 40
0010
0000
1000
0000
0001
0000
1000
0000
0010
0000
0100
0000
0001
0000
1000
0100
,  // measure 41
1000
0000
0000
0000
0001
0000
0010
0100
0010
0000
0100
0000
1000
0000
0001
0000
,  // measure 42
0100
0001
0100
0000
0010
0000
1000
0010
1000
0000
0100
0000
0010
1000
0000
0001
,  // measure 43
1000
0000
1001
0000
0100
0000
0010
0100
0010
0000
1000
0000
0001
0000
0100
0000
,  // measure 44
0010
0100
0010
0000
0100
0000
0001
1000
0010
0000
0100
0000
0010
0001
0000
0010
,  // measure 45
0001
0000
1000
0000
0100
0000
1000
0100
1000
0000
0100
0000
0010
0000
0001
0000
,  // measure 46
0100
0010
1000
0000
0001
0000
0100
0010
0100
0000
0100
0000
0001
1000
0000
0010
,  // measure 47
0100
0000
0110
0000
0010
0000
1000
0010
1000
0000
0100
0000
0010
0000
0001
0100
,  // measure 48
0010
1000
0001
0000
0100
0000
0010
1000
0010
0000
0100
0000
0001
0000
1000
0001
,  // measure 49
2000
0000
3000
0000
;

//---------------dance-single - ----------------
#NOTES:
     dance-single:
     :
     Medium:
     7:
     0.353,0.351,0.338,0.027,0.023:
0000
0000
0000
0000
,
0000
0000
0000
0000
,
0000
0000
0000
0000
,
0000
0000
0000
0000
,
0000
0000
0000
0000
0100
0000
0000
0000
0100
0000
0000
0000
0001
0000
0000
1000
,
0000
0000
0001
0000
0000
0000
1000
0000
0000
1000
0000
0000
0001
0000
0000
0001
,
0000
0000
0010
0000
0100
0000
0000
0000
0100
0000
0000
0000
0010
0000
0000
1000
,
0000
0000
0010
0000
0000
0000
0100
0000
0000
0001
0000
0000
0100
0000
0000
0000
,
0010
1000
0001
0010
0100
1000
0010
0000
,
0110
0000
1000
0100
0010
0001
0100
0000
,
0110
0000
0001
1000
0010
0000
0010
1000
,
0001
0000
0001
0000
0100
0000
0100
0001
,
1000
0000
0010
0000
0100
0000
0010
1000
,
0010
0000
0000
0001
0100
0000
0100
0001
,
1000
0000
0000
0001
1000
0000
0010
0100
,
0010
0000
1000
0100
0010
0001
1000
0000
,
1100
0010
0011
1100
,
1001
0000
0100
0010
1000
0001
0100
0010
,
1000
0011
1100
0110
,
1001
0000
1000
0100
0010
0001
1000
0010
,
1000
0000
0101
0000
1010
0000
0001
0010
,
0100
0000
1100
0000
0110
0000
0010
0001
,
0010
0000
1100
0000
1001
0000
0010
0100
,
0010
0000
1000
0001
1000
0100
0010
0001
,
0100
0010
1000
0010
,
0101
0000
0010
0100
,
1010
0001
0010
0100
,
1001
0010
0110
0001
,
1010
0000
0100
0000
0001
0000
1000
0010
,
0100
0000
0001
0000
1000
0010
0100
0010
,
0100
0000
0001
0000
1001
0000
0100
1000
,
0200
0300
0010
0022
,
0033
0000
0100
1000
0100
0010
0001
0010
,
0000
0000
0100
1000
0100
0010
0001
0001
,
0000
0000
1000
0100
0010
0001
1000
1000
,
0000
0000
0010
0000
0010
0000
0100
0001
,
0100
0010
1000
0001
0100
0001
1000
1000
,
0000
0000
0010
0100
0001
1000
0010
0100
,
0000
0000
0001
1000
0001
0100
0010
0010
,
0000
0000
1000
0100
0010
0001
0100
0000
,
1100
0000
0010
0000
0011
0000
1000
0100
,
0010
1001
0110
1001
,
0110
0000
1000
0100
0010
0000
0001
0100
,
0001
0000
1100
0000
0011
0000
1000
0010
,
0100
0000
0001
0000
1001
0000
0010
0100
,
0010
0000
1000
0100
0010
0000
0001
0010
,
0100
0000
1001
0000
0110
0000
0001
1000
,
0100
0000
0011
0000
1100
0000
0001
1000
,
1001
0000
0000
0000
;

//---------------dance-single - ----------------
#NOTES:
     dance-single:
     :
     Easy:
     3:
     0.242,0.285,0.146,0.000,0.027:
0000
0000
0000
0000
,
0000
0000
0000
0000
,
0000
0000
0000
0000
,
0000
0000
0000
0000
,
0000
0000
0000
0000
1000
0000
0000
0000
0010
0000
0000
0000
0100
0000
0000
0100
,
0000
0000
0000
0000
0000
0000
0001
0000
0000
1000
0000
0000
0001
0000
0000
1000
,
0000
0000
0001
0000
0100
0000
0000
0000
0010
0000
0000
0000
1000
0000
0000
0001
,
0000
0000
1000
0000
0000
0000
0001
0000
0000
0010
0000
0000
0100
0000
0000
1000
,
0000
0010
0010
0000
1000
0000
0001
0000
,
0100
0001
1000
0010
,
0010
1000
0001
0100
,
0100
0010
1000
0010
,
1000
0001
0001
0100
,
0100
0010
0010
1000
,
1000
0001
0001
0100
,
0010
1000
0001
1000
,
1001
0010
0010
0100
,
0100
0001
1000
0001
,
0100
0010
0010
1000
,
1000
0001
0100
0010
,
1000
0001
0001
0100
,
0100
0010
1000
0001
,
0100
0010
0010
1000
,
1000
0001
0100
0010
,
1000
0001
0000
1000
,
0000
0110
0000
0001
,
0000
0110
0000
1000
,
0000
1001
0000
0001
,
0000
0100
0100
0100
,
0100
0010
0010
0010
,
0010
1000
0001
1000
,
1010
0000
0001
0101
,
0000
1000
0010
0110
,
0001
0001
1000
1010
,
0001
0100
0010
0101
,
0010
1000
1000
0010
,
0010
0100
0001
1001
,
1000
0010
0100
0110
,
0001
1000
0010
0110
,
0001
1001
0010
1010
,
1001
0100
0100
0010
,
0010
1000
0001
0100
,
0010
1000
1000
0001
,
0001
0100
0010
1000
,
0001
1000
1000
0010
,
0010
0100
0001
1000
,
0010
0100
0100
0001
,
0001
1000
0001
0100
,
0110
0000
0000
0000
;

//---------------dance-single - Copied from----------------
#NOTES:
     dance-single:
     Copied from:
     Beginner:
     2:
     0.107,0.087,0.000,0.027,0.000:
0000
0000
0000
0000
,
0000
0000
0000
0000
,
0000
0000
0000
0000
,
0000
0000
0000
0000
,
0000
1000
0000
0000
,
0000
0001
0000
0000
,
0000
1000
0000
0000
,
0001
0001
0001
0000
,
0000
0100
0000
0100
,
0000
0100
0000
0100
,
0000
0010
0000
0010
,
0000
0010
0000
0010
,
0000
1000
0000
1000
,
0000
1000
0000
1000
,
0000
0001
0000
0001
,
0000
0001
0000
0001
,
0000
0100
0000
0100
,
0000
0010
0000
0010
,
0000
1000
0000
1000
,
0000
0001
0000
0001
,
0000
0100
0000
0100
,
0000
0010
0000
0010
,
0000
1000
0000
1000
,
0000
0001
0000
0001
,
0000
0200
0000
0000
,
0300
0000
0020
0000
,
0030
0000
2000
0000
,
0000
3000
0000
0000
0001
0000
0000
0000
,
0001
0000
0000
0010
,
0000
0000
0000
0100
,
0000
0000
0000
1000
,
0000
0000
0001
0000
,
0000
0010
0000
0010
,
0000
0100
0000
0100
,
0000
1000
0000
1000
,
0000
0001
0000
0001
,
0000
0010
0000
0010
,
0000
0100
0000
0100
,
0000
1000
0000
1000
,
0000
0001
0000
0001
,
0000
0100
0100
0000
,
0000
0010
0010
0000
,
0000
1000
1000
0000
,
0000
0001
0001
0000
,
0000
0100
0000
0100
,
0000
0010
0000
0010
,
0000
1000
0000
1000
,
0000
0001
0000
0001
;
