#VERSION:0.83;
#TITLE:Leprechaun;
#SUBTITLE:;
#ARTIST:Thaehan;
#TITLETRANSLIT:;
#SUBTITLETRANSLIT:;
#ARTISTTRANSLIT:;
#GENRE:Celtic Electro;
#ORIGIN:;
#CREDIT:;
#BANNER:[Wind Jammers] - Leprechaun.png;
#BACKGROUND:[Wind Jammers] - Leprechaun-bg.png;
#PREVIEWVID:;
#JACKET:[Wind Jammers] - Leprechaun-jacket.png;
#CDIMAGE:;
#DISCIMAGE:;
#LYRICSPATH:;
#CDTITLE:cdtitle.png;
#MUSIC:[Wind Jammers] - Leprechaun.ogg;
#OFFSET:-0.006233;
#SAMPLESTART:9.148090;
#SAMPLELENGTH:18.285717;
#SELECTABLE:YES;
#DISPLAYBPM:105.000000;
#BPMS:0.000=105.000,
80.000=210.000,
144.000=105.000;
#STOPS:;
#DELAYS:;
#WARPS:;
#TIMESIGNATURES:0.000=4=4;
#TICKCOUNTS:0.000=4;
#COMBOS:0.000=1;
#SPEEDS:0.000=1.000=0.000=0;
#SCROLLS:0.000=1.000;
#FAKES:;
#LABELS:0.000=Song Start;
#BGCHANGES:;
#KEYSOUNDS:;
#ATTACKS:
;

//---------------dance-single - ----------------
#NOTEDATA:;
#CHARTNAME:09-14;
#STEPSTYPE:dance-single;
#DESCRIPTION:;
#CHARTSTYLE:;
#DIFFICULTY:Challenge;
#METER:9;
#RADARVALUES:0.649749,0.732845,0.359302,0.657261,0.696696,519.000000,478.000000,41.000000,75.000000,16.000000,2.000000,0.000000,0.000000,0.000000,0.649749,0.732845,0.359302,0.657261,0.696696,519.000000,478.000000,41.000000,75.000000,16.000000,2.000000,0.000000,0.000000,0.000000;
#CREDIT:;
#OFFSET:-0.006233;
#BPMS:0.000000=105.000000
,80.000000=210.000000
,144.000000=105.000000
;
#STOPS:;
#DELAYS:;
#WARPS:;
#TIMESIGNATURES:0.000000=4=4
;
#TICKCOUNTS:0.000000=4
;
#COMBOS:0.000000=1
;
#SPEEDS:0.000000=1.000000=0.000000=0
;
#SCROLLS:0.000000=1.000000
,80.000000=0.500000
,144.000000=1.000000
;
#FAKES:;
#LABELS:0.000000=Song Start
;
#DISPLAYBPM:105.000000;
#NOTES:
// measure 0
0000
0000
0000
0000
,  // measure 1
0000
0000
0000
0000
,  // measure 2
0000
0000
0000
0000
,  // measure 3
0000
0000
0000
0000
0000
0000
0000
0000
0011
0000
1100
0000
0011
0000
0001
1000
,  // measure 4
0020
0000
0130
0001
1000
0001
0020
0000
0130
0010
0001
0100
0020
0000
1000
0000
,  // measure 5
0230
0000
0000
0000
0301
0000
0001
0000
0010
0000
0100
0000
1000
0000
1000
0000
0001
0100
0001
0000
0100
0000
0010
0000
1000
0000
0100
1000
0200
0000
0000
0000
,  // measure 6
0302
0000
0103
1000
0020
0000
1000
0000
0130
0010
0001
0010
0200
0000
0310
1000
,  // measure 7
0200
0000
0000
0000
0310
0000
0001
0000
0100
0000
0010
0000
1000
0000
1000
0000
0001
0100
0001
0000
1000
0000
0100
0000
0020
0000
0000
0000
0031
0000
0001
0000
,  // measure 8
0020
0000
0130
1000
0001
1000
0020
0000
0130
0010
1000
0100
0020
0000
0001
0000
,  // measure 9
0230
0000
0000
0000
1300
0000
1000
0000
0010
0000
0100
0000
0001
0000
0001
0000
1000
0100
1000
0000
0100
0000
0010
0000
0001
0000
0100
0001
0200
0000
0000
0000
,  // measure 10
2300
0000
3100
0001
0020
0000
0001
0000
0130
0010
1000
0010
0200
0000
0310
0001
,  // measure 11
0200
0000
0000
0000
0310
0000
1000
0000
0100
0000
0010
0000
0001
0000
0001
0000
1000
0100
1000
0000
0001
0000
0100
0000
0020
0000
0000
0000
1030
0000
0001
0000
,  // measure 12
1001
0000
0000
0000
0000
0000
0011
0000
0000
0000
0000
0000
1001
0000
0000
0000
0000
0000
0101
0000
0000
0000
0000
0000
1000
0010
1000
0000
0001
0000
1000
0000
,  // measure 13
1100
0000
0000
0110
0000
0000
0011
0000
2002
0000
0000
0000
0010
0000
3003
0000
,  // measure 14
1000
0000
0000
0000
0010
0000
0000
0000
0001
0000
0000
0000
0010
0000
0000
0000
1000
0000
0100
0000
1000
0000
0000
0000
0001
0100
0001
0000
1000
0000
0100
0000
,  // measure 15
0220
0000
0000
0000
0001
0000
0330
0000
0110
0000
1100
0000
1001
0000
0001
0100
,  // measure 16
0201
0000
0000
0000
0000
0000
0010
0000
0000
0000
0000
0000
1000
0000
0000
0000
0000
0000
0010
0000
0000
0000
0000
0000
0301
0100
0001
0000
1000
0000
0100
0000
,  // measure 17
1200
0000
0000
0010
0000
0000
0010
0000
0301
0100
0010
0100
2000
0000
0000
0000
,  // measure 18
3001
0000
0000
0000
0010
0000
0000
0000
1000
0000
0000
0000
0010
0000
0000
0000
0001
0000
0100
0000
0001
0000
0000
0000
1000
0100
1000
0000
0001
0000
0100
0000
,  // measure 19
0210
0000
0000
0000
0000
0000
0000
0000
0310
1000
0001
1000
0100
0010
0100
0010
,  // measure 20
0012
0000
0000
0000
0000
0000
1003
0010
2000
0000
0000
0000
3002
0000
0000
0000
,  // measure 21
1003
0000
0100
0010
0100
0000
1000
0000
0002
0000
0000
0000
0000
0000
0000
0000
,  // measure 22
0203
0000
0000
1300
0002
0000
0000
0000
,  // measure 23
2003
0000
0000
3100
0002
0000
0000
1003
,  // measure 24
0200
0000
0000
0000
0000
0000
0310
0001
0020
0000
0000
0000
0230
0000
0000
0000
,  // measure 25
1300
0000
0001
0100
0001
0000
1000
0000
0200
0000
0000
0000
0000
0000
0000
0000
,  // measure 26
0302
0000
0000
0103
0020
0000
0000
0130
,  // measure 27
1100
0000
1001
0000
0001
0100
0010
1000
,  // measure 28
2010
0000
0000
0000
0000
0000
3001
0010
0002
0000
0000
0000
2003
0000
0000
0000
,  // measure 29
3001
0000
0100
0010
0100
0000
0001
0000
2000
0000
0000
0000
0000
0000
0000
0000
,  // measure 30
3200
0000
0000
0301
2000
0000
0000
0000
,  // measure 31
3010
0100
0010
0001
2000
0000
0000
3001
,  // measure 32
0200
0000
0000
0000
0000
0000
0310
1000
0020
0000
0000
0000
0230
0000
0000
0000
,  // measure 33
0301
0000
1000
0010
1000
0000
0001
0000
0020
0000
0000
0000
0000
0000
0000
0000
,  // measure 34
0230
0000
0000
1300
0002
0000
0000
0000
,  // measure 35
0013
0100
1000
0001
0100
0010
0100
0010
,  // measure 36
1010
1000
0100
1100
0101
0001
0010
MMMM
,  // measure 37
0010
0000
0001
0000
0001
0000
0001
0000
1000
0000
0010
0000
0010
0000
0010
0000
0100
0000
0001
0000
0001
0000
0001
0000
1000
0100
1000
0000
0001
0000
0000
0000
,  // measure 38
0101
0100
0001
0011
1010
1000
0100
MMMM
,  // measure 39
0100
0000
1000
0000
0100
0000
1000
0000
0000
0001
0000
0000
0100
0000
0000
0010
0000
0000
0010
0000
0000
0010
0000
0000
1010
0000
0000
0000
0000
0000
0101
0000
0000
0000
0000
0000
1001
0000
0000
0000
0000
0000
1000
0000
0000
0001
0000
0000
,  // measure 40
0011
0001
0100
0101
1100
1000
0010
MMMM
,  // measure 41
0010
0000
1000
0000
1000
0000
1000
0000
0001
0000
0010
0000
0010
0000
0010
0000
0100
0000
1000
0000
1000
0000
1000
0000
0001
0100
0001
0000
1000
0000
0000
0000
,  // measure 42
1100
0100
1000
1010
0011
0001
0100
MMMM
,  // measure 43
0100
0000
0001
0000
0100
0000
0001
0000
0000
1000
0000
0000
0100
0000
0000
0010
0000
0000
0010
0000
0000
0010
0000
0000
0001
0000
0000
0100
0000
0000
0010
0000
0000
0100
0000
0000
1000
0000
0000
0100
0000
0000
0010
0000
0000
0100
0000
0000
,  // measure 44
0002
0000
0000
0000
,  // measure 45
0000
0000
0000
0000
,  // measure 46
1003
1000
0100
0100
,  // measure 47
0010
0000
0000
0000
0001
0000
0000
0000
0101
0000
1010
0000
0101
0000
0001
1000
,  // measure 48
0200
0000
0310
0001
1000
0001
0200
0000
0310
1000
0100
0010
0200
0000
1000
0000
,  // measure 49
0320
0000
0000
0000
0031
0000
0001
0000
0100
0000
0010
0000
1000
0000
1000
0000
0001
0010
0001
0000
1000
0000
0001
0000
0100
0000
0010
1000
0020
0000
0000
0000
,  // measure 50
0032
0000
0013
1000
0200
0000
1000
0000
0310
0100
0001
0100
0020
0000
0130
1000
,  // measure 51
0002
0000
0000
0000
1003
0000
0010
0000
0100
0000
0001
0000
0010
0000
0010
0000
0001
1000
0001
0000
0100
0000
0010
0000
2000
0000
0000
0000
3001
0000
0001
0000
,  // measure 52
0200
0000
0310
1000
0001
1000
0200
0000
0310
0001
0100
0010
0200
0000
0001
0000
,  // measure 53
0320
0000
0000
0000
1030
0000
1000
0000
0100
0000
0010
0000
0001
0000
0001
0000
1000
0010
1000
0000
0001
0000
1000
0000
0100
0000
0010
0001
0020
0000
0000
0000
,  // measure 54
2030
0000
3010
0001
0200
0000
0001
0000
0310
0100
1000
0100
0020
0000
0130
0001
,  // measure 55
2000
0000
0000
0000
3001
0000
0010
0000
0100
0000
1000
0000
0001
0000
1000
0000
0010
0100
0010
0000
0100
0000
0010
0000
1001
0000
0000
0000
0000
0000
0000
0000
;

//---------------dance-single - ----------------
#NOTEDATA:;
#CHARTNAME:08-12;
#STEPSTYPE:dance-single;
#DESCRIPTION:;
#CHARTSTYLE:;
#DIFFICULTY:Hard;
#METER:8;
#RADARVALUES:0.543335,0.635133,0.271668,0.534572,0.486373,434.000000,403.000000,31.000000,61.000000,16.000000,0.000000,0.000000,0.000000,0.000000,0.543335,0.635133,0.271668,0.534572,0.486373,434.000000,403.000000,31.000000,61.000000,16.000000,0.000000,0.000000,0.000000,0.000000;
#CREDIT:;
#OFFSET:-0.006233;
#BPMS:0.000000=105.000000
,80.000000=210.000000
,144.000000=105.000000
;
#STOPS:;
#DELAYS:;
#WARPS:;
#TIMESIGNATURES:0.000000=4=4
;
#TICKCOUNTS:0.000000=4
;
#COMBOS:0.000000=1
;
#SPEEDS:0.000000=1.000000=0.000000=0
;
#SCROLLS:0.000000=1.000000
,80.000000=0.500000
,144.000000=1.000000
;
#FAKES:;
#LABELS:0.000000=Song Start
;
#DISPLAYBPM:105.000000;
#NOTES:
// measure 0
0000
0000
0000
0000
,  // measure 1
0000
0000
0000
0000
,  // measure 2
0000
0000
0000
0000
,  // measure 3
0000
0000
0000
0000
0011
0110
1100
0000
,  // measure 4
1000
0000
0001
0100
0001
0100
0010
0000
0100
0001
0100
0001
2000
0000
0000
0000
,  // measure 5
3100
0000
0010
0001
0010
0001
0010
0001
1000
0010
0100
0010
2000
0000
3002
0000
,  // measure 6
0013
0000
0100
0010
0002
0000
0000
0000
1003
0010
1000
0010
0100
0000
0001
1000
,  // measure 7
0100
0000
0010
0100
0010
0100
0010
0001
1000
0010
1000
0010
0200
0000
0000
0000
,  // measure 8
0301
0000
1000
0100
1000
0100
0010
0000
0100
1000
0100
1000
0002
0000
0000
0000
,  // measure 9
0103
0000
0010
1000
0010
1000
0010
1000
0001
0010
0100
0010
0002
0000
2003
0000
,  // measure 10
3010
0000
0100
0010
2000
0000
0000
0000
3001
0010
0001
0010
0100
0000
1000
0001
,  // measure 11
0100
0000
0010
0100
0010
0100
0010
1000
0001
0010
0001
0010
0200
0000
0000
0000
,  // measure 12
1300
0000
0000
0110
0000
0000
1001
0000
0000
0110
0000
0000
0001
0100
0010
0100
,  // measure 13
0001
0000
0000
0110
0000
0000
1010
0000
1002
0000
0000
0000
0023
0000
0000
0000
,  // measure 14
0031
0000
0100
0000
1000
0000
0100
0000
0001
0010
0001
0000
1000
0010
0100
0010
,  // measure 15
2000
0000
3200
0000
0301
0101
1100
0000
,  // measure 16
2001
0000
0000
0100
0000
0000
0001
0000
0000
0010
0000
0000
3001
0100
0010
1000
,  // measure 17
0002
0000
0000
0010
0000
0000
1000
0000
0103
0010
0100
0001
2000
0000
0000
0000
,  // measure 18
3200
0000
0000
0001
0000
0000
0010
0000
0000
1000
0000
0000
0310
0001
0100
0010
,  // measure 19
2000
0000
0000
0000
0000
0000
0000
0000
3010
1000
0100
0010
0002
0000
0003
0000
,  // measure 20
2000
0000
0000
3010
0200
0000
0302
0000
,  // measure 21
1003
0100
0010
0001
2000
0000
0000
0000
,  // measure 22
3002
0000
0000
0103
0020
0000
0000
0000
,  // measure 23
0032
0000
0000
0013
0200
0000
0000
0310
,  // measure 24
2000
0000
0000
3001
0020
0000
0230
0000
,  // measure 25
1300
0010
0100
0001
2000
0000
0000
0000
,  // measure 26
3200
0000
0000
0301
0200
0000
0000
0310
,  // measure 27
0100
0000
1000
0000
0001
0100
0010
1000
,  // measure 28
0002
0000
0000
0013
0200
0000
2300
0000
,  // measure 29
3001
0100
0010
1000
0002
0000
0000
0000
,  // measure 30
2003
0000
0000
3100
0020
0000
0000
0000
,  // measure 31
0031
0100
0010
1000
0200
0000
0000
0310
,  // measure 32
0002
0000
0000
1003
0020
0000
0230
0000
,  // measure 33
0301
0010
0100
1000
0002
0000
0000
0000
,  // measure 34
0203
0000
0000
0310
2000
0000
0000
0000
,  // measure 35
3100
0010
0100
1000
0001
0000
0000
0000
,  // measure 36
0101
0010
1000
1100
1100
0010
0001
MMMM
,  // measure 37
0001
1000
0010
1000
0000
0001
0010
0001
0000
1000
0010
1000
0200
0000
0310
0000
,  // measure 38
0011
0100
1000
1010
1010
0100
0001
MMMM
,  // measure 39
0002
0000
0013
0000
0001
0100
0010
0100
1000
0000
0110
0000
1001
0000
0000
0000
,  // measure 40
1100
0010
0001
0101
0101
0010
1000
MMMM
,  // measure 41
1000
0001
0010
0001
0000
1000
0010
1000
0000
0001
0010
0001
0200
0000
0310
0000
,  // measure 42
1010
0100
0001
0011
0011
0100
1000
MMMM
,  // measure 43
2000
0000
3010
0000
1000
0100
0010
0100
1000
0001
1000
0001
0100
0010
0100
0010
,  // measure 44
2000
0000
0000
0000
,  // measure 45
0000
0000
0000
0000
,  // measure 46
3001
0001
0010
0010
,  // measure 47
0100
0000
1000
0000
1010
0110
0101
0000
,  // measure 48
1000
0000
0100
0010
0100
0010
0001
0000
0100
0010
0100
0010
2000
0000
0000
0000
,  // measure 49
3001
0000
1000
0100
1000
0100
1000
0100
0010
0001
0100
0010
2000
0000
3002
0000
,  // measure 50
0013
0000
0100
1000
0020
0000
0000
0000
0130
0001
0100
0001
0010
0000
0100
1000
,  // measure 51
0001
0000
1000
0010
1000
0010
1000
0010
0100
0001
1000
0100
0020
0000
0000
0000
,  // measure 52
0031
0000
0100
0010
0100
0010
1000
0000
0100
0010
0100
0010
0002
0000
0000
0000
,  // measure 53
1003
0000
0001
0100
0001
0100
0001
0100
0010
1000
0100
0010
0002
0000
2003
0000
,  // measure 54
3010
0000
0100
0001
0020
0000
0000
0000
0130
1000
0100
1000
0010
0000
0100
0001
,  // measure 55
1000
0000
0100
0010
0100
0010
0100
0010
0100
0000
0110
0000
1001
0000
0000
0000
;

//---------------dance-single - ----------------
#NOTEDATA:;
#CHARTNAME:06-08;
#STEPSTYPE:dance-single;
#DESCRIPTION:;
#CHARTSTYLE:;
#DIFFICULTY:Medium;
#METER:6;
#RADARVALUES:0.395608,0.397533,0.341775,0.376829,0.109543,316.000000,277.000000,39.000000,43.000000,0.000000,0.000000,0.000000,0.000000,0.000000,0.395608,0.397533,0.341775,0.376829,0.109543,316.000000,277.000000,39.000000,43.000000,0.000000,0.000000,0.000000,0.000000,0.000000;
#CREDIT:;
#OFFSET:-0.006233;
#BPMS:0.000000=105.000000
;
#STOPS:;
#DELAYS:;
#WARPS:;
#TIMESIGNATURES:0.000000=4=4
;
#TICKCOUNTS:0.000000=4
;
#COMBOS:0.000000=1
;
#SPEEDS:0.000000=1.000000=0.000000=0
;
#SCROLLS:0.000000=1.000000
;
#FAKES:;
#LABELS:0.000000=Song Start
;
#DISPLAYBPM:105.000000;
#NOTES:
// measure 0
0000
0000
0000
0000
,  // measure 1
0000
0000
0000
0000
,  // measure 2
0000
0000
0000
0000
,  // measure 3
0000
0000
0000
0000
1001
1001
1001
0000
,  // measure 4
0001
0010
0100
0010
0001
0100
0020
0000
,  // measure 5
1030
0100
0001
0100
1000
0010
2000
0000
,  // measure 6
3001
0010
2000
0000
3010
0001
1000
0000
,  // measure 7
0001
0100
1000
0100
0101
1001
1100
0000
,  // measure 8
1000
0010
0100
0010
1000
0100
0020
0000
,  // measure 9
0031
0100
1000
0100
0001
0010
0002
0000
,  // measure 10
1003
0010
0002
0000
0013
1000
0001
0000
,  // measure 11
1000
0100
0001
0100
1100
1001
0101
0000
,  // measure 12
1000
0000
0000
0100
0000
0000
0001
0000
0000
0100
0000
0000
1000
0000
0010
0000
,  // measure 13
1000
0000
0000
0100
0000
0000
0010
0000
0011
0000
0000
0000
1001
0000
0000
0000
,  // measure 14
1000
0010
0100
0001
1000
0100
0010
0000
,  // measure 15
0120
0000
0001
0000
0130
1100
1001
0000
,  // measure 16
0002
0000
0000
0100
0000
0000
0100
0000
0000
0100
0000
0000
1003
0000
0010
0000
,  // measure 17
2000
0000
0000
0100
0000
0000
0100
0000
3001
0000
0010
0000
0002
0000
0000
0000
,  // measure 18
0203
0000
0000
0010
0000
0000
0010
0000
0000
0010
0000
0000
0301
0000
1000
0000
,  // measure 19
0200
0000
0000
0000
1300
0001
1001
0000
,  // measure 20
2000
0000
0000
3001
0010
0000
0001
0000
1000
0000
0001
0000
0200
0000
0000
0000
,  // measure 21
0320
0000
0000
1030
0002
0000
0000
0000
0023
0000
0000
0130
2000
0000
0000
3001
,  // measure 22
0200
0000
0000
0310
1000
0000
0100
0000
0010
0000
0001
0000
0200
0000
0000
0000
,  // measure 23
0302
0000
0000
1003
0020
0000
0000
1030
0100
0000
1100
0000
0011
0000
0000
0000
,  // measure 24
0002
0000
0000
0103
0010
0000
1000
0000
0100
0000
0010
0000
0002
0000
0000
0000
,  // measure 25
0203
0000
0000
0310
2000
0000
0000
0000
3200
0000
0000
0310
0002
0000
0000
1003
,  // measure 26
0020
0000
0000
0130
0001
0000
0010
0000
0100
0000
1000
0000
0020
0000
0000
0000
,  // measure 27
0230
0000
0000
0301
2000
0000
0000
0000
3100
0000
0010
0000
0001
0100
0001
0100
,  // measure 28
0010
1010
0000
0101
0000
1010
0000
0002
,  // measure 29
1003
0000
1000
0000
0100
0000
0100
0000
0010
0000
0010
0000
0001
1000
0001
0000
,  // measure 30
0100
1010
0000
1001
0000
0011
0000
0002
,  // measure 31
0103
0100
1000
1000
0100
0001
1001
0000
,  // measure 32
0001
0011
0000
1100
0000
0011
0000
2000
,  // measure 33
3001
0000
0001
0000
0100
0000
0100
0000
0010
0000
0010
0000
1000
0001
1000
0000
,  // measure 34
0100
0011
0000
1001
0000
1010
0000
2000
,  // measure 35
3100
0100
0001
0001
0100
1000
0010
0100
,  // measure 36
0002
0000
0000
0000
,  // measure 37
0000
0000
0000
0000
,  // measure 38
1003
1000
0010
0010
,  // measure 39
0100
0000
0001
0000
1001
1001
1001
0000
,  // measure 40
1000
0100
0010
0100
1000
0010
0200
0000
,  // measure 41
0301
0010
0100
0001
0100
0010
0002
0000
,  // measure 42
1003
0010
0002
0000
0013
1000
0100
0000
,  // measure 43
0001
0100
1000
0010
1010
0110
0101
0000
,  // measure 44
0001
0100
0010
0100
0001
0010
0200
0000
,  // measure 45
1300
0010
0100
1000
0100
0010
2000
0000
,  // measure 46
3001
0010
2000
0000
3010
0001
0100
0000
,  // measure 47
1000
0100
0001
0010
0011
0110
1100
0000
;

//---------------dance-single - ----------------
#NOTEDATA:;
#CHARTNAME:04-05;
#STEPSTYPE:dance-single;
#DESCRIPTION:;
#CHARTSTYLE:;
#DIFFICULTY:Easy;
#METER:4;
#RADARVALUES:0.261652,0.271996,0.035054,0.306722,0.000000,209.000000,205.000000,4.000000,35.000000,0.000000,0.000000,0.000000,0.000000,0.000000,0.261652,0.271996,0.035054,0.306722,0.000000,209.000000,205.000000,4.000000,35.000000,0.000000,0.000000,0.000000,0.000000,0.000000;
#CREDIT:;
#OFFSET:-0.006233;
#BPMS:0.000000=105.000000
;
#STOPS:;
#DELAYS:;
#WARPS:;
#TIMESIGNATURES:0.000000=4=4
;
#TICKCOUNTS:0.000000=4
;
#COMBOS:0.000000=1
;
#SPEEDS:0.000000=1.000000=0.000000=0
;
#SCROLLS:0.000000=1.000000
;
#FAKES:;
#LABELS:0.000000=Song Start
;
#DISPLAYBPM:105.000000;
#NOTES:
// measure 0
0000
0000
0000
0000
,  // measure 1
0000
0000
0000
0000
,  // measure 2
0000
0000
0000
0000
,  // measure 3
0000
0000
0000
0000
1000
1000
1000
0000
,  // measure 4
0001
0000
0010
0000
0001
0100
0001
0000
,  // measure 5
1000
0000
0100
0000
1000
0010
1000
0000
,  // measure 6
0001
0010
0001
0000
1000
0100
1000
0000
,  // measure 7
0001
0000
0100
0000
0001
1000
0001
0000
,  // measure 8
1000
0000
0010
0000
1000
0100
1000
0000
,  // measure 9
0001
0000
0100
0000
0001
0010
0001
0000
,  // measure 10
1000
0010
1000
0000
0001
0100
0001
0000
,  // measure 11
1000
0000
0100
0000
1000
0001
1000
0000
,  // measure 12
0001
0000
0001
0000
0001
0000
0100
0010
,  // measure 13
1000
1000
1100
0011
,  // measure 14
1000
0000
1000
0000
1000
0000
0010
0100
,  // measure 15
0002
0000
0103
0000
0010
0010
0010
0000
,  // measure 16
2000
0000
0100
0000
0100
0000
3100
1000
,  // measure 17
0002
0000
0100
0000
0103
0010
2000
0000
,  // measure 18
3200
0010
0010
2300
,  // measure 19
3002
0000
0000
0000
1003
0010
0200
0300
,  // measure 20
0002
0000
0023
0000
0031
0010
0002
0000
,  // measure 21
0203
2300
3200
0302
,  // measure 22
0023
0000
0230
0000
0310
0100
0020
0000
,  // measure 23
0230
0000
2300
0000
3010
0100
0001
0000
,  // measure 24
2000
0000
3020
0000
1030
0010
2000
0000
,  // measure 25
3200
0302
0203
2300
,  // measure 26
3020
0000
0230
0000
0310
0100
0020
0000
,  // measure 27
2030
0000
0000
0000
3001
0001
0001
0000
,  // measure 28
1000
0100
0001
0100
,  // measure 29
1000
0000
1000
0000
1000
0000
0100
1000
,  // measure 30
0010
0001
0010
1000
,  // measure 31
0100
0000
0100
0000
0010
0010
0010
0000
,  // measure 32
0001
0100
1000
0100
,  // measure 33
0001
0000
0001
0000
0001
0000
0100
0001
,  // measure 34
0010
1000
0010
0001
,  // measure 35
0100
0000
0100
0000
0001
1000
0001
0000
,  // measure 36
2002
0000
0000
0000
,  // measure 37
0000
0000
0000
3003
,  // measure 38
2000
3000
0002
0003
,  // measure 39
1000
0000
0100
0000
0010
0010
0010
0000
,  // measure 40
0001
0000
0100
0000
0010
1000
0010
0000
,  // measure 41
1000
0000
0100
0000
0010
0001
0010
0000
,  // measure 42
0001
0100
0001
0000
1000
0100
1000
0000
,  // measure 43
0010
0000
0100
0000
0001
1000
0001
0000
,  // measure 44
1000
0000
0100
0000
0010
0001
0010
0000
,  // measure 45
0001
0000
0100
0000
0010
1000
0010
0000
,  // measure 46
1000
0100
1000
0000
0001
0100
0001
0000
,  // measure 47
0010
0000
0100
0000
1000
0001
1001
0000
;

//---------------dance-single - ----------------
#NOTEDATA:;
#CHARTNAME:01-02;
#STEPSTYPE:dance-single;
#DESCRIPTION:;
#CHARTSTYLE:;
#DIFFICULTY:Beginner;
#METER:1;
#RADARVALUES:0.136460,0.167382,0.052581,0.061344,0.000000,109.000000,103.000000,6.000000,7.000000,0.000000,0.000000,0.000000,0.000000,0.000000,0.136460,0.167382,0.052581,0.061344,0.000000,109.000000,103.000000,6.000000,7.000000,0.000000,0.000000,0.000000,0.000000,0.000000;
#CREDIT:;
#OFFSET:-0.006233;
#BPMS:0.000000=105.000000
;
#STOPS:;
#DELAYS:;
#WARPS:;
#TIMESIGNATURES:0.000000=4=4
;
#TICKCOUNTS:0.000000=4
;
#COMBOS:0.000000=1
;
#SPEEDS:0.000000=1.000000=0.000000=0
;
#SCROLLS:0.000000=1.000000
;
#FAKES:;
#LABELS:0.000000=Song Start
;
#DISPLAYBPM:105.000000;
#NOTES:
// measure 0
0000
0000
0000
0000
,  // measure 1
0000
0000
0000
0000
,  // measure 2
0000
0000
0000
0000
,  // measure 3
0000
0000
2002
3003
,  // measure 4
0001
0001
0001
0000
,  // measure 5
0010
0010
0010
0000
,  // measure 6
1000
0000
0010
0000
,  // measure 7
0001
0001
0001
0000
,  // measure 8
1000
1000
1000
0000
,  // measure 9
0010
0010
0010
0000
,  // measure 10
0001
0000
0010
0000
,  // measure 11
1000
1000
1000
0000
,  // measure 12
0001
0000
0001
0000
,  // measure 13
0100
0000
1001
0000
,  // measure 14
1000
0000
1000
0000
,  // measure 15
0010
0000
1000
1000
,  // measure 16
1000
0000
1000
0000
,  // measure 17
0100
0000
1001
0000
,  // measure 18
0001
0000
0001
0000
,  // measure 19
0020
0000
0030
0000
,  // measure 20
0001
0001
0001
0000
,  // measure 21
0100
0100
0100
0000
,  // measure 22
1000
1000
1000
0000
,  // measure 23
0010
0010
0010
0000
,  // measure 24
1000
1000
1000
0000
,  // measure 25
0100
0100
0100
0000
,  // measure 26
0001
0001
0001
0000
,  // measure 27
0020
0000
0030
0000
,  // measure 28
0100
0000
0100
0000
,  // measure 29
1000
0000
0001
0000
,  // measure 30
0100
0000
0100
0000
,  // measure 31
0001
0000
0010
0010
,  // measure 32
0010
0000
0010
0000
,  // measure 33
0001
0000
1000
0000
,  // measure 34
0010
0000
0010
0000
,  // measure 35
1000
0000
0100
0100
,  // measure 36
0200
0000
0000
0000
,  // measure 37
0000
0000
0000
0000
,  // measure 38
0300
0000
0000
0000
,  // measure 39
0000
0000
2002
3003
,  // measure 40
0001
0001
0001
0000
,  // measure 41
0100
0100
0100
0000
,  // measure 42
1000
0000
0100
0000
,  // measure 43
0001
0001
0001
0000
,  // measure 44
1000
1000
1000
0000
,  // measure 45
0100
0100
0100
0000
,  // measure 46
0001
0000
0100
0000
,  // measure 47
1000
0000
1001
1001
;
