#VERSION:0.83;
#TITLE:Jazzclub;
#SUBTITLE:;
#ARTIST:BoA;
#TITLETRANSLIT:;
#SUBTITLETRANSLIT:;
#ARTISTTRANSLIT:;
#GENRE:J-POP;
#ORIGIN:;
#CREDIT:;
#BANNER:[Wind Jammers] - Jazzclub.png;
#BACKGROUND:[Wind Jammers] - Jazzclub-bg.png;
#PREVIEWVID:;
#JACKET:[Wind Jammers] - Jazzclub-jacket.png;
#CDIMAGE:;
#DISCIMAGE:;
#LYRICSPATH:;
#CDTITLE:CDTitle.png;
#MUSIC:[Wind Jammers] - Jazzclub.ogg;
#OFFSET:-6.000000;
#SAMPLESTART:33.482414;
#SAMPLELENGTH:17.250000;
#SELECTABLE:YES;
#BPMS:0.000=120.000;
#STOPS:139.750=1.000;
#DELAYS:;
#WARPS:;
#TIMESIGNATURES:0.000=4=4;
#TICKCOUNTS:0.000=4;
#COMBOS:0.000=1;
#SPEEDS:0.000=1.000=0.000=0;
#SCROLLS:0.000=1.000;
#FAKES:;
#LABELS:0.000=Song Start;
#BGCHANGES:4.000=[Wind Jammers] - Jazzclub.avi=1.000=0=0=1=====,
99999=-nosongbg-=1.000=0=0=0 // don't automatically add -songbackground-
;
#KEYSOUNDS:;
#ATTACKS:
;

//---------------dance-single - ----------------
#NOTEDATA:;
#CHARTNAME:;
#STEPSTYPE:dance-single;
#DESCRIPTION:;
#CHARTSTYLE:;
#DIFFICULTY:Hard;
#METER:9;
#RADARVALUES:0.576065,0.759300,0.016326,0.481609,0.355085,494.000000,492.000000,2.000000,59.000000,0.000000,0.000000,0.000000,0.000000,0.000000,0.576065,0.759300,0.016326,0.481609,0.355085,494.000000,492.000000,2.000000,59.000000,0.000000,0.000000,0.000000,0.000000,0.000000;
#CREDIT:DDRDAIKENKAI;
#NOTES:
0000
0000
0000
0000
,
1000
0000
0001
0000
1000
0000
0001
0000
0010
0000
0001
1000
0010
0000
0200
0000
,
0301
0000
1000
0000
0001
0000
1000
0000
1000
0000
0001
1000
0010
0000
0200
0000
,
0310
0000
1000
0000
0010
0000
1000
0000
0001
0000
1000
0001
0010
0000
0200
0000
,
1300
0000
0001
0000
0001
0000
0200
0000
0310
0000
1000
0001
0010
0000
0200
0000
,
1300
0100
0001
0100
1000
0100
0001
0100
,
1000
0100
0010
0001
0100
0010
1000
1000
,
0001
0100
1000
0100
0001
0100
1000
0100
,
0001
0010
0100
1000
0010
0100
0001
0001
,
2000
0000
0000
0100
0000
0000
3100
0000
0020
0000
0000
0001
0000
0000
0031
0000
,
0200
0000
0000
0010
0000
0000
0310
0000
2000
0000
0000
0000
3001
0000
0001
0000
,
0020
0000
0000
0130
0000
0000
1000
0000
0002
0000
0000
0103
0000
0000
0010
0000
,
2000
3200
0320
0032
,
1003
0000
0001
0000
0100
0000
0010
0000
1000
0001
1000
0000
0001
0000
1000
0000
,
0001
0010
0100
0010
1000
0010
0100
0010
,
0001
0100
0010
0100
1000
0100
0010
0100
,
0002
1000
1003
0100
2000
0001
3001
1000
,
0001
0000
0010
0000
1000
0000
0100
0000
0001
1000
0001
0000
1000
0000
0001
0000
,
1000
0010
0100
0010
0001
0010
0100
0010
,
1000
0100
0010
0100
0001
0100
0010
0100
,
1000
0010
0001
0100
2000
0000
3001
0000
,
0001
0010
1000
0100
0002
0000
1003
0000
,
1001
0000
1000
0000
0010
0000
0100
0000
0001
0000
1000
0010
1000
0000
0200
0000
,
0310
0000
0001
0000
1000
0000
0010
0000
0010
0000
1000
0001
1000
0000
0200
0000
,
1300
0000
0001
0000
0010
0000
0001
0000
1000
0000
0010
0100
0010
0000
0200
0000
,
0301
0000
1000
0000
1000
0000
0200
0000
0310
0000
0001
1000
0001
0000
0200
0000
,
0301
0010
0001
0010
0001
0100
0001
0000
1000
0010
1000
0010
1000
0100
1000
0100
,
0010
0000
0000
0000
0000
0000
0010
0000
0000
0000
0100
0000
0000
0000
0000
0000
0100
0000
0000
0000
1000
0000
0000
0000
0000
0000
0000
0000
0000
0000
0000
0000
0000
0000
0000
0000
0000
0000
0000
0001
0000
0000
0010
0000
0000
0100
0000
0000
,
0010
0001
0010
0001
1000
0001
1000
0000
0010
1000
0010
1000
0001
1000
0001
1000
,
0010
0000
0000
0000
0000
0000
0010
0000
0000
0000
0100
0000
0000
0000
0000
0000
0100
0000
0000
0000
0002
0000
0000
0000
2000
0000
0000
0000
0000
0000
3000
0000
0000
0000
0000
0000
1003
0000
0000
0100
0000
0000
1000
0000
0000
0100
0000
0000
,
0010
0001
0010
0001
0100
0001
0100
0000
0001
1000
0001
1000
0100
1000
0100
1000
,
0001
0000
0001
0100
0000
0100
0020
0000
1000
0000
0000
0000
1030
0100
1000
0100
,
1000
0010
1000
0010
0100
0001
0100
0000
0001
0010
0001
0010
0100
1000
0100
0000
,
1000
0010
0100
0010
1000
0010
0100
0010
1000
0010
0100
0010
1000
0010
0100
0010
,
1000
0001
1000
0001
1000
0001
1000
0001
1000
0001
1000
0001
1000
0001
1000
0001
,
2000
0000
3010
0100
0010
0000
0200
0000
0310
0000
1000
0000
0001
0000
1000
0000
,
0010
0000
0100
0001
1000
0000
0200
0000
0310
0000
0001
0000
1000
0000
0001
0000
,
0001
0000
0010
0001
1000
0000
0200
0000
1300
0000
0010
0000
0100
0000
0010
0000
,
1000
0000
0001
0100
0010
0000
0200
0000
0301
0000
1000
0000
1000
0000
0200
0000
,
0310
0000
0001
1000
0001
0000
0200
0000
0320
0000
1000
0000
2030
0000
0100
0000
,
3200
0010
0320
0001
0032
1000
2003
0010
,
3010
0100
0001
1000
0020
1000
1030
0001
,
0200
0001
0301
1000
0001
0010
1000
0100
,
0001
1000
0001
0000
1000
0000
1000
0000
0002
0000
0010
0000
0023
0000
0100
0000
,
0230
1000
1300
0010
0200
0001
0302
1000
,
1003
0100
0010
0100
1000
0010
0001
0100
,
2000
0001
3001
1000
0001
0010
1000
0100
,
0002
0000
1000
0000
1003
0000
0000
0000
1002
0000
1000
0000
1003
0000
0001
0200
,
0000
0000
0010
0000
0310
0000
1000
0000
0001
0000
0001
0000
0001
0000
1000
0020
,
0000
0000
0100
0000
0130
0000
0001
0000
0010
0000
0010
0000
0010
0000
0001
2000
,
0000
0000
0001
0000
3001
0000
0010
0000
0100
0000
0100
0000
0100
0000
0010
0002
,
0000
0000
1000
0000
1003
0000
0010
0000
0001
0000
0010
0000
1000
0000
0100
0020
,
0000
0000
0130
0000
1000
0000
0001
0000
1000
0000
0100
0000
0001
0000
0100
2000
,
0000
0000
3010
0000
0100
0000
0010
0000
1000
0000
0100
0000
0010
0000
0010
0002
,
0000
0000
0103
0000
0010
0000
1000
0000
0001
0000
0010
0000
0100
0000
0100
2000
,
0000
0000
3010
0000
0100
0000
0001
0000
0010
0000
0010
0000
0010
0000
0001
2000
,
0000
3010
0100
1000
0000
0000
0000
0000
;

//---------------dance-single - ----------------
#NOTEDATA:;
#CHARTNAME:;
#STEPSTYPE:dance-single;
#DESCRIPTION:;
#CHARTSTYLE:;
#DIFFICULTY:Medium;
#METER:6;
#RADARVALUES:0.360332,0.384216,0.081629,0.546912,0.032651,309.000000,299.000000,10.000000,67.000000,0.000000,0.000000,0.000000,0.000000,0.000000,0.360332,0.384216,0.081629,0.546912,0.032651,309.000000,299.000000,10.000000,67.000000,0.000000,0.000000,0.000000,0.000000,0.000000;
#CREDIT:DDRDAIKENKAI;
#NOTES:
// measure 0
0000
0000
0000
0000
,  // measure 1
2000
0000
3002
0000
0013
0001
0100
0000
,  // measure 2
0002
0000
2003
0010
3010
1000
0100
0000
,  // measure 3
2000
0000
3002
0000
0013
0001
0100
0000
,  // measure 4
0010
1000
1000
0000
0100
0010
0001
0000
,  // measure 5
2000
0000
3002
0000
1003
0001
0100
0000
,  // measure 6
0001
1000
0100
0010
0002
0000
1003
0000
,  // measure 7
0020
0000
0230
0000
0310
1000
0100
0000
,  // measure 8
0010
0001
0100
0010
2000
0000
3001
0000
,  // measure 9
0020
0001
0032
1000
,  // measure 10
2003
0010
3020
0130
,  // measure 11
0002
0010
0023
0230
,  // measure 12
2300
0010
0100
3001
,  // measure 13
1000
0001
1000
0001
0200
0000
0310
1000
,  // measure 14
0020
0032
0203
2300
,  // measure 15
3020
0000
0032
0000
0103
0100
1000
1000
,  // measure 16
0020
1000
2030
3001
,  // measure 17
0001
0010
0001
0010
0001
0000
1000
0010
,  // measure 18
2000
0000
3200
0000
0302
0000
0013
0010
,  // measure 19
2000
0000
3200
0000
0301
0001
0010
0010
,  // measure 20
1000
0100
1000
0100
2000
0000
3001
0000
,  // measure 21
0010
0001
0010
0001
0020
0000
0031
0000
,  // measure 22
0200
0000
0010
0000
0310
1000
0001
0000
,  // measure 23
0200
0000
0301
1000
0001
1000
0100
0000
,  // measure 24
0020
0000
0001
0000
0031
1000
0100
0000
,  // measure 25
1000
0010
0010
0000
0100
0001
1000
0000
,  // measure 26
0010
1000
0100
0000
0010
0001
0100
0000
,  // measure 27
0010
1000
2002
3003
,  // measure 28
0001
0010
0100
0000
1000
0010
0100
0000
,  // measure 29
0001
1000
1100
0101
,  // measure 30
0001
0010
0100
0000
1000
0001
0100
0000
,  // measure 31
0010
1000
2002
3003
,  // measure 32
0001
0010
0100
0000
1000
0010
0100
0000
,  // measure 33
0001
0010
0001
0010
0001
0010
0001
0010
,  // measure 34
0001
0001
0001
0001
0001
0001
0001
0002
,  // measure 35
0003
0000
0101
1010
,  // measure 36
0001
1000
0100
0000
1100
0000
0011
0001
,  // measure 37
1000
0001
0100
0000
0110
0000
1001
0000
,  // measure 38
0010
1000
0100
0000
0010
0001
0001
0000
,  // measure 39
0100
0010
1000
1000
0020
0000
0032
0000
,  // measure 40
0203
2300
3020
0032
,  // measure 41
0103
0100
1000
1000
0020
0000
1000
0000
,  // measure 42
2030
0000
3100
0000
0010
0001
0100
0010
,  // measure 43
1000
0000
0001
0001
0020
0000
2030
0000
,  // measure 44
3200
0000
0301
0001
0020
0000
2030
0000
,  // measure 45
3100
0100
0001
0001
0010
0001
0010
0001
,  // measure 46
0020
0000
0031
0000
1000
0010
1000
0010
,  // measure 47
2000
0000
0000
0000
0000
0000
0000
0000
3010
0000
0100
0000
0010
0000
0000
2000
,  // measure 48
0000
0000
3100
0000
0010
0000
0000
0000
0001
0000
0100
0000
0001
0000
0000
2000
,  // measure 49
0000
0000
3001
0000
0100
0000
0000
0000
0010
0000
0100
0000
0010
0000
0000
0200
,  // measure 50
0000
0000
0301
0000
1000
0000
0000
0000
0100
0000
0010
0000
0100
0000
0000
2000
,  // measure 51
0000
0000
3001
0000
0010
0000
0000
0000
0001
0000
0001
0000
0001
0000
0000
2000
,  // measure 52
0000
0000
3010
0000
0100
0000
0000
0000
0001
0000
0001
0000
0001
0000
0000
2000
,  // measure 53
0000
0000
3010
0000
0100
0000
0000
0000
0010
0000
0010
0000
0010
0000
0000
2000
,  // measure 54
0000
0000
3001
0000
0100
0000
0001
0000
0010
0000
0010
0000
0010
0000
0000
0002
,  // measure 55
0000
1003
0100
0001
0000
0000
0000
0000
;

//---------------dance-single - ----------------
#NOTEDATA:;
#CHARTNAME:;
#STEPSTYPE:dance-single;
#DESCRIPTION:;
#CHARTSTYLE:;
#DIFFICULTY:Easy;
#METER:3;
#RADARVALUES:0.198241,0.225499,0.065303,0.750984,0.000000,170.000000,162.000000,8.000000,92.000000,0.000000,0.000000,0.000000,0.000000,0.000000,0.198241,0.225499,0.065303,0.750984,0.000000,170.000000,162.000000,8.000000,92.000000,0.000000,0.000000,0.000000,0.000000,0.000000;
#CREDIT:DDRDAIKENKAI;
#NOTES:
0000
0000
0000
0000
,
1002
0000
1003
1000
,
0200
0000
0310
0010
,
0002
0000
0013
0010
,
0200
1300
0002
1003
,
0010
0010
0100
0100
,
0010
0100
0220
0330
,
0001
0001
1000
1000
,
0001
1000
2002
3003
,
2000
0000
3200
0000
,
0320
0000
0230
0000
,
2300
0000
3020
0230
,
0302
0000
0000
0003
,
2002
0000
3003
0000
,
0002
0023
0230
2300
,
3002
0023
0230
2300
,
3002
0000
0203
0000
,
0310
1000
0200
0310
,
0020
0032
2003
3200
,
0320
0032
2003
3200
,
0320
0000
0031
0000
,
0200
0000
0320
0000
,
2030
0000
3100
0100
,
0020
0000
0031
0001
,
0200
0000
0310
0010
,
1000
1000
0001
0001
,
2000
3000
0002
0003
,
0100
0010
0220
0330
,
0020
0030
2000
3000
,
0001
1000
2002
3003
,
0002
0003
0020
0030
,
0100
0010
0220
0330
,
0200
0300
2000
3000
,
0001
1000
0001
1000
,
0010
0010
0010
0010
,
0000
0000
0220
0330
,
0010
1000
0200
0300
,
0010
0001
0200
0300
,
0002
0003
2000
3000
,
0010
0010
2000
3200
,
0320
0032
2003
3200
,
0320
0032
2003
0000
,
3100
0000
2000
0000
,
3002
0103
0200
0320
,
2030
3002
0203
0320
,
2030
3002
0023
0000
,
0031
0000
0200
0000
,
0320
0000
2030
0000
,
0001
3001
0200
0000
,
0310
0010
2000
0000
,
3100
0100
0010
0010
,
0001
0001
0020
0000
,
0031
0001
0200
0000
,
0310
0010
2000
0000
,
3001
0001
0100
0100
,
0010
0010
0000
0000
;
