#TITLE:ハイパーゴアムササビスティックディサピアリジーニャス;
#SUBTITLE:;
#ARTIST:nyanyannya feat. KAITO;
#TITLETRANSLIT:Hyper Gore Flying Squirrel Stick Disappear-y Genius;
#SUBTITLETRANSLIT:;
#ARTISTTRANSLIT:;
#GENRE:;
#CREDIT:;
#BANNER:[Wind Jammers] - Hyper Gore Flying Squirrel Stick Disappear-y Genius.png;
#BACKGROUND:[Wind Jammers] - Hyper Gore Flying Squirrel Stick Disappear-y Genius-bg.png;
#LYRICSPATH:;
#CDTITLE:;
#MUSIC:[Wind Jammers] - Hyper Gore Flying Squirrel Stick Disappear-y Genius.ogg;
#OFFSET:-1.516000;
#SAMPLESTART:59.571285;
#SAMPLELENGTH:15.141956;
#SELECTABLE:YES;
#BPMS:0.000000=158.500000
,270.000000=211.332993
,279.000000=158.500000
;
#STOPS:
;
#BGCHANGES:;
#KEYSOUNDS:;
#ATTACKS:;

//---------------dance-single - ----------------
#NOTES:
     dance-single:
     :
     Hard:
     9:
     0.615876,0.732769,0.330005,0.231706,0.372134,614.000000,567.000000,47.000000,33.000000,0.000000,0.000000,0.615876,0.732769,0.330005,0.231706,0.372134,614.000000,567.000000,47.000000,33.000000,0.000000,0.000000:
// measure 0
0000
0000
0000
0000
,  // measure 1
0000
0000
0000
0000
,  // measure 2
0000
0000
0000
0000
,  // measure 3
0002
0203
0320
2030
,  // measure 4
3001
0000
0010
0000
0100
0000
0010
0000
0001
0010
0000
0011
0000
1001
0000
0000
,  // measure 5
0001
0000
1000
0000
0001
0000
0100
0000
0010
0100
0000
0110
0000
1010
0000
1001
,  // measure 6
0000
0000
1000
0000
0100
0000
0010
0000
0001
0010
0000
0001
0000
1000
0000
0001
,  // measure 7
0100
0010
1000
0001
0011
0000
1010
0000
,  // measure 8
1000
0000
0010
0000
0100
0000
0010
0000
1000
0010
0000
1010
0000
1001
0000
0000
,  // measure 9
1000
0000
0001
0000
1000
0100
0000
1100
0000
0000
0100
0010
0000
0110
0000
0011
,  // measure 10
0000
0000
0001
0000
0100
0000
0010
0000
1000
0001
0000
0010
0000
0100
0000
0000
,  // measure 11
1000
0100
0010
0001
0011
1001
1010
0000
,  // measure 12
0001
0100
0010
1000
,  // measure 13
0001
0100
0001
1000
0001
0010
0100
0100
,  // measure 14
1000
0100
0010
0001
,  // measure 15
1000
0100
1000
0001
1000
0010
0100
0100
,  // measure 16
0001
0100
1000
0100
0001
0100
0020
0000
,  // measure 17
1030
0010
0100
0001
,  // measure 18
1000
0100
0010
0000
0001
0100
0010
0000
,  // measure 19
0110
1001
0110
1001
,  // measure 20
1000
0000
0000
0010
0000
0000
0100
0000
0001
0000
0100
0000
0010
0000
1000
0000
,  // measure 21
0001
0000
0000
0010
0000
0000
0100
0000
1000
0000
0100
0000
0001
0000
0100
0000
,  // measure 22
0010
0000
0000
0001
0000
0000
0010
0000
0100
0000
1000
0000
0010
0000
0100
0000
,  // measure 23
0001
0000
0000
0100
0000
0000
0010
0000
1000
0000
0001
0000
1000
0000
0000
0000
,  // measure 24
0001
0010
0100
0010
1000
0010
0001
1000
,  // measure 25
0020
0000
1030
0001
0020
0000
0031
1000
,  // measure 26
0001
0100
0010
0100
1000
0100
0001
1000
,  // measure 27
0020
0000
1030
0001
0020
0000
0031
1000
,  // measure 28
0001
0010
1000
0010
0001
0100
1000
0100
,  // measure 29
0020
0000
1030
0100
0020
0000
0031
1000
,  // measure 30
2002
3003
0002
0000
,  // measure 31
0203
0000
0320
0000
1030
0001
0020
0000
,  // measure 32
0130
0000
1000
0000
0001
0100
0000
0010
0000
0100
0000
0010
1000
0000
0001
0000
,  // measure 33
0010
0000
0100
0000
1000
0001
0000
1000
0000
0010
0000
0100
0001
0000
1000
0000
,  // measure 34
0010
0000
1000
0000
0001
1000
0000
0100
0000
0010
0001
0000
1000
0000
0001
0000
,  // measure 35
0010
0000
0000
0100
0000
0000
1000
0000
0000
0001
0000
0000
0100
0000
0000
0010
,  // measure 36
0000
0000
1000
0000
0001
0010
0000
0011
0000
0000
0001
0000
1000
0001
0000
1001
,  // measure 37
0000
0000
1000
0000
0010
1000
0000
1010
0000
0000
0010
0000
0100
0000
0001
0000
,  // measure 38
2000
0000
0000
0000
0001
0000
0001
0000
3001
0000
0000
0000
0101
0000
0000
0001
,  // measure 39
0000
1000
0100
0100
1000
0100
0001
0100
,  // measure 40
0020
0000
0000
0000
0031
0000
0000
0000
1000
0000
0000
0010
0000
0000
1000
0000
,  // measure 41
0010
0000
0000
0100
0000
0000
0010
0000
0100
0000
0001
0000
0100
0000
0010
0000
,  // measure 42
1000
0000
0000
0001
0000
0000
1000
0000
0100
0000
0100
0000
1100
0000
0000
1000
,  // measure 43
0000
0001
0100
0100
0001
0100
1000
0100
,  // measure 44
0020
0000
1030
0000
0010
0100
0001
0000
,  // measure 45
1000
0100
0010
0000
0001
0010
0100
1000
,  // measure 46
0100
0000
0010
0000
0001
0000
1000
0000
0010
0000
0200
0000
0000
0302
0000
0000
,  // measure 47
2003
0000
0000
3100
0000
0000
0010
0001
0010
0000
0001
1000
0001
0000
1000
0010
,  // measure 48
1000
0000
0010
0000
0100
0001
0000
0001
1000
0000
0000
0000
0100
0000
0000
0000
,  // measure 49
1000
0100
0000
1000
0000
0100
0000
0000
1000
0000
0000
0000
0010
0000
0000
0000
,  // measure 50
0100
0001
0000
0100
0000
0001
0000
0000
0100
0000
0000
0000
0010
0000
0000
0000
,  // measure 51
1000
0001
0000
0010
0000
0100
0000
0000
0010
0000
0000
0000
0001
0000
0000
0000
,  // measure 52
1000
0001
0000
0100
0000
0010
0000
0000
1000
0000
0100
0000
1000
0000
0000
0000
,  // measure 53
0001
0010
0001
0000
1000
0010
1000
0000
,  // measure 54
0001
0100
0001
0000
1000
0100
0010
0000
,  // measure 55
0100
0010
0001
0000
1000
0010
0100
0001
,  // measure 56
1000
0010
0100
0001
1000
1000
1000
1000
,  // measure 57
0001
0010
0100
0100
,  // measure 58
0200
0300
0220
0000
,  // measure 59
0330
2002
0000
3003
,  // measure 60
0220
0000
0330
0000
0001
0000
0000
0100
,  // measure 61
0000
0000
0010
0000
1000
0000
0000
0001
0000
0000
0010
0000
0100
0000
0000
0010
,  // measure 62
0000
0000
0100
0000
1000
0000
0000
0001
0000
0000
1000
0000
0001
0000
0000
0100
,  // measure 63
0000
0000
0010
0000
0100
0000
0000
0010
0000
0000
1000
0000
0001
0000
0010
0000
,  // measure 64
0100
0000
0010
0100
2000
0000
0000
3001
,  // measure 65
0010
0100
1000
1000
0100
1000
0001
0000
,  // measure 66
1001
0101
0001
0100
,  // measure 67
0010
1000
1010
0110
,  // measure 68
0101
0011
0110
1100
,  // measure 69
1001
0000
0000
0000
0000
0000
0000
0000
0101
0000
0000
0000
0000
0110
0000
0000
0000
0000
0000
0000
0000
0000
0000
0000
1000
0000
0000
0000
0100
0000
0000
0000
,  // measure 70
0010
0000
0010
0000
0010
0000
0000
0001
0000
0000
1000
0000
0010
0000
0010
0000
,  // measure 71
0001
0010
0100
0010
1000
0000
1010
0010
,  // measure 72
1000
0000
0000
1010
0000
0000
1000
0000
0001
0000
0000
1001
0000
0000
1000
0000
,  // measure 73
0001
0000
0010
0000
1000
0000
0010
0000
0001
0000
0010
0001
0000
1000
0001
0000
,  // measure 74
0100
0000
0100
0000
0100
0000
0000
0010
0000
0000
1000
0000
0001
0000
0001
0000
,  // measure 75
0011
0000
0000
0110
0000
0000
1100
0000
1001
0000
0000
0000
0101
0000
0000
0000
,  // measure 76
0001
0000
0000
0100
0000
0000
1000
0000
0100
0000
0001
0000
0010
0000
0100
0000
,  // measure 77
1000
0010
1000
0001
1000
0100
0010
0010
,  // measure 78
0001
0000
0010
0000
0001
0000
1000
0000
0010
0000
0010
0000
1000
0010
1000
0010
,  // measure 79
1000
1000
0001
0001
0010
0010
0100
0010
,  // measure 80
0001
0000
0001
0000
1000
0000
0010
0000
0100
0000
0100
0000
0001
0010
0001
0010
,  // measure 81
0001
0001
0010
0010
0100
0100
1000
0001
,  // measure 82
0100
0000
0100
0000
0001
0000
1000
0000
0100
0000
0100
0000
1000
0100
0010
0001
,  // measure 83
0010
0010
0100
0100
1000
1000
0001
0100
,  // measure 84
0010
0000
0010
0000
1000
0000
0100
0000
0010
0000
0010
0000
0001
0100
0010
1000
,  // measure 85
0010
0000
0100
0000
0001
0000
1000
0000
0100
0000
0000
0000
1000
0010
1000
0010
,  // measure 86
0000
0100
0000
0001
0010
0001
0010
0001
0000
1000
0001
0000
1000
0100
0010
0001
,  // measure 87
1000
0100
0010
0001
0000
0100
0000
0020
0000
2000
0000
0000
0000
0000
0000
0000
,  // measure 88
0000
0030
0000
0000
,  // measure 89
0000
0000
0000
0000
,  // measure 90
0000
0000
0000
3000
;

//---------------dance-single - ----------------
#NOTES:
     dance-single:
     :
     Challenge:
     10:
     0.818493,1.051365,0.477454,0.140428,0.803949,816.000000,748.000000,68.000000,20.000000,0.000000,0.000000,0.818493,1.051365,0.477454,0.140428,0.803949,816.000000,748.000000,68.000000,20.000000,0.000000,0.000000:
// measure 0
0000
0000
0000
0000
,  // measure 1
0000
0000
0000
0000
,  // measure 2
0000
0000
0000
0000
,  // measure 3
2000
3200
0320
0032
,  // measure 4
1003
0000
0100
0000
0010
0000
0100
0000
1000
0100
0000
1100
0000
1001
0000
0000
,  // measure 5
0001
0000
0100
0000
0010
0000
0100
0000
0001
0100
0000
0101
0000
0110
0000
1010
,  // measure 6
0000
0000
0001
0000
0001
0100
0000
0100
0010
0000
0010
1000
0000
1010
0000
1010
,  // measure 7
0000
0000
1000
0000
1000
0100
0000
0100
0010
0000
0001
0000
0011
0000
0011
0000
,  // measure 8
0001
0000
0010
0000
0100
0000
0010
0000
0001
0010
0000
0011
0000
1001
0000
0000
,  // measure 9
0001
0000
1000
0000
0010
1000
0000
1010
0000
0000
0010
0100
0000
0101
0000
1001
,  // measure 10
0000
0000
0001
0000
0001
1000
0000
1000
0100
0000
0100
0010
0000
0011
0000
0001
,  // measure 11
0010
0100
1000
0001
0010
0100
1000
0000
1100
0000
0110
0000
0011
0000
0000
0000
,  // measure 12
0001
0000
0000
0001
0010
0000
0001
0000
1000
0000
0000
1000
0010
0000
1000
0000
,  // measure 13
0001
0000
0000
0001
0100
0000
0001
0000
1000
0000
0100
0010
0100
0010
0001
1000
,  // measure 14
0001
0000
0000
0001
0100
0000
0001
0000
1000
0000
0000
1000
0100
0000
1000
0000
,  // measure 15
0001
0000
0000
0001
0100
0000
0001
0000
1000
0000
0010
0000
0001
0000
0010
0000
,  // measure 16
1000
0000
0000
1000
0100
0000
0010
0000
0001
0000
0000
0001
0010
0000
0100
0000
,  // measure 17
1000
0000
0000
1000
0010
0000
0100
0000
0001
0000
0100
0010
0100
0010
1000
0001
,  // measure 18
1000
0000
0000
1000
0100
0000
1000
0000
0001
0000
0000
0001
0100
0000
0001
0000
,  // measure 19
1000
0000
0000
1000
0100
0000
0000
0100
0010
0000
0011
0000
1001
0000
1000
0000
,  // measure 20
0001
0100
0000
0001
0000
1000
0001
0000
0010
0000
0001
0010
0100
1000
0100
0000
,  // measure 21
0010
0001
0000
1000
0000
0001
0100
0000
0010
1000
0010
1000
0010
0000
1000
0000
,  // measure 22
0001
0010
0000
0100
0000
0010
0100
0000
1000
0000
0001
0100
0010
1000
0010
0000
,  // measure 23
0100
0001
0000
1000
0000
0001
0010
0000
0011
0000
1001
0000
1010
0000
1000
0000
,  // measure 24
0001
0100
0010
0100
1000
0100
0001
0100
,  // measure 25
0010
0000
0000
0010
1000
0000
0100
0000
0010
0000
0000
0010
0001
0000
1000
0000
,  // measure 26
0001
0010
0100
0010
1000
0010
0001
0010
,  // measure 27
0100
0000
0000
0100
1000
0000
0001
0000
0100
0000
0000
0100
0010
0000
1000
0000
,  // measure 28
0001
0100
1000
0100
0001
0010
1000
0010
,  // measure 29
0001
0000
0000
0001
0010
0000
0001
0000
1000
0000
0000
1000
0010
0000
1000
0000
,  // measure 30
1001
0000
0000
0000
0000
0000
0000
0000
0001
1000
0001
1000
0000
0000
0001
0000
,  // measure 31
1000
0100
1000
0100
0010
0001
0010
0001
1000
0000
0001
0000
1001
0000
0000
0000
,  // measure 32
1000
0010
0100
0000
0001
0100
0000
0101
0000
0001
1000
0001
1000
0000
0100
0010
,  // measure 33
0001
1000
0100
0000
1000
0001
0000
1001
0000
0001
0100
0010
1000
0000
1010
0000
,  // measure 34
0010
1000
0010
0000
1000
0001
0000
1001
0000
0001
0010
0100
1000
0000
0100
1000
,  // measure 35
0001
0000
0001
0100
0000
0100
0010
0000
0010
1000
0000
1000
0001
0000
0001
0010
,  // measure 36
0000
0010
0100
0000
0100
1000
0000
1100
0000
0000
1000
0000
0001
0100
0000
0101
,  // measure 37
0000
0000
0001
0000
0100
0010
0000
0110
0000
0000
0010
0000
1000
0000
0010
0000
,  // measure 38
1010
0000
1000
0000
1001
0000
0001
0000
0011
0000
0110
0000
1100
0000
1000
0100
,  // measure 39
0000
0100
0010
0000
0001
0000
0001
0000
1000
0000
0010
0000
0001
0000
0010
0000
,  // measure 40
2000
0000
3010
0000
0200
0000
0301
0000
1000
0010
1000
0010
1000
0000
1000
0000
,  // measure 41
0010
0000
0010
0000
0100
0000
0100
0000
0001
0010
0001
0010
0001
0000
0001
0000
,  // measure 42
0010
0000
0010
0000
0100
0000
0100
0000
1100
0000
1001
0000
0101
0000
0001
0100
,  // measure 43
0000
0100
0010
0000
1000
0000
1000
0000
0001
0000
0010
0000
1000
0000
0010
0000
,  // measure 44
0002
0000
0013
0000
0200
0000
1300
0100
1000
0000
0001
0000
0100
0010
0000
1010
,  // measure 45
0000
1000
0001
0001
1000
0100
0010
0100
,  // measure 46
0001
0000
1000
0000
0010
0000
0001
0000
1000
0000
0010
0000
0010
0100
0000
0100
,  // measure 47
0001
0000
0001
1000
0000
1000
0100
0010
0100
0000
0010
0001
0010
0000
0001
1000
,  // measure 48
0001
0100
0010
0000
1000
0010
0000
1000
0001
0000
0010
0000
1000
0000
0010
0000
,  // measure 49
0001
0010
0000
0011
0000
1001
0000
0000
1000
0000
0010
0000
0001
0000
0010
0000
,  // measure 50
1000
0010
0000
1010
0000
1001
0000
0000
1000
0000
0100
0000
0001
0000
0100
0000
,  // measure 51
1000
0100
0000
1100
0000
1001
0000
0000
0001
0000
0100
0000
1000
0000
0100
0000
,  // measure 52
0001
0100
0000
0101
0000
1001
0000
0000
1000
0000
1000
0000
0100
0000
0010
0000
,  // measure 53
0001
0001
0010
0001
1000
1000
0001
1000
,  // measure 54
0001
0100
0010
1000
0001
0001
0010
0001
,  // measure 55
1000
1000
0010
1000
0001
0001
1000
1000
,  // measure 56
0100
0010
0001
1000
0010
0010
0010
0010
,  // measure 57
0100
0100
0001
1000
,  // measure 58
2002
3003
2200
0000
,  // measure 59
3300
0202
0000
0303
,  // measure 60
2002
0000
0000
0000
3003
0000
0000
0000
1000
0000
0000
0000
0100
0000
1000
0100
,  // measure 61
0000
0100
0000
0000
1000
0000
0000
0100
0010
0000
0010
0000
0001
0000
0001
0000
,  // measure 62
1000
0000
0000
0000
0010
0000
0000
0010
0100
0000
0000
0001
0000
0001
0000
0100
,  // measure 63
0001
0000
0000
1000
0001
0000
0000
0010
0001
0000
0001
0000
0010
0001
0000
0010
,  // measure 64
0100
0000
1000
0100
0000
1000
0001
0000
1000
0000
0010
0000
0100
0001
0000
0100
,  // measure 65
0010
0000
0100
1000
0000
0100
0010
0000
1000
0000
0100
0000
0010
0100
0000
0001
,  // measure 66
0100
0000
0010
0100
0000
1000
0001
0000
1000
0000
0010
0000
0001
0000
0010
0000
,  // measure 67
1000
0000
0000
0000
0010
0000
0000
0000
0100
0000
0001
0000
0000
0000
0001
0000
1000
0000
0000
0000
0000
1000
0000
0000
0010
0000
0000
0000
0000
0010
0000
0000
,  // measure 68
0100
0000
0000
0000
0000
0100
0000
0000
0001
0000
0000
0000
0000
0001
0000
0000
0010
0000
0000
0000
0000
0010
0000
0000
0100
0000
0000
0000
0000
0100
0000
0000
,  // measure 69
1000
0000
0000
0000
0000
1000
0000
0000
0001
0000
0000
0000
0000
0011
0000
0000
0000
0000
0000
0001
0000
0000
0000
0000
1001
0000
0000
0000
1000
0000
0000
0000
,  // measure 70
1010
0000
0110
0000
0101
0000
0001
0100
0000
0100
0010
0000
1000
0000
1000
0000
,  // measure 71
0001
0100
1000
0100
0020
0130
0002
1003
,  // measure 72
0001
0010
0100
0010
0001
0000
0001
0000
0010
0000
0010
0000
0100
0000
0100
0000
,  // measure 73
1000
0010
0100
0010
1000
0000
1000
0000
0010
0000
0010
0000
0100
0000
0100
0000
,  // measure 74
0101
0000
1001
0000
1100
0000
1000
0100
0000
0100
0010
0000
0001
0000
0001
0000
,  // measure 75
0011
0000
0000
1010
0000
0000
0101
0000
0101
0000
0000
0000
1100
0000
0000
0000
,  // measure 76
1000
0100
1000
0001
1000
0000
0010
0000
0100
0001
0000
1000
0000
1000
0000
0000
,  // measure 77
0001
0010
0001
0010
0100
1000
0100
1000
0001
0100
0001
0100
0010
1000
0010
1000
,  // measure 78
0001
0100
0010
1000
0001
0010
0100
1000
0001
0100
0010
1000
0001
0010
0001
0010
,  // measure 79
0001
0000
0001
0000
0010
0000
0010
0000
0100
0000
0100
0000
1000
0010
1000
0010
,  // measure 80
1000
0000
1000
0000
0010
0000
0010
0000
0100
0000
0100
0000
0001
0100
0001
0100
,  // measure 81
0001
0000
0001
0000
1000
0000
1000
0000
0100
0000
0100
0000
1000
0100
1000
0100
,  // measure 82
1000
0000
1000
0000
0001
0000
0001
0000
0100
0000
0100
0000
0010
0100
0010
0100
,  // measure 83
0010
0000
0010
0000
1000
0000
1000
0000
0001
0000
0001
0000
0010
0100
0010
0100
,  // measure 84
0010
0000
0010
0000
0100
0000
0100
0000
0010
0000
0010
0000
0001
0010
0100
1000
,  // measure 85
0001
0000
0001
0000
0100
0000
0100
0000
0010
0000
0000
0000
1000
0010
0100
0001
,  // measure 86
0000
0101
0000
0001
0010
0100
1000
0100
0000
0010
0001
0000
1000
0100
0010
0001
,  // measure 87
1000
0010
0100
0001
0000
1000
0000
0001
0000
2002
0000
0000
0000
0000
0000
0000
,  // measure 88
0000
0003
0000
0000
,  // measure 89
0000
0000
0000
0000
,  // measure 90
0000
0000
0000
3000
;

//---------------dance-single - ----------------
#NOTES:
     dance-single:
     :
     Medium:
     8:
     0.479460,0.541612,0.133406,0.540647,0.105321,478.000000,459.000000,19.000000,77.000000,0.000000,0.000000,0.479460,0.541612,0.133406,0.540647,0.105321,478.000000,459.000000,19.000000,77.000000,0.000000,0.000000:
0000
0000
0000
0000
,
0000
0000
0000
0000
,
0000
0000
0000
0000
,
2000
3020
0230
0302
,
1003
0100
0010
0001
1000
0010
0100
0000
,
0001
0010
0100
1000
0001
0010
0100
1000
,
0001
0200
0320
2030
,
3002
0023
0230
2300
,
3001
0100
0010
1000
0001
0010
0100
0000
,
1000
0010
0100
0001
1000
0010
0100
0001
,
1000
0002
0023
0230
,
2300
0000
3020
0000
0100
0100
0130
0000
,
0010
0010
1000
1000
,
0001
0010
0100
0010
0001
0010
0100
0100
,
0010
0010
0001
0001
,
1000
0010
0100
0010
1000
0010
0100
0100
,
0001
0100
0010
1000
0001
0100
0010
0000
,
1000
0100
1000
0001
1000
0010
0100
0001
,
0010
0010
0010
0000
0100
0100
0100
0000
,
1100
0110
0011
1001
,
0001
0000
0000
0100
0000
0000
0010
0000
0000
0000
1000
0000
0010
0000
0100
0000
,
0001
0000
0000
0010
0000
0000
0100
0000
1000
0000
0100
0000
0010
0000
0001
0000
,
1000
0000
0000
0100
0000
0000
0010
0000
0000
0000
0001
0000
0010
0000
0100
0000
,
1000
0000
0000
0010
0000
0000
0100
0000
0001
0000
1000
0000
0001
0000
0000
0000
,
1000
0100
1000
0100
1000
0100
1000
0000
,
2100
3001
0102
0103
,
0001
0100
0001
0100
0001
0100
0001
0000
,
0102
0103
2010
3001
,
1000
0001
1000
0001
1000
0001
1000
0000
,
0021
0031
1020
1030
,
2002
0000
3003
0000
,
2000
0000
3200
0000
0320
0032
2003
0000
,
3001
0000
0000
0000
0100
0000
0000
0010
0000
0000
0100
0000
0001
0000
0000
0000
,
1000
0000
0000
0000
0100
0000
0000
0010
0000
0000
0100
0000
1000
0000
0000
0000
,
0001
0000
0000
0000
0010
0000
0000
0100
0000
0000
1000
0000
0001
0000
0000
0000
,
1000
0000
0000
1000
0000
0000
0010
0000
0000
0010
0000
0000
0100
0000
0000
0100
,
0000
0000
0001
0000
0001
0000
0000
0101
0000
0000
0001
0000
0001
0000
0000
1001
,
0000
0000
1000
0000
1000
0000
0000
1100
0000
0000
0100
0000
0100
0000
0010
0000
,
0020
0032
2003
3020
,
0130
0001
0100
0100
0001
1000
0001
0001
,
2000
0000
3200
0000
0320
0000
0031
0010
,
0002
0000
1003
0001
2000
0000
3020
0000
,
0230
0000
0302
0000
1003
0010
1000
1000
,
0001
1000
0001
0001
0010
0100
0010
0010
,
0200
2300
3002
0103
,
0200
0310
0020
2030
,
3002
0000
0000
0000
0023
0000
0000
0000
0130
0000
1000
0000
0000
1000
0000
0000
,
1000
0000
0000
1000
0000
0000
1000
0000
1000
0000
0010
0000
0010
0000
0100
0000
,
0100
0000
0001
0000
0001
0000
0000
2002
0000
0000
0000
0000
0000
0000
0000
0000
,
0000
0000
0000
0000
,
0000
0000
0000
3003
,
0001
0010
0001
1000
,
0010
0100
0001
0100
,
1000
0100
0001
0100
,
1000
0100
0001
0010
,
1000
0010
0001
0010
,
1000
0010
0001
0010
,
0100
0100
1000
0001
,
0200
0000
0320
0000
,
0000
2030
0000
0000
,
3002
0010
0023
0030
,
0200
0000
0000
0000
1300
0100
0000
0000
1000
0000
0000
0000
0001
0010
0000
0000
,
0001
0000
0000
0000
1000
0010
0000
0000
1000
0000
0000
0000
0001
0100
0000
0000
,
0001
0000
0000
0000
1000
0001
0000
0000
1000
0000
0100
0000
0010
0000
0001
0000
,
1000
0100
0010
0001
2000
0000
3000
0000
,
0020
0030
0200
0302
,
2003
3200
0310
0010
,
0010
0010
0001
0010
,
0001
1000
0010
0100
,
0010
0000
0000
0000
0000
0000
0000
0000
1000
0000
0000
0000
0000
0001
0000
0000
0000
0000
0000
0000
0000
0000
0000
0000
0010
0000
0000
0000
0100
0000
0000
0000
,
1000
0001
0100
0100
0001
1000
0100
0100
,
1000
0100
0010
0001
2000
0000
3010
0100
,
0002
0000
0013
0001
2000
0000
3010
1000
,
0001
0001
0010
0010
0100
0100
1000
1000
,
0001
0100
0001
0001
1000
0100
1000
1000
,
0200
0000
0000
0320
0000
0000
0032
0000
1003
0000
0000
0000
1001
0000
0000
0000
,
1000
0000
0000
0010
0000
0000
0100
0000
0001
0000
0000
1000
0000
1000
0000
0000
,
0001
0010
0100
1000
0100
0010
0001
1000
,
0010
0100
0001
0100
0010
1000
0001
0100
,
0001
0001
0100
0001
0100
0100
0001
1000
,
0100
0100
1000
0001
0100
0100
0010
1000
,
0010
0010
1000
0010
1000
1000
0010
1000
,
0001
0001
0010
0001
1000
1000
0001
0010
,
0001
0001
0010
0001
0010
0010
0001
0100
,
0010
0010
1000
0100
0010
0010
0100
1000
,
0100
0100
1000
0100
1000
0000
0022
0000
,
0000
0033
0000
0000
2020
0000
0000
0000
0000
3030
0000
0000
2002
0000
0000
0000
,
0000
3003
0000
0001
0000
0002
0000
1000
0000
2000
0000
0000
0000
0000
0000
0000
,
0000
0003
0000
0000
,
0000
0000
0000
0000
,
0000
0000
0000
3000
;

//---------------dance-single - ----------------
#NOTES:
     dance-single:
     :
     Easy:
     5:
     0.290886,0.360197,0.119364,0.533625,0.003511,290.000000,273.000000,17.000000,76.000000,0.000000,0.000000,0.290886,0.360197,0.119364,0.533625,0.003511,290.000000,273.000000,17.000000,76.000000,0.000000,0.000000:
0000
0000
0000
0000
,
0000
0000
0000
0000
,
0000
0000
0000
0000
,
0001
0100
0010
1000
,
0001
0010
0001
0001
,
1000
0010
1000
1000
,
1000
0010
0100
0001
,
1000
0010
0100
0100
,
0001
0100
0001
0001
,
1000
0100
1000
1000
,
1000
0001
0010
0100
,
1000
0000
0100
0000
0010
0100
0010
0000
,
0000
0001
0001
0001
,
1000
1000
1000
1000
,
0000
0010
0010
0010
,
0100
0100
0100
0100
,
0001
0001
0001
0001
,
0000
1000
1000
1000
,
2200
3300
0022
0033
,
1001
1001
2002
3003
,
0001
0001
0100
0100
,
0010
0000
1000
0000
0010
1000
0010
0000
,
1000
1000
0100
0100
,
0010
0000
0001
0000
0010
0001
0010
0000
,
0100
0100
0100
0100
,
0220
0330
2002
3003
,
1000
1000
1000
1000
,
2002
3003
0220
0330
,
0010
0100
0010
0100
,
0220
0000
0330
0000
2002
0000
3003
1000
,
0001
0000
1000
0000
,
0002
0000
0023
0000
0130
1000
0001
0000
,
0100
0010
1000
1000
,
0010
1000
0001
0001
,
1000
0100
0010
0010
,
0001
0010
0001
1000
,
0001
0000
0100
0000
0000
0010
0100
0000
,
0000
0010
1000
0000
0000
0001
1000
0000
,
1001
0011
0020
0230
,
2300
3002
0100
0100
,
0200
0000
0303
0100
0001
0000
0000
1000
,
0001
0000
0000
1000
0100
0000
0010
0000
,
0001
1000
0002
0203
,
0320
2030
0010
0010
,
0020
0000
3030
1000
0010
0000
1000
0000
,
0001
1000
0001
0000
2000
0000
3200
0000
,
0320
0031
2002
0000
,
0000
3003
1000
1000
,
0001
0001
0020
0000
,
0000
0000
0000
0000
,
0000
0000
0000
0000
,
0030
0100
1000
0100
,
1000
0000
0100
0000
2000
0000
3000
0100
,
2000
0000
3000
0100
2000
0000
3000
0100
,
2000
0000
3000
0000
0002
0000
0003
0100
,
0002
0000
0003
0100
0002
0000
0003
0100
,
0002
0003
0100
0100
,
0100
0100
0010
0010
,
0020
0000
2030
0000
,
0000
0002
0000
3003
,
2002
3003
0002
0000
,
0000
0000
2003
0000
,
0000
0000
3200
0000
,
0320
0000
0032
0023
,
0230
2300
3020
0000
,
0230
0000
0302
0203
,
0320
2030
3001
1000
,
0001
1000
0001
0000
,
0001
0000
0001
0000
,
0001
0000
0000
0000
0000
0000
0000
0000
0000
0000
0000
0000
0000
0001
0000
0000
0000
0000
0000
0000
0000
0000
0000
0000
0001
0000
0000
0000
0000
0000
0000
0000
,
2000
3200
0320
0032
,
1000
0000
1000
0000
2000
0000
3003
0001
,
1000
0000
0000
0010
1000
0000
0000
0010
,
0100
0001
1000
0100
,
0020
0230
2300
3001
,
2002
0000
0003
0000
,
3001
0001
0002
0003
,
0010
0001
1000
0010
,
0100
0001
1000
0000
,
2002
0000
0000
0000
,
0000
0000
0000
0000
,
0000
0000
3003
0000
0000
0000
0000
1000
,
0001
1000
0001
0000
0000
0000
0010
0000
,
0100
0000
0010
0000
0100
0000
0000
1000
,
0001
1000
0001
0000
0000
0000
0100
0000
,
0010
0100
0010
0000
;

//---------------dance-single - ----------------
#NOTES:
     dance-single:
     :
     Beginner:
     2:
     0.149455,0.236621,0.056171,0.000000,0.000000,149.000000,141.000000,8.000000,0.000000,0.000000,0.000000,0.149455,0.236621,0.056171,0.000000,0.000000,149.000000,141.000000,8.000000,0.000000,0.000000,0.000000:
0000
0000
0000
0000
,
0000
0000
0000
0000
,
0000
0000
0000
0000
,
1000
1000
1000
1000
,
0000
0100
0100
0000
,
0100
0100
0100
0000
,
0000
0010
0010
0000
,
0010
0010
0010
0010
,
0000
0001
0001
0000
,
0001
0001
0001
0000
,
0000
0100
0100
0000
,
0100
0100
0100
0000
,
0000
0010
0000
0010
,
0000
1000
0000
1000
,
0000
0001
0001
0001
,
0000
1000
1000
1000
,
0000
0100
0000
0100
,
0000
0010
0000
0010
,
0010
0000
0010
0000
,
0001
0001
0001
0000
,
1000
0000
0000
0000
,
1000
0000
0000
0000
,
0001
0000
0000
0000
,
0001
0000
0000
0000
,
0100
0000
0001
0000
,
0100
0000
0000
0000
,
0001
0000
1000
0000
,
0001
0000
0000
0000
,
1000
0000
0100
0000
,
1000
0000
0000
0000
,
1001
0000
0000
0000
,
0001
0001
0001
0000
,
1000
0000
0000
0000
,
1000
0000
0000
0000
,
0001
0000
0000
0000
,
0001
0000
0001
0000
,
0010
0010
0000
0010
,
0000
0100
0000
0100
,
0000
1000
1000
0000
,
0100
0000
1000
1000
,
1000
0000
0001
0000
,
1000
0000
0001
0000
,
1000
0000
0001
0000
,
0100
0000
0001
0001
,
0001
0000
1000
0000
,
0001
0000
1000
0000
,
0001
0000
1001
0000
,
0000
0000
1000
1000
,
1000
1000
1000
0000
,
0000
0000
0000
0000
,
0000
0000
0000
0000
,
0000
0000
0000
0000
,
0000
0000
0100
0000
,
0000
0000
0000
0000
,
0000
0000
0010
0000
,
0000
0000
0000
0000
,
0000
0000
0001
0000
,
0001
0000
0001
0001
,
0001
0000
1000
0000
,
0000
0000
0000
0000
,
1000
0000
1000
0000
,
0000
0000
0010
0000
,
0000
0000
0100
0000
,
0001
0000
1000
0000
,
1000
0000
0001
0000
,
0010
0000
0100
0000
,
1000
0000
0001
0000
,
0001
0000
1001
0000
,
0000
0000
0000
0000
,
0000
0000
0000
0000
,
1000
0000
0010
0000
,
1000
1000
1000
0000
,
0001
0000
1000
0000
,
0001
0000
1000
0000
,
0001
0000
0010
0000
,
0001
0001
0001
0000
,
1001
0000
0000
0000
,
0110
0000
0000
0000
,
1001
0000
0110
0000
,
1001
0000
0000
0000
,
0000
0000
0000
0000
,
0000
0000
0000
0000
,
1000
1000
0000
0000
,
0000
0000
0000
0000
,
0001
0001
0000
0000
;
