#VERSION:0.83;
#TITLE:Glide;
#SUBTITLE:;
#ARTIST:Stephen Walking;
#TITLETRANSLIT:;
#SUBTITLETRANSLIT:;
#ARTISTTRANSLIT:;
#GENRE:;
#ORIGIN:;
#CREDIT:;
#BANNER:[Wind Jammers] - Glide.png;
#BACKGROUND:[Wind Jammers] - Glide-bg.png;
#PREVIEWVID:;
#JACKET:[Wind Jammers] - Glide-jacket.png;
#CDIMAGE:;
#DISCIMAGE:;
#LYRICSPATH:;
#CDTITLE:;
#MUSIC:[Wind Jammers] - Glide.ogg;
#OFFSET:-5.485001;
#SAMPLESTART:21.590405;
#SAMPLELENGTH:14.328358;
#SELECTABLE:YES;
#BPMS:0.000=134.000,
128.000=135.000,
132.000=134.000;
#STOPS:;
#DELAYS:;
#WARPS:;
#TIMESIGNATURES:0.000=4=4;
#TICKCOUNTS:0.000=4;
#COMBOS:0.000=1;
#SPEEDS:0.000=1.000=0.000=0;
#SCROLLS:0.000=1.000;
#FAKES:;
#LABELS:0.000=Song Start;
#BGCHANGES:;
#KEYSOUNDS:;
#ATTACKS:
;

//---------------dance-single - ----------------
#NOTEDATA:;
#CHARTNAME:;
#STEPSTYPE:dance-single;
#DESCRIPTION:;
#CHARTSTYLE:;
#DIFFICULTY:Hard;
#METER:7;
#RADARVALUES:0.393304,0.445214,0.032295,0.226064,0.044405,341.000000,337.000000,4.000000,28.000000,0.000000,0.000000,0.000000,0.000000,0.000000,0.393304,0.445214,0.032295,0.226064,0.044405,341.000000,337.000000,4.000000,28.000000,0.000000,0.000000,0.000000,0.000000,0.000000;
#CREDIT:;
#NOTES:
0000
0000
0000
0000
,
0000
0001
0010
0010
0001
1000
0000
0000
,
0000
0001
0100
0100
0001
1000
0000
0000
,
0000
0001
0010
0010
0100
0010
0100
1000
,
0000
0001
0010
0010
0100
0010
0100
0010
,
0000
0001
1000
1000
0010
0100
0000
0000
,
0000
0001
1000
1000
0010
0100
0000
0000
,
0000
0001
1000
1000
0010
1000
0001
0010
,
0000
0100
0010
0010
0001
1000
0010
1000
,
0001
0000
1000
0100
0000
1000
0000
0020
,
0000
0000
0000
0000
0030
0100
0001
0100
,
0000
0000
0010
0100
0010
1000
0000
0001
,
0000
0010
0000
0002
0000
0000
1000
1003
,
0000
0000
0000
0100
0000
0010
0000
0200
,
0000
0000
0000
0000
0000
0310
0001
0010
,
0000
0001
0000
0100
0000
0001
0000
1000
,
0000
0100
1000
0000
0020
0000
0000
0130
,
0001
0000
0000
0000
0000
0000
0001
0000
0000
0000
0001
0000
1000
0000
0000
0001
,
0000
0000
1000
0000
1000
0000
0001
0000
1000
0000
0000
0000
0010
0000
0000
0100
,
0000
0000
0010
0000
1000
0000
0000
0000
0010
0000
0000
0100
0000
0001
0000
0010
,
0000
0000
0000
0010
0001
1000
0010
1000
,
0001
0010
0001
0000
1000
0010
1000
0001
,
0000
1000
0000
0001
0010
0100
0010
0001
,
1000
0000
0010
0000
0100
0010
1000
0001
,
0000
0000
0000
0100
0010
0100
1000
0001
,
0100
0010
0100
0000
0010
0100
0001
1000
,
0000
0001
0000
1000
0010
1000
0001
0010
,
0100
0000
0010
0000
0001
0010
0001
1000
,
0000
0000
0000
0000
,
0220
0000
0000
0000
,
0330
0100
0010
1000
0001
0010
1000
0010
,
0002
0023
0230
0000
,
0300
0010
0001
0001
1000
0010
1000
0001
,
2002
0000
0000
0000
0000
0000
0000
3003
,
0000
0001
1000
0010
1000
0001
0010
0100
,
0010
0000
0001
0000
0200
0000
0000
0300
,
0110
0000
0000
0000
0110
0000
1000
0001
2000
0000
0000
0000
3002
0000
0000
0000
,
0103
0000
0000
0000
0000
0000
0100
0000
0000
0000
0100
0000
0010
0000
0000
0010
,
0000
0000
0100
0000
0010
0000
0100
0000
0010
0000
0000
0000
0100
0000
0000
0001
,
0000
0000
1000
0000
1000
0000
0000
0000
0001
0000
0000
1000
0000
0010
0000
0100
,
0000
0000
0000
0010
0100
0001
0010
0100
,
0010
0001
1000
0000
0001
0100
0000
0001
,
0000
0010
0000
0100
0010
0001
0100
0010
,
1000
0000
0100
0000
1000
0100
0010
0100
,
0000
0000
0000
0010
0001
1000
0100
1000
,
0001
0100
0001
0000
0100
0010
0000
1000
,
0000
0010
0000
1000
0001
0010
0001
1000
,
0010
0000
0100
0000
0010
0100
0001
1000
,
0000
0000
0000
1000
0100
0010
0100
2000
,
0000
0001
3001
0000
0100
0010
0010
0100
,
0020
0000
1030
0002
0000
0013
0100
0010
,
0001
0000
0100
0000
0010
0100
0010
1000
,
0000
0001
0000
1000
0100
1000
0001
0100
,
0020
0000
1030
0020
0000
0000
1030
0020
,
0000
0130
0000
0010
0100
0001
1000
0010
,
1000
0000
0100
0000
2000
0000
0000
3002
,
0000
0000
0003
0100
0010
1000
0100
1000
,
0001
1000
0001
0020
0000
0031
0100
0001
,
1000
0100
1000
0000
0100
0010
0100
1000
,
0002
0000
0203
0000
0310
0100
0001
1000
,
0000
0001
0000
0010
0100
0000
0010
0002
,
0000
0000
0000
0000
1003
0001
0100
0020
,
0000
0000
0000
0130
0010
1000
0001
0010
,
0100
0010
0001
1000
0100
0010
0001
0010
,
0100
0010
0001
0020
0000
0000
0000
0030
;

//---------------dance-single - ----------------
#NOTEDATA:;
#CHARTNAME:;
#STEPSTYPE:dance-single;
#DESCRIPTION:;
#CHARTSTYLE:;
#DIFFICULTY:Easy;
#METER:3;
#RADARVALUES:0.186848,0.209109,0.032295,0.040368,0.000000,162.000000,158.000000,4.000000,5.000000,0.000000,0.000000,0.000000,0.000000,0.000000,0.186848,0.209109,0.032295,0.040368,0.000000,162.000000,158.000000,4.000000,5.000000,0.000000,0.000000,0.000000,0.000000,0.000000;
#CREDIT:;
#NOTES:
0000
0000
0000
0000
,
0000
1000
0001
0000
,
0000
1000
0001
0000
,
0000
1000
0001
1000
,
0000
0001
1000
0001
,
0000
0100
0010
0000
,
0000
0100
0010
0000
,
0000
0100
0010
0100
,
0000
0010
0100
0010
,
1000
0000
0000
0001
0000
1000
0000
0002
,
0000
0000
0000
1003
,
0000
0000
0001
0000
0100
0000
0000
0001
,
0000
0010
0000
0002
0000
0000
1003
0000
,
0000
0000
0000
0100
0000
1000
0000
0200
,
0000
0000
0000
1300
,
0000
0001
0000
1000
0000
0010
0000
0100
,
0000
0010
1000
0000
,
1001
0000
0000
0000
,
0000
0000
0000
0000
,
0010
0000
1000
0000
,
0001
0000
1000
0001
,
0100
0001
0010
0100
,
1000
0000
0100
1000
,
0100
0010
0001
1000
,
0000
0000
0001
0100
,
0010
1000
0001
0010
,
0001
0000
1000
0001
,
0100
0001
0010
0100
,
0000
0000
0000
0000
,
1001
0000
0000
0000
,
0000
1000
0100
0010
,
0001
0001
0002
0000
,
0003
0000
0000
0000
,
1001
0000
0000
0000
,
0000
0001
0010
0100
,
1000
1000
2000
0000
,
3000
0000
0001
1000
,
0110
0000
0000
0000
,
0000
0000
0000
0000
,
0100
0000
0010
0000
,
1000
0000
0001
0010
,
0001
1000
0100
1000
,
0010
0000
0100
0010
,
1000
0001
0010
0001
,
0000
0000
0100
0001
,
1000
0100
1000
0001
,
0000
0000
0100
0010
,
1000
0001
0010
0001
,
0000
0000
0000
1000
,
0001
0000
1000
0000
,
0010
1000
0010
0000
,
0100
0000
0001
0000
,
1000
0000
0100
1000
,
0010
0000
0010
0000
,
0010
0000
0100
0010
,
1000
0000
0001
0000
,
1000
0000
0001
0100
,
0010
1000
0100
0000
,
0010
0000
0100
0010
,
0001
0000
1000
0000
,
0100
0000
1000
0010
,
0100
0000
0010
0000
,
1000
0000
0001
0000
,
1000
0000
0001
0000
,
0100
0010
1000
0001
;

//---------------dance-single - ----------------
#NOTEDATA:;
#CHARTNAME:;
#STEPSTYPE:dance-single;
#DESCRIPTION:;
#CHARTSTYLE:;
#DIFFICULTY:Medium;
#METER:5;
#RADARVALUES:0.294113,0.392836,0.064590,0.104958,0.000000,255.000000,247.000000,8.000000,13.000000,0.000000,0.000000,0.000000,0.000000,0.000000,0.294113,0.392836,0.064590,0.104958,0.000000,255.000000,247.000000,8.000000,13.000000,0.000000,0.000000,0.000000,0.000000,0.000000;
#CREDIT:;
#NOTES:
0000
0000
0000
0000
,
0000
0001
0100
0001
0100
0001
0000
0000
,
0000
1000
0010
1000
0010
1000
0000
0000
,
0000
0001
0100
0001
0010
0001
0010
0001
,
0000
0010
0100
0010
0100
1000
0100
1000
,
0000
0001
1000
0001
1000
0001
0000
0000
,
0000
0100
0010
0100
0010
0100
0000
0000
,
0000
0001
0100
0001
0010
0001
0010
0001
,
0000
1000
0010
1000
0010
0100
0010
0100
,
0000
0000
0000
0001
0000
1000
0000
0200
,
0000
0000
0000
0000
0000
1300
0100
1000
,
0000
0001
1000
0000
0010
0100
0000
0010
,
0000
1000
0000
0002
0000
0000
0013
0001
,
0000
0000
0000
0100
0000
0010
0000
0200
,
0000
0000
0000
0000
0000
0000
0310
1000
,
0000
0001
0000
1000
0000
0100
0000
1000
,
0000
0010
0100
0000
0001
0000
0000
2000
,
0000
3000
0000
0000
0000
0000
0000
0000
,
0000
0000
0000
0000
,
0001
0000
1000
0000
0010
0000
1000
0100
,
0100
1000
0001
0010
,
0001
0100
0001
0000
0100
0000
0010
0000
,
1000
0100
0010
0100
,
1000
0001
1000
0000
0010
0000
1000
0000
,
0100
1000
0001
0100
,
0010
0100
0010
0000
0001
0000
0010
0000
,
1000
0001
0010
0100
,
0010
0100
0010
0000
1000
0000
0010
0001
,
0000
0000
0000
0000
,
2002
0000
0000
0000
,
3003
0001
0010
0100
,
0110
0011
0202
0000
,
0303
0000
0000
0000
,
2002
0000
0000
0000
,
3003
1000
0001
0010
,
0011
1100
0012
0000
,
0003
0000
0000
1000
0002
0000
2003
0000
,
3100
0000
0000
0000
,
0000
0000
0000
0000
,
0001
0000
0010
0000
0001
0000
0100
0010
,
0010
0000
0000
0100
0010
0000
1000
0000
,
0001
0010
0001
0000
0010
0000
0001
0000
,
1000
0100
1000
0010
,
0100
0010
0100
0000
0010
0000
1000
0001
,
0000
0000
0000
1000
0001
0000
0010
0000
,
0100
0010
0001
0000
0100
0000
0010
0000
,
1000
0001
0010
0100
,
0010
0001
0100
0000
0010
0000
1000
0001
,
0000
0000
0000
0000
1000
0000
0001
0100
,
0000
0001
0010
0000
0100
0010
0100
0000
,
0010
0000
0001
1000
0000
1000
0001
0000
,
0100
0000
0001
0000
0010
0000
0001
1000
,
0000
0001
0000
0000
1000
0000
0001
0100
,
0010
0000
0000
0010
0000
0000
0000
0010
,
0000
0000
0100
0010
,
1000
0001
0010
0001
,
1000
0000
0001
1000
,
0010
0000
1000
0010
0000
0100
0001
0010
,
0100
0010
0000
0000
0100
0010
0001
0000
,
1000
0000
0001
0000
0100
0000
0001
0010
,
0000
0100
0000
0000
0010
0000
0000
0001
,
0000
0000
0000
0000
1000
0001
0000
0100
,
0000
0000
0000
0000
0010
0100
0000
0000
,
0010
1000
0001
0010
,
0000
0100
0010
0001
1000
0001
1000
0001
;

//---------------dance-single - ----------------
#NOTEDATA:;
#CHARTNAME:;
#STEPSTYPE:dance-single;
#DESCRIPTION:;
#CHARTSTYLE:;
#DIFFICULTY:Beginner;
#METER:1;
#RADARVALUES:0.091117,0.156226,0.024221,0.000000,0.000000,79.000000,76.000000,3.000000,0.000000,0.000000,0.000000,0.000000,0.000000,0.000000,0.091117,0.156226,0.024221,0.000000,0.000000,79.000000,76.000000,3.000000,0.000000,0.000000,0.000000,0.000000,0.000000,0.000000;
#CREDIT:;
#NOTES:
// measure 0
0000
0000
0000
0000
,  // measure 1
0000
0010
0000
0000
,  // measure 2
0000
0010
0000
0000
,  // measure 3
0000
0010
0000
0000
,  // measure 4
0000
0010
0000
0000
,  // measure 5
0000
0100
0000
0000
,  // measure 6
0000
0100
0000
0000
,  // measure 7
0000
0100
0000
0000
,  // measure 8
0000
0100
0000
0000
,  // measure 9
0000
0000
0001
0000
,  // measure 10
0000
0000
0000
1000
,  // measure 11
0000
0001
0000
0000
,  // measure 12
0100
0000
0000
0000
,  // measure 13
0010
0000
0000
0000
,  // measure 14
0000
0000
0000
1000
,  // measure 15
0000
0001
0000
0000
,  // measure 16
0100
0000
0000
0000
,  // measure 17
1001
0000
0000
0000
,  // measure 18
0000
0000
0000
0000
,  // measure 19
1000
0000
1000
0000
,  // measure 20
1000
0000
0000
0000
,  // measure 21
0010
0000
0000
0000
,  // measure 22
0100
0000
0000
0000
,  // measure 23
0001
0000
0000
0000
,  // measure 24
0000
0000
0001
0001
,  // measure 25
1000
0000
0000
0000
,  // measure 26
0010
0000
0000
0000
,  // measure 27
1000
0000
0000
0000
,  // measure 28
0100
0000
0000
0000
,  // measure 29
1001
0000
0000
0000
,  // measure 30
0000
0000
0000
0000
,  // measure 31
0010
0010
0010
0000
,  // measure 32
0000
0000
0000
0000
,  // measure 33
0110
0000
0000
0000
,  // measure 34
0000
0001
0000
0001
,  // measure 35
1000
1000
1000
0000
,  // measure 36
0000
0000
0010
0100
,  // measure 37
0010
0000
0000
0000
,  // measure 38
0000
0000
0000
0000
,  // measure 39
1000
0000
1000
0000
,  // measure 40
1000
0000
0000
0000
,  // measure 41
0001
0000
0000
0000
,  // measure 42
0001
0000
0000
0000
,  // measure 43
0100
0000
0100
0000
,  // measure 44
0100
0000
0000
0000
,  // measure 45
0010
0000
0000
0000
,  // measure 46
0010
0000
0000
0000
,  // measure 47
0010
0000
0010
0000
,  // measure 48
0010
0000
0000
0000
,  // measure 49
1000
0000
0000
0000
,  // measure 50
0001
0000
0000
0000
,  // measure 51
0100
0000
0100
0000
,  // measure 52
0100
0000
0000
0000
,  // measure 53
0010
0000
0000
0000
,  // measure 54
0010
0000
0000
0000
,  // measure 55
1000
0000
0001
0000
,  // measure 56
1000
0000
0000
0000
,  // measure 57
0010
0000
0000
0000
,  // measure 58
0100
0000
0000
0000
,  // measure 59
0010
0000
1000
0000
,  // measure 60
0001
0000
0000
0000
,  // measure 61
1000
0000
0000
0000
,  // measure 62
0001
0000
0000
0000
,  // measure 63
0100
0000
0010
0000
,  // measure 64
1000
0000
0010
0000
;
