#VERSION:0.83;
#TITLE:Don't Worry;
#SUBTITLE:;
#ARTIST:Ace Wilder;
#TITLETRANSLIT:;
#SUBTITLETRANSLIT:;
#ARTISTTRANSLIT:;
#GENRE:Dance-pop;
#ORIGIN:;
#CREDIT:;
#BANNER:[Wind Jammers] - Don't Worry.png;
#BACKGROUND:[Wind Jammers] - Don't Worry-bg.png;
#PREVIEWVID:;
#JACKET:[Wind Jammers] - Don't Worry-jacket.png;
#CDIMAGE:;
#DISCIMAGE:;
#LYRICSPATH:;
#CDTITLE:cdtitle.png;
#MUSIC:[Wind Jammers] - Don't Worry.ogg;
#OFFSET:-0.071000;
#SAMPLESTART:64.390999;
#SAMPLELENGTH:15.000000;
#SELECTABLE:YES;
#BPMS:0.000=125.000;
#STOPS:;
#DELAYS:;
#WARPS:;
#TIMESIGNATURES:0.000=4=4;
#TICKCOUNTS:0.000=4;
#COMBOS:0.000=1;
#SPEEDS:0.000=1.000=0.000=0;
#SCROLLS:0.000=1.000;
#FAKES:;
#LABELS:0.000=Song Start;
#BGCHANGES:;
#KEYSOUNDS:;
#ATTACKS:
;

//---------------dance-single - ----------------
#NOTEDATA:;
#CHARTNAME:;
#STEPSTYPE:dance-single;
#DESCRIPTION:;
#CHARTSTYLE:;
#DIFFICULTY:Beginner;
#METER:1;
#RADARVALUES:0.124435,0.153073,0.025619,0.008540,0.000000,102.000000,99.000000,3.000000,1.000000,0.000000,0.000000,0.000000,0.000000,0.000000,0.124435,0.153073,0.025619,0.008540,0.000000,102.000000,99.000000,3.000000,1.000000,0.000000,0.000000,0.000000,0.000000,0.000000;
#CREDIT:;
#NOTES:
0000
0000
0000
0000
,
0000
0000
0000
0000
,
1000
0000
0000
0000
,
1000
0000
0000
0000
,
0001
0000
0100
0000
,
0100
0000
0000
0000
,
0001
0000
0000
0000
,
0001
0000
0000
0000
,
1000
0000
0010
0000
,
0010
0000
0000
0000
,
1000
0000
1000
0000
,
0001
0000
0001
0000
,
0100
0000
0100
0000
,
0001
0000
0000
0000
,
0001
0000
0001
0000
,
1000
0000
1000
0000
,
0010
0000
0010
0000
,
1000
0000
0000
0000
,
0001
0000
0000
0000
,
0100
0000
0100
0000
,
0100
0000
0000
0000
,
0010
0000
0010
0000
,
0010
0000
0000
0000
,
1000
0000
1000
0000
,
1000
0000
0000
0000
,
0001
0000
0000
0000
,
1000
0000
0000
0010
,
0010
0000
0000
0100
,
0100
0000
0000
0001
,
0001
0000
0000
0000
,
0001
0000
0000
0100
,
0100
0000
0000
0010
,
0010
0000
0000
1000
,
1000
0000
0000
0000
,
1001
0000
0000
0001
,
0001
0000
0000
0100
,
0100
0000
0000
0010
,
0010
0000
1000
0000
,
1001
0000
0000
1000
,
1000
0000
0000
0010
,
0010
0000
0000
0100
,
0100
0000
0001
0000
,
1000
0000
0000
0001
,
0001
0000
0000
0010
,
0010
0000
0000
0100
,
0100
0000
0000
0000
,
1000
0000
0000
0001
,
0001
0000
0000
0100
,
0100
0000
0000
0010
,
0010
0000
0020
0000
,
0000
0000
0030
0000
,
1000
0000
0000
0001
,
0001
0000
0000
0010
,
0010
0000
0000
0100
,
0100
0000
1000
0000
,
1001
0000
0000
1000
,
1000
0000
0000
0100
,
0100
0000
0000
0010
,
0010
0000
0001
0000
,
1000
0000
0100
0100
;

//---------------dance-single - ----------------
#NOTEDATA:;
#CHARTNAME:;
#STEPSTYPE:dance-single;
#DESCRIPTION:;
#CHARTSTYLE:;
#DIFFICULTY:Easy;
#METER:3;
#RADARVALUES:0.192752,0.204524,0.034159,0.102476,0.000000,158.000000,154.000000,4.000000,12.000000,0.000000,0.000000,0.000000,0.000000,0.000000,0.192752,0.204524,0.034159,0.102476,0.000000,158.000000,154.000000,4.000000,12.000000,0.000000,0.000000,0.000000,0.000000,0.000000;
#CREDIT:;
#NOTES:
// measure 0
0000
0000
0000
0000
,  // measure 1
0000
0000
0000
0000
,  // measure 2
2000
0000
3000
0001
,  // measure 3
0002
0000
0003
1000
,  // measure 4
1000
0000
0010
0100
,  // measure 5
0001
0000
1000
0000
,  // measure 6
0002
0000
0003
1000
,  // measure 7
2000
0000
3000
0001
,  // measure 8
0001
0000
0010
0100
,  // measure 9
1000
0000
0001
0000
,  // measure 10
1000
0010
0100
0000
,  // measure 11
0001
0100
0010
0000
,  // measure 12
1000
0000
0001
0100
,  // measure 13
0001
0000
1000
0000
,  // measure 14
0001
0010
0100
0000
,  // measure 15
1000
0100
0010
0000
,  // measure 16
0001
0000
1000
0100
,  // measure 17
1000
0000
0001
0000
,  // measure 18
1000
0000
0010
0100
,  // measure 19
0002
0000
1003
0000
,  // measure 20
0001
0000
0010
0100
,  // measure 21
2000
0000
3001
0000
,  // measure 22
1000
0010
0100
0010
,  // measure 23
2000
0000
3001
0000
,  // measure 24
0001
0010
0100
0010
,  // measure 25
0002
0000
1003
0000
,  // measure 26
1000
0000
0010
1000
,  // measure 27
0001
0000
0010
0001
,  // measure 28
1000
0000
0100
1000
,  // measure 29
0001
0000
1000
0000
,  // measure 30
0001
0000
0010
0001
,  // measure 31
1000
0000
0010
1000
,  // measure 32
0001
0000
0100
0001
,  // measure 33
0020
0000
0000
0030
,  // measure 34
1001
0000
1000
0010
,  // measure 35
0001
0000
0001
0010
,  // measure 36
1000
0000
0100
0010
,  // measure 37
0001
0000
1000
0000
,  // measure 38
1001
0000
0001
0010
,  // measure 39
1000
0000
1000
0010
,  // measure 40
0001
0000
0100
0010
,  // measure 41
1000
0000
0001
0000
,  // measure 42
2000
0000
3001
0000
,  // measure 43
1000
0010
0100
0000
,  // measure 44
0001
0000
0100
0000
,  // measure 45
0010
1000
0001
0000
,  // measure 46
0002
0000
1003
0000
,  // measure 47
0001
0010
0100
0000
,  // measure 48
1000
0000
0100
0000
,  // measure 49
0010
0001
0200
0000
,  // measure 50
0000
0300
1001
0000
,  // measure 51
0001
0000
1000
0100
,  // measure 52
0001
0000
0001
0100
,  // measure 53
1000
0000
1000
0010
,  // measure 54
0001
0000
0010
1000
,  // measure 55
1001
0000
0001
0100
,  // measure 56
1000
0000
1000
0100
,  // measure 57
0001
0000
0001
0010
,  // measure 58
1000
0000
0010
0001
,  // measure 59
1000
0000
0000
0000
0001
0000
0100
0100
;

//---------------dance-single - ----------------
#NOTEDATA:;
#CHARTNAME:;
#STEPSTYPE:dance-single;
#DESCRIPTION:;
#CHARTSTYLE:;
#DIFFICULTY:Medium;
#METER:5;
#RADARVALUES:0.322066,0.306786,0.025619,0.162253,0.000000,264.000000,261.000000,3.000000,19.000000,0.000000,0.000000,0.000000,0.000000,0.000000,0.322066,0.306786,0.025619,0.162253,0.000000,264.000000,261.000000,3.000000,19.000000,0.000000,0.000000,0.000000,0.000000,0.000000;
#CREDIT:;
#NOTES:
// measure 0
0000
0000
0000
0000
,  // measure 1
0000
0000
0000
0000
,  // measure 2
2000
0010
3010
1000
,  // measure 3
0002
0100
0103
0001
,  // measure 4
1000
0000
0100
1000
0100
0000
0010
0000
,  // measure 5
0001
0100
0010
1000
,  // measure 6
0002
0010
0013
0001
,  // measure 7
2000
0100
3100
1000
,  // measure 8
0001
0000
0100
0001
0100
0000
0010
0000
,  // measure 9
1000
0100
0010
0001
,  // measure 10
1000
0100
1000
0000
0001
0000
0100
0000
,  // measure 11
0001
0010
0001
0000
1000
0000
0010
0000
,  // measure 12
1000
0100
1000
0000
0001
0000
0100
0000
,  // measure 13
0010
1000
0100
0010
,  // measure 14
0001
0100
0001
0000
1000
0000
0100
0000
,  // measure 15
1000
0010
1000
0000
0001
0000
0010
0000
,  // measure 16
0001
0100
0001
0000
1000
0000
0100
0000
,  // measure 17
0010
0001
0100
0010
,  // measure 18
1000
0010
0000
1000
0010
0000
0100
0000
,  // measure 19
0001
0010
1000
0100
,  // measure 20
0001
0010
0000
0001
0010
0000
0100
0000
,  // measure 21
1000
0010
0001
0100
,  // measure 22
1000
0000
0001
0100
0001
0000
1000
0000
,  // measure 23
0010
0100
0001
1000
,  // measure 24
0001
0000
1000
0100
1000
0000
0001
0000
,  // measure 25
0010
0100
1000
0001
,  // measure 26
2000
0010
3010
1000
,  // measure 27
0002
0010
0013
0001
,  // measure 28
2000
0100
3100
1000
,  // measure 29
0001
0100
0001
0000
1000
0100
1000
0000
,  // measure 30
0002
0010
0013
0001
,  // measure 31
2000
0010
3010
1000
,  // measure 32
0002
0100
0103
0001
,  // measure 33
2000
0001
0001
3001
,  // measure 34
1001
1000
0010
0100
,  // measure 35
0001
0010
0001
0000
1000
0010
1000
0000
,  // measure 36
0001
0100
0010
1000
,  // measure 37
0001
0100
0001
0000
1000
0100
1000
0000
,  // measure 38
1001
0001
0010
0100
,  // measure 39
1000
0010
1000
0000
0001
0010
0001
0000
,  // measure 40
1000
0100
0010
0001
,  // measure 41
1000
0100
1000
0000
0001
0100
0001
0000
,  // measure 42
2000
0001
3001
1000
,  // measure 43
0001
0100
0001
0000
1000
0000
0001
0000
,  // measure 44
2000
0010
3020
0100
,  // measure 45
0230
0001
0301
1000
,  // measure 46
0002
1000
1003
0001
,  // measure 47
1000
0100
1000
0000
0001
0000
1000
0000
,  // measure 48
0001
0000
1000
0010
1000
0000
0001
0000
,  // measure 49
1000
0001
0100
0020
,  // measure 50
0000
0030
2002
3003
,  // measure 51
1000
0000
0001
0010
0001
0000
0100
0000
,  // measure 52
0001
0000
1000
0010
1000
0000
0100
0000
,  // measure 53
1000
0000
0001
0100
0001
0000
1000
0000
,  // measure 54
0001
0100
0010
1000
,  // measure 55
0001
0000
1000
0010
1000
0000
0100
0000
,  // measure 56
1000
0000
0001
0010
0001
0000
0100
0000
,  // measure 57
0001
0000
1000
0100
1000
0000
0001
0000
,  // measure 58
1000
0100
0010
0001
,  // measure 59
1000
0000
0010
0000
0100
0000
0001
1000
;

//---------------dance-single - ----------------
#NOTEDATA:;
#CHARTNAME:;
#STEPSTYPE:dance-single;
#DESCRIPTION:;
#CHARTSTYLE:;
#DIFFICULTY:Hard;
#METER:8;
#RADARVALUES:0.473340,0.613573,0.051238,0.333046,0.268999,388.000000,382.000000,6.000000,39.000000,0.000000,0.000000,0.000000,0.000000,0.000000,0.473340,0.613573,0.051238,0.333046,0.268999,388.000000,382.000000,6.000000,39.000000,0.000000,0.000000,0.000000,0.000000,0.000000;
#CREDIT:;
#NOTES:
// measure 0
0000
0000
0000
0000
,  // measure 1
0000
0000
0000
0000
,  // measure 2
2000
0000
0000
0010
0000
3010
0000
0000
1000
0000
0000
0000
0001
0000
0010
0000
,  // measure 3
0002
0000
0000
0100
0000
0103
0000
0000
0001
0000
0000
0000
1000
0000
0100
0000
,  // measure 4
0001
0000
0001
0100
1000
0000
1000
0010
,  // measure 5
0100
0000
0001
0010
0100
1000
0010
0100
,  // measure 6
0002
0000
0010
0000
0000
0013
0000
0000
0001
0000
0000
0000
1000
0000
0010
0000
,  // measure 7
2000
0000
0100
0000
0000
3100
0000
0000
1000
0000
0000
0000
0001
0000
0100
0000
,  // measure 8
1000
0000
1000
0100
0001
0000
0001
0010
,  // measure 9
0100
0000
1000
0010
0100
0001
0100
0010
,  // measure 10
1000
0100
0001
0100
1000
0000
0010
0100
,  // measure 11
0001
0010
1000
0010
0001
0000
0100
0010
,  // measure 12
1000
0100
0001
0000
0001
0100
1000
0000
,  // measure 13
1000
0010
0001
0010
1000
0000
0100
0010
,  // measure 14
0001
0100
1000
0100
0001
0000
0010
0100
,  // measure 15
1000
0010
0001
0010
1000
0000
0100
0010
,  // measure 16
0001
0100
1000
0000
1000
0100
0001
0000
,  // measure 17
0001
0010
1000
0010
0001
0100
0010
0000
,  // measure 18
2000
0000
3100
0020
0000
0031
1000
0000
,  // measure 19
0001
0100
1000
0100
0002
0000
0013
0000
,  // measure 20
0002
0000
0103
0020
0000
1030
0001
0000
,  // measure 21
1000
0100
0001
0100
2000
0000
3010
0000
,  // measure 22
1000
0001
0010
0100
2000
0000
3001
0000
,  // measure 23
0001
1000
0010
0100
0002
0000
1003
0000
,  // measure 24
0001
0010
1000
0010
0001
0100
0010
0000
,  // measure 25
1000
0010
0001
0010
1000
0100
0010
0000
,  // measure 26
0001
0000
0000
0100
0000
0001
0000
0000
2000
0000
0000
0000
3010
0000
0000
0000
,  // measure 27
1000
0000
0000
0100
0000
1000
0000
0000
0002
0000
0000
0000
0013
0000
0000
0000
,  // measure 28
0001
0000
0000
0100
0000
0010
0000
0000
2000
0000
0000
0000
3001
0000
0000
0000
,  // measure 29
1000
0010
0001
0000
0001
0010
1000
0100
,  // measure 30
1000
0000
0000
0001
0000
0100
0000
0001
2000
0000
0000
0000
3001
0000
0010
0000
,  // measure 31
0001
0000
0000
1000
0000
0100
0000
1000
0002
0000
0000
0000
1003
0000
0010
0000
,  // measure 32
0100
0010
1000
0001
0010
0100
0010
0001
,  // measure 33
1000
0100
1000
0100
1000
0100
0010
0001
0010
0001
0010
0001
1000
0000
0001
0000
,  // measure 34
1001
0000
0000
1000
0000
0100
0000
0010
0200
0000
0000
0000
1300
0000
0001
0000
,  // measure 35
0100
1000
0100
0001
2000
0000
3100
0010
,  // measure 36
0001
0000
0000
1000
0000
0010
0000
0100
0020
0000
0000
0000
1030
0000
0001
0000
,  // measure 37
0010
1000
0010
0001
1000
0000
0110
0000
,  // measure 38
1001
0000
0000
0001
0000
0100
0000
0010
0200
0000
0000
0000
0301
0000
1000
0000
,  // measure 39
0100
0001
0100
1000
0002
0000
0103
0010
,  // measure 40
1000
0000
0000
0001
0000
0010
0000
0100
0020
0000
0000
0000
0031
0000
1000
0000
,  // measure 41
0010
0001
0010
1000
0001
0010
0100
1000
,  // measure 42
0002
0000
0103
0010
2000
0000
3001
0000
,  // measure 43
1000
0100
0001
0100
2000
0000
3010
0000
,  // measure 44
1000
0000
0001
0100
1000
0000
1000
0100
,  // measure 45
0001
0000
0001
0010
1000
0010
0001
0000
,  // measure 46
2000
0000
3100
0010
0002
0000
1003
0000
,  // measure 47
0001
0100
1000
0100
0002
0000
0013
0000
,  // measure 48
0001
0010
1000
0010
0001
0010
0100
0000
,  // measure 49
1000
0010
0001
0010
1000
0010
0200
0000
,  // measure 50
0000
0300
2002
3003
,  // measure 51
0001
0000
0000
1000
0000
0010
0000
1000
0002
0000
0000
0000
0103
0000
0010
0000
,  // measure 52
1000
0000
0000
0001
0000
0010
0000
0001
2000
0000
0000
0000
3100
0000
0010
0000
,  // measure 53
0001
0000
0000
1000
0000
0100
0000
1000
0002
0000
0000
0000
0013
0000
0100
0000
,  // measure 54
1000
0000
0010
1000
0000
0001
0000
0100
0001
0000
0010
0000
0100
0000
1000
0000
,  // measure 55
1001
0000
0000
0001
0000
0010
0000
0100
2000
0000
0000
0000
3010
0000
1000
0000
,  // measure 56
0001
0000
0000
1000
0000
0010
0000
0100
0002
0000
0000
0000
0013
0000
0001
0000
,  // measure 57
1000
0000
0000
0001
0000
0100
0000
0010
2000
0000
0000
0000
3001
0000
1000
0000
,  // measure 58
0001
0000
0010
0001
0000
1000
0000
0100
1000
0000
0010
0000
0100
0000
0001
0000
,  // measure 59
1000
0000
0000
0001
0000
0010
0000
0001
2000
0000
0000
0000
3001
0000
1001
0000
;
