#TITLE:Cumbia Cienaguera;
#SUBTITLE:;
#ARTIST:Alex Guesta;
#TITLETRANSLIT:;
#SUBTITLETRANSLIT:;
#ARTISTTRANSLIT:;
#CREDIT:KevinRocker10;
#BANNER:Cumbia Cienaguera.png;
#BACKGROUND:Cumbia Cienaguera - bg.png;
#LYRICSPATH:;
#CDTITLE:cdtitle.png;
#MUSIC:Cumbia Cienaguera.ogg;
#OFFSET:-0.022;
#SAMPLESTART:46.842;
#SAMPLELENGTH:14.920;
#SELECTABLE:YES;
#BPMS:0.000=123.000,64.000=61.500,80.000=123.000;
#STOPS:;
#BGCHANGES:;

//---------------dance-single - Pilgrimsito----------------
#NOTES:
     dance-single:
     Pilgrimsito:
     Hard:
     10:
     0.722,1.000,0.430,0.540,0.937: // measure 1
0000
0000
0000
0000
,  // measure 2
0000
0000
0000
0000
,  // measure 3
0000
0000
0000
0000
,  // measure 4
0000
0000
0000
0000
,  // measure 5
0001
0100
0000
0100
0010
0000
0100
0000
0001
1000
0000
1000
0010
0000
0100
0000
,  // measure 6
0001
0010
0000
0010
0100
0000
0010
0000
0001
0100
0000
0100
0010
1000
0010
1000
,  // measure 7
0010
0100
0000
0100
0001
0000
1000
0000
0100
0010
0000
0010
0100
0000
1000
0000
,  // measure 8
102M
0000
0M02
0003
M200
0300
200M
3030
,  // measure 9
1001
0000
0000
1000
0010
0000
0100
0000
1001
0000
0000
0001
0100
0000
0010
0000
,  // measure 10
1001
0000
0000
1000
0100
0000
0010
0000
1001
0000
0000
0001
0010
0100
0010
0000
,  // measure 11
0011
0000
0000
0100
1000
0000
0001
0000
0101
0000
0000
0010
1000
0000
0100
0000
,  // measure 12
1100
0000
0000
0010
0001
0000
0100
0000
0110
0000
0000
0001
0010
0001
0100
0000
,  // measure 13
1001
0000
0000
0001
0100
0000
0010
0000
1001
0000
0000
1000
0010
0000
0100
0000
,  // measure 14
1001
0000
0000
0001
0010
0000
0100
0000
1001
0000
0000
1000
0100
0010
0100
0000
,  // measure 15
1100
0000
0000
0010
0001
0000
1000
0000
1010
0000
0000
0100
0001
0000
0010
0000
,  // measure 16
0022
0000
0000
0033
2002
0000
0000
3003
2020
0000
0000
3030
0220
0000
0000
0330
,  // measure 17
M101
0000
0000
0010
0000
0000
0010
0000
1M00
0000
0000
0001
0000
0000
0001
0000
M100
0000
0000
0010
0000
0000
0010
0000
M100
0000
0000
0001
0000
0000
0001
0000
,  // measure 18
10M0
0000
0100
0000
0001
0000
0100
2000
000M
0000
0000
3020
0000
0000
0130
0000
M001
0000
0010
0000
0100
0000
0010
0002
0M00
0000
0000
0000
0103
0000
1000
0200
,  // measure 19
000M
0000
0000
0310
2000
0000
3001
0020
0M00
0000
0000
0032
0000
0000
0103
0000
M010
0000
0001
0000
0010
0000
0100
0002
00M0
0000
0000
0000
0003
0000
1000
0100
,  // measure 20
001M
0000
0100
0000
1000
0010
1000
0010
0100
0001
0100
0001
0010
0100
0010
0100
1000
0001
1000
0001
0100
0010
0100
0010
1000
0100
1000
0100
0010
0001
0010
0001
,  // measure 21
10M1
0000
1000
0000
0010
0000
0100
0000
0001
0010
0000
0101
0000
0001
1000
0000
,  // measure 22
0100
0000
1000
0000
0001
0000
0100
0002
0000
0000
0000
0010
0000
0000
0013
0000
,  // measure 23
0001
0000
1000
0000
0100
0000
0010
0000
0100
1000
0000
0110
0000
0001
0010
0000
,  // measure 24
0001
0000
0100
0000
0010
0000
1000
0200
0000
0000
0000
0010
0000
0000
0310
0000
,  // measure 25
0001
0000
1000
0000
0100
0000
0010
0000
0001
0100
0000
0011
0000
0001
1000
0000
,  // measure 26
0010
0000
1000
0000
0001
0000
0010
0002
0000
0000
0000
0100
0000
0000
0103
0000
,  // measure 27
0001
0000
1000
0000
0010
0000
0100
0000
0010
1000
0000
0110
0000
0001
0100
0000
,  // measure 28
0001
0000
0010
0000
0100
0000
1000
0020
0000
0000
0000
0100
0000
0000
0130
0000
,  // measure 29
0001
0010
0000
0010
0000
0000
MMMM
0000
1000
0010
0000
0010
0200
0000
0300
0000
,  // measure 30
0001
1000
0000
0001
1000
0000
0100
0000
1000
0010
0000
0100
0001
0010
0100
0010
,  // measure 31
0001
0100
M00M
0100
2000
0000
3000
0000
1000
0100
M00M
0100
0002
0000
0003
0000
,  // measure 32
0220
0000
0000
0330
2002
0000
0000
3003
0220
0000
0000
0330
0000
MMMM
0000
0000
,  // measure 33
1000
0000
0000
0010
0000
0000
0000
0000
0000
1000
0000
0000
0100
0000
0000
0000
0100
0000
0000
0000
0100
0000
0000
0000
1000
0000
0000
0001
0000
0000
0000
0000
0000
0100
0000
0000
0010
0000
0000
0000
0000
0000
0100
0000
0000
0000
0000
0000
,  // measure 34
0001
0000
0000
0010
0000
0000
0000
0000
0000
0100
0000
0000
1000
0000
0000
0000
1000
0000
0000
0000
1000
0000
0000
0000
0010
0000
0000
0100
0000
0000
0000
0000
0000
0001
0000
0000
1000
0000
0000
0000
0000
0000
0100
0000
0000
0000
0000
0000
,  // measure 35
0001
0000
0000
0100
0000
0000
0000
0000
0000
0010
0000
0000
0001
0000
0000
0000
0001
0000
0000
0000
0001
0000
0000
0000
0100
0000
0000
0010
0000
0000
0000
0000
0000
1000
0000
0000
0100
0000
0000
0000
0000
0000
1000
0000
0000
0000
0000
0000
,  // measure 36
1010
0000
0000
1100
0000
0000
1001
0000
0200
0000
0320
0000
2030
0000
3000
0000
,  // measure 37
0001
0000
0000
0100
0000
0000
0000
0000
0000
0001
0000
0000
0010
0000
0000
0000
0010
0000
0000
0000
0010
0000
0000
0000
0001
0000
0000
1000
0000
0000
0000
0000
0000
0010
0000
0000
0100
0000
0000
0000
0000
0000
0010
0000
0000
0000
0000
0000
,  // measure 38
1000
0000
0000
0100
0000
0000
0000
0000
0000
0010
0000
0000
0001
0000
0000
0000
0001
0000
0000
0000
0001
0000
0000
0000
0100
0000
0000
0010
0000
0000
0000
0000
0000
1000
0000
0000
0001
0000
0000
0000
0000
0000
0010
0000
0000
0000
0000
0000
,  // measure 39
1000
0000
0000
0010
0000
0000
0000
0000
0000
0100
0000
0000
1000
0000
0000
0000
1000
0000
0000
0000
1000
0000
0000
0000
0010
0000
0000
0100
0000
0000
0000
0000
0000
0001
0000
0000
0010
0000
0000
0000
0000
0000
0001
0000
0000
0000
0000
0000
,  // measure 40
0101
0000
0000
0011
0000
0000
1001
0000
1010
0000
0000
0101
0000
0000
0110
0000
,  // measure 41
0001
0100
0000
0001
0020
0000
0000
0000
0230
0000
2300
0000
3020
0000
2030
0000
,  // measure 42
3100
0100
0000
2010
0000
0000
3002
0000
0103
0100
0000
1020
0000
0000
0230
0000
,  // measure 43
0301
0000
0002
0000
0000
0003
1001
0000
0000
0000
0000
0000
MMMM
0000
0000
0000
0010
0000
0020
0000
0000
0030
0110
0000
0000
0000
0000
0000
MMMM
0000
0000
0000
,  // measure 44
0001
0000
0002
0000
0000
0003
0101
0000
0000
0000
0000
0000
MMMM
0000
0000
0000
1000
0000
2000
0000
0000
3000
1100
0000
0000
0000
0000
0000
MMMM
0000
0000
0000
,  // measure 45
0001
0100
0000
0001
0020
0000
0000
0000
2030
0000
3020
0000
0230
0000
2300
0000
,  // measure 46
3001
0001
0000
0210
0000
0000
0302
0000
0013
0010
0000
2001
0000
0000
3020
0000
,  // measure 47
0130
0000
0002
0000
0000
0003
1001
0000
0000
0000
0000
0000
MMMM
0000
0000
0000
0100
0000
0200
0000
0000
0300
0110
0000
0000
0000
0000
0000
MMMM
0000
0000
0000
,  // measure 48
0001
0000
0002
0000
0000
0003
0011
0000
0000
0000
0000
0000
MMMM
0000
0000
0000
1000
0000
2000
0000
0000
3000
1010
0000
0000
0000
0000
0000
MMMM
0000
0000
0000
,  // measure 49
1000
0100
0000
0100
0010
0000
0100
0000
1000
0001
0000
0001
0010
0000
0100
0000
,  // measure 50
1000
0010
0000
0010
0100
0000
0010
0000
1000
0100
0000
0100
0010
0001
0010
0001
,  // measure 51
0010
0100
0000
0100
1000
0000
0001
0000
0100
0010
0000
0010
0100
0000
0001
0000
,  // measure 52
1000
0010
0000
0010
0100
0000
0001
0000
0010
0001
0000
0001
0100
0010
0100
0010
,  // measure 53
1000
0001
0000
0001
0010
0000
0100
0000
1000
0001
0000
0001
0100
0000
0010
0000
,  // measure 54
1000
0100
0000
0100
0010
0000
0100
0000
1000
0010
0000
0010
0100
0001
0100
0001
,  // measure 55
0100
0010
0000
0010
1000
0000
0001
0000
0010
0100
0000
0100
0010
0000
0001
0000
,  // measure 56
0101
0000
0000
0100
0000
0000
1000
0000
0100
0001
0000
1000
0010
1000
0001
1000
,  // measure 57
2200
0000
0000
3300
0000
0000
0000
0000
;
