#TITLE:Blissful Times;
#SUBTITLE:;
#ARTIST:zetoban;
#TITLETRANSLIT:;
#SUBTITLETRANSLIT:;
#ARTISTTRANSLIT:;
#GENRE:FM Techno Jazz;
#CREDIT:TiKAL;
#MUSIC:bliss.ogg;
#BANNER:[Wind Jammers] - Blissful Times.png;
#BACKGROUND:[Wind Jammers] - Blissful Times-bg.png;
#CDTITLE:cdtitle.png;
#SAMPLESTART:109.429;
#SAMPLELENGTH:24.151;
#SELECTABLE:YES;
#OFFSET:-0.750;
#BPMS:0.000=159.000;
#STOPS:;
#BGCHANGES:;
#FGCHANGES:;

//--------------- dance-single - TiKAL ----------------
#NOTES:
     dance-single:
     TiKAL:
     Hard:
     9:
     0,0,0,0,0:
0000
0000
0000
0000
,
0000
0000
0000
0000
,
0000
0000
0000
0000
,
0000
0000
0000
0000
,
0000
0000
0000
0000
,
0000
0000
0000
0000
,
0000
0000
0000
0000
,
0000
0000
0000
0000
,
1001
0000
0000
0000
1000
0100
1000
0000
0000
0000
0001
0000
0100
0001
1000
0010
,
0100
0001
1000
0100
0010
0000
0001
0000
1000
0000
0001
0000
0100
0000
0001
0000
,
1000
0000
0000
0000
0001
0100
0001
0000
0000
0000
1000
0000
0001
1000
0010
0100
,
0001
0000
1000
0000
0100
0000
1000
0001
0100
0000
0010
0000
0100
0000
0001
0000
,
0001
0000
0001
0000
1000
0010
1000
0000
0000
0000
0001
0000
0010
0001
1000
0100
,
0010
0001
1000
0010
0100
0000
0001
1000
0001
0000
0010
0000
0100
0000
0010
0000
,
0001
0000
0000
0000
1000
0100
1000
0000
0000
0000
0001
0000
1000
0001
0010
0100
,
1000
0100
1000
0001
1000
0010
0100
0001
,
1001
1000
0100
0010
0000
0010
0100
1000
,
0001
0001
0010
0001
0001
0001
1000
0001
,
0100
0010
1000
0001
0000
0001
1000
0010
,
0100
0100
0001
0100
0100
0100
0010
1000
,
0001
0000
0010
0000
0100
0000
0100
0000
0000
0000
1000
0100
1000
0000
0001
0000
,
1000
1000
0010
1000
1000
1000
0001
1000
,
0100
0010
0001
1000
0010
0100
0001
1000
,
0001
0010
0010
0100
1100
0000
0101
0000
,
1001
0000
1000
0100
0000
0001
0100
0000
,
1000
0100
0010
0001
0000
0001
1000
0000
,
0001
0000
0100
1000
0000
0100
0001
0000
,
1000
0000
0010
0001
0000
0010
1000
0000
,
0001
0010
0100
1000
0000
1000
0001
0000
,
1000
0000
0010
0001
0000
0010
1000
0000
,
0001
0100
0010
1000
0000
1000
0001
0000
,
1010
0000
0000
0011
0000
0000
0110
0000
,
1001
0000
0001
0100
0000
1000
0100
0000
,
0001
0100
0010
1000
0000
1000
0001
0000
,
1000
0000
0100
0001
0000
0100
1000
0000
,
0001
0000
0010
1000
0000
0010
0001
0000
,
1000
0010
0100
0001
0000
0001
1000
0000
,
0001
0000
0010
1000
0000
0010
0001
0000
,
1000
0100
0010
0001
0000
0001
2002
0000
,
0000
3003
1010
0011
,
1002
0000
0000
0000
0000
0000
0000
0000
0103
0000
0000
0100
0000
0000
0010
0000
,
1000
0000
0010
0000
1000
0000
0000
0000
0011
0000
0000
0001
0000
0000
1000
0000
,
0001
0000
0000
0100
0000
0000
0001
0000
1000
0000
0000
0100
0000
0000
1000
0000
,
0001
0000
0000
0010
0000
0000
0001
0000
1000
0000
0000
0000
0010
0000
0000
0000
,
2001
0000
0000
0000
0000
0000
0000
0000
3100
0000
0000
0100
0000
0000
0010
0000
,
0001
0000
0000
1000
0000
0000
0100
0000
1000
0000
0000
0001
0000
0000
0100
0000
,
0010
0000
0000
1000
0000
0000
0001
0000
0001
0000
0000
0001
0000
0000
1000
0000
,
0010
0000
0000
0100
0000
0000
0001
0000
1000
0000
0000
0000
0100
0000
0000
0000
,
2001
0000
0000
0000
0000
0000
0000
0000
3010
0000
0000
0010
0000
0000
0100
0000
,
0001
0000
0100
0000
0001
0000
0000
0000
1100
0000
0000
1000
0000
0000
0001
0000
,
1000
0000
0000
0010
0000
0000
1000
0000
0001
0000
0000
0010
0000
0000
0001
0000
,
1000
0000
0000
0100
0000
0000
1000
0000
0001
0000
0000
0000
0100
0000
0000
0000
,
1002
0000
0000
0000
0013
0000
0010
0100
,
1000
0000
0000
0001
0000
0000
0010
0000
0001
0000
0000
1000
0000
0000
0010
0000
,
0100
0000
0000
0001
0000
0000
1000
0000
0100
0000
0000
1000
0000
0000
0001
0000
,
0010
0000
0000
0001
0000
0000
1000
0000
0010
0000
0000
0000
0100
0000
0000
0000
,
1001
0001
0100
1000
0000
1000
0100
0001
,
1000
0000
0100
0000
0010
0000
0001
0000
0010
0000
0100
1000
0000
0000
0001
0000
,
1000
0010
1000
1000
0001
0010
0001
0001
,
1000
0100
1000
1000
0001
0100
0001
1000
,
0001
1000
0100
0001
0000
0001
0100
1000
,
0001
0000
0100
0000
0010
0000
1000
0000
0010
0000
0100
0001
0000
0000
1000
0000
,
0001
0010
0001
0001
1000
0010
1000
1000
,
0001
0100
0010
1000
0001
0001
1000
1000
,
0001
1000
0010
0001
0000
0001
0010
1000
,
0001
0000
0010
0000
0100
0000
1000
0000
0100
0000
0010
0001
0000
0000
1000
0000
,
0001
0100
0001
0001
1000
0100
1000
1000
,
0001
0010
0001
0001
1000
0010
1000
0001
,
1000
0001
0100
0010
1000
0001
0010
0100
,
1000
0000
0000
0100
0000
0000
1000
0000
0001
0000
0000
0100
0000
0000
0001
0000
,
1000
0000
0000
0010
0000
0000
1000
0000
0001
0000
0000
0010
0000
0000
0001
0000
,
1000
0000
0000
0010
0000
0000
0100
0000
0101
0000
0000
0000
1100
0000
0000
0000
,
1001
0000
0001
0010
0000
1000
0010
0000
,
0001
0010
0100
1000
0000
1000
0001
0000
,
1000
0000
0010
0001
0000
0010
1000
0000
,
0001
0000
0100
1000
0000
0100
0001
0000
,
1000
0100
0010
0001
0000
0001
1000
0000
,
0001
0000
0100
1000
0000
0100
0001
0000
,
1000
0010
0100
0001
0000
0001
1000
0000
,
0101
0000
0000
1100
0000
0000
0110
0000
,
1001
0000
1000
0010
0000
0001
0010
0000
,
1000
0010
0100
0001
0000
0001
1000
0000
,
0001
0000
0010
1000
0000
0010
0001
0000
,
1000
0000
0100
0001
0000
0100
1000
0000
,
0001
0100
0010
1000
0000
1000
0001
0000
,
1000
0000
0100
0001
0000
0100
1000
0000
,
0001
0010
0100
1000
0000
1000
2002
0000
,
0000
3003
0101
1100
,
1002
0000
0003
0002
0000
0003
0001
0000
,
1000
0100
0010
0002
0000
0000
1003
0000
,
0020
0000
0000
0230
0000
0000
0301
0000
,
1000
0000
0100
0020
0000
0000
0031
0000
,
1000
0010
0100
0002
0000
0000
1003
0000
,
0001
0000
0010
0200
0000
0000
1300
0000
,
0001
0100
0010
2000
0000
0000
3100
0000
,
0010
0000
0001
2000
0000
0000
3010
0000
,
0220
0000
0000
0000
,
0000
0000
0000
0000
,
0330
0000
0000
0000
;

//--------------- dance-single - TiKAL ----------------
#NOTES:
     dance-single:
     TiKAL:
     Challenge:
     12:
     0,0,0,0,0:
0000
0000
0000
0000
,
0000
0000
0000
0000
,
0000
0000
0000
0000
,
0000
0000
0000
0000
,
0000
0000
0000
0000
,
0000
0000
0000
0000
,
0000
0000
0000
0000
,
0000
0000
0000
0000
,
1001
0000
0001
0000
1000
0010
1000
0001
0010
0100
1000
0000
0001
0000
0100
0001
,
1000
0100
0010
0000
0001
0000
1000
0010
0100
0001
1000
0000
0100
0000
1000
0000
,
0001
0000
0100
0000
0001
0010
0001
1000
0010
0100
0001
0000
1000
0000
0100
1000
,
0001
0100
0010
0000
2000
3002
2003
3002
2003
3000
0200
0000
0310
0000
0001
0000
,
0001
0000
1000
0000
0001
0100
0001
1000
0100
0010
0001
0000
1000
0000
0010
1000
,
0001
0010
0100
0000
1000
0000
0001
0100
0010
1000
0001
0000
0010
0000
0001
0000
,
1000
0000
0001
0000
1000
0010
1000
0001
0010
0100
1000
0000
0001
0000
0100
0001
,
1000
0100
0010
0000
0002
2003
3002
2003
3002
0003
0200
0000
0310
0000
1000
0000
,
1001
0000
1000
0000
0100
0000
0010
0001
1000
0001
0100
0000
0010
0000
1000
0000
,
0100
0000
M000
0000
0100
0000
0000
0000
0001
0000
0000
0000
0010
0000
0001
0000
0010
0000
0000
000M
0010
0000
0000
0000
1000
0000
0000
0000
0001
0000
0000
0000
,
1000
0000
0001
0000
0100
0000
0010
1000
0001
1000
0100
0000
0010
0000
0001
0000
,
0010
0000
000M
0000
0010
0000
0000
0000
1000
0000
0000
0000
0100
0000
1000
0000
0100
0000
0000
M000
0100
0000
0000
0000
0001
0000
0000
0000
1000
0000
0000
0000
,
0001
0000
1000
0000
0010
0000
0100
0001
1000
0001
0010
0100
1000
0000
0001
0000
,
0100
0000
000M
0000
0100
0000
0000
0000
1000
0000
0000
0000
0010
0000
1000
0000
0010
0000
0000
M000
0010
0000
0000
0000
0001
0000
0000
0000
1000
0000
0000
0000
,
0001
0010
0100
1000
0001
0100
0010
1000
0001
0100
0010
0100
0001
1000
0100
0010
,
0001
0000
1000
0000
0200
0320
0230
0300
1100
0000
0000
0000
0101
0000
0000
0000
,
1001
0000
0001
0000
0100
0000
0010
1000
0001
1000
0100
0000
0010
0000
0001
1000
,
0001
0100
0001
0000
1000
0000
0100
0010
0001
0010
0100
0000
1000
0000
0001
0000
,
0100
0000
0100
0000
0010
0000
1000
0001
1000
0100
0010
0000
0001
0000
1000
0001
,
0100
0010
1000
0000
0002
2003
3002
2003
3200
0310
0200
0000
1300
0000
0001
0000
,
1000
0000
1000
0000
0100
0000
0010
0001
1000
0001
0100
0000
0010
0000
1000
0001
,
1000
0100
1000
0000
0001
0000
0100
0010
1000
0010
0100
0000
0001
0000
1000
0000
,
0100
0010
0001
1000
0010
0100
0001
1000
0001
0010
0100
1000
0001
0100
0010
1000
,
0001
0010
0001
1000
0010
1000
0001
0000
0011
0000
0000
0000
1010
0000
0000
0000
,
1001
0000
0001
0000
0010
0000
0100
1000
0001
1000
0010
0000
0100
0000
0001
1000
,
0001
0010
0001
0000
1000
0000
0010
0100
0001
0100
0010
0000
1000
0000
0001
0000
,
0010
0000
0010
0000
0100
0000
1000
0001
1000
0010
0100
0000
0001
0000
1000
0001
,
0010
0100
1000
0000
0002
2003
3002
2003
3020
0130
0020
0000
1030
0000
0001
0000
,
1000
0000
1000
0000
0010
0000
0100
0001
1000
0001
0010
0000
0100
0000
1000
0001
,
1000
0010
1000
0000
0001
0000
0010
0100
1000
0100
0010
0000
0001
0000
1000
0000
,
0010
0100
0001
1000
0100
0010
0001
1000
0001
0100
0010
1000
0001
0010
0100
1000
,
0001
0100
0001
0000
2000
3200
2300
3200
0320
0000
0000
0000
0032
0000
0000
0003
,
1001
0000
0000
0001
0100
0000
0000
0100
0010
0000
1000
0010
1000
0000
0001
1000
,
0100
1000
0100
1000
0001
0010
0010
0001
1000
0000
0001
0100
0001
0000
1000
0001
,
1000
0100
0100
1000
0100
0000
0010
0001
1000
0000
0001
0100
0000
0001
0100
0010
,
1000
0010
0100
0001
1000
0100
0100
1000
0001
0000
0100
0001
1000
0000
0001
1000
,
0010
0100
0001
1000
0100
0000
0000
0010
0001
0000
0001
1000
0010
0100
0010
1000
,
0001
0010
0010
0001
1000
0010
0100
0001
1000
0000
0100
0010
0001
0000
0010
0001
,
1000
0010
0010
0100
0001
0000
1000
0100
0010
0000
0001
0010
0001
1000
0001
0100
,
0100
0010
1000
0001
0010
0100
0100
1000
0001
0000
0000
0100
0001
0000
1000
0010
,
1000
0001
0001
1000
0100
0000
0000
0100
0010
0000
0001
0010
0001
0000
1000
0001
,
0100
0001
0100
0001
1000
0010
0010
1000
0001
0000
1000
0100
1000
0000
0001
1000
,
0001
0100
0100
0001
0100
0000
0010
1000
0001
0000
1000
0100
0000
1000
0100
0010
,
0001
0010
0100
1000
0001
0100
0100
0001
1000
0000
0100
1000
0001
0000
1000
0001
,
0010
0100
1000
0001
0100
0000
0000
0010
1000
0000
1000
0001
0010
0100
0010
0001
,
1000
0010
0010
1000
0001
0010
0100
1000
0001
0000
0100
0010
1000
0000
0010
1000
,
0001
0010
0010
0100
1000
0000
0001
0100
0010
0000
1000
0010
1000
0001
1000
0100
,
0100
0010
0001
1000
0010
0100
0100
0001
1000
0000
0000
0100
1000
0000
0001
0010
,
0001
0000
1000
1000
0001
0100
0010
1000
0001
1000
0001
1000
0100
0010
0001
0000
,
1000
0010
1000
0000
1000
0000
0001
0010
0001
1000
0001
0100
0000
0010
1000
0000
,
0001
0010
0001
1000
0100
0000
1000
0001
0100
0000
0010
0100
0001
0000
1000
0000
,
0001
0000
0010
0100
2000
3002
2003
3002
0203
0310
0100
0010
1000
0000
0001
0000
,
1000
0000
0001
0001
1000
0100
0010
0001
1000
0001
1000
0001
0100
0010
1000
0000
,
0001
0010
0001
0000
0001
0000
1000
0010
1000
0001
1000
0100
0000
0010
0001
0000
,
1000
0010
1000
0001
0100
0000
0001
1000
0100
0010
0100
0010
0001
0000
0001
0000
,
1000
0000
0010
0100
0002
2003
3002
2003
3200
0310
0100
0000
1000
0001
1000
0000
,
0001
0000
1000
1000
0001
0010
0100
1000
0001
1000
0001
1000
0010
0100
0001
0000
,
1000
0100
1000
0000
1000
0000
0001
0100
0001
1000
0001
0010
0000
0100
1000
0000
,
0001
0100
0001
1000
0010
0000
1000
0001
0010
0000
0100
0010
0001
0000
1000
0000
,
0001
0000
0100
0010
2000
3002
2003
3002
0023
0130
0010
0100
1000
0000
0001
0000
,
1000
0000
0001
0100
0010
0010
1000
0000
0001
0000
1000
0100
0010
0010
0001
0000
,
1000
0000
0100
1000
0000
0001
1000
0000
0001
0000
0100
0001
0000
1000
0001
0000
,
1000
0000
0010
1000
0000
0001
1000
0000
0001
0000
0010
0001
0000
1000
0001
0000
,
1000
0000
0100
0010
0002
2003
3002
0003
0101
0000
0000
0000
1010
0000
0000
0000
,
1001
0000
1000
0000
0010
0000
0100
0001
1000
0001
0010
0000
0100
0000
1000
0001
,
1000
0010
1000
0000
0001
0000
0010
0100
1000
0100
0010
0000
0001
0000
1000
0000
,
0010
0000
0010
0000
0100
0000
0001
1000
0001
0010
0100
0000
1000
0000
0001
1000
,
0010
0100
0001
0000
2000
3002
2003
3002
0023
0130
0020
0000
0031
0000
1000
0000
,
0001
0000
0001
0000
0010
0000
0100
1000
0001
1000
0010
0000
0100
0000
0001
1000
,
0001
0010
0001
0000
1000
0000
0010
0100
0001
0100
0010
0000
1000
0000
0001
0000
,
0010
0100
1000
0001
0100
0010
1000
0001
1000
0100
0010
0001
1000
0010
0100
0001
,
1000
0100
1000
0001
0100
0001
1000
0000
1100
0000
0000
0000
0101
0000
0000
0000
,
1001
0000
1000
0000
0100
0000
0010
0001
1000
0001
0100
0000
0010
0000
1000
0001
,
1000
0100
1000
0000
0001
0000
0100
0010
1000
0010
0100
0000
0001
0000
1000
0000
,
0100
0000
0100
0000
0010
0000
0001
1000
0001
0100
0010
0000
1000
0000
0001
1000
,
0100
0010
0001
0000
2000
3002
2003
3002
0203
0310
0200
0000
0301
0000
1000
0000
,
0001
0000
0001
0000
0100
0000
0010
1000
0001
1000
0100
0000
0010
0000
0001
1000
,
0001
0100
0001
0000
1000
0000
0100
0010
0001
0010
0100
0000
1000
0000
0001
0000
,
0100
0010
1000
0001
0010
0100
1000
0001
1000
0010
0100
0001
1000
0100
0010
0001
,
1000
0010
1000
0000
0002
0023
0032
0023
0230
0000
0000
0000
2300
0000
0000
3000
,
1001
0000
0000
0000
0001
0000
0000
0100
0001
0000
0000
1000
0100
1000
0001
0000
,
0100
0000
0010
1000
0010
0000
0100
0000
0001
0000
0000
1000
0100
0000
1000
0000
,
0001
0000
0101
0000
0100
0010
0000
0010
,
1000
0001
0010
0000
0011
0000
1001
0000
,
1000
0010
0100
0001
0000
1000
0100
1000
,
0001
0100
0100
0000
0110
0000
1010
0000
,
0001
0010
0100
1000
0000
0001
0100
0001
,
1000
0100
0100
0000
0110
0000
1001
0000
,
2002
0000
0000
0000
,
0000
0000
0000
0000
,
3003
0000
0000
0000
;
