#VERSION:0.83;
#TITLE:popcorn;
#SUBTITLE:;
#ARTIST:Happy Machine;
#TITLETRANSLIT:;
#SUBTITLETRANSLIT:;
#ARTISTTRANSLIT:;
#GENRE:;
#ORIGIN:;
#CREDIT:;
#BANNER:[VIP Room Round 3] - popcorn.png;
#BACKGROUND:[VIP Room Round 3] - popcorn-bg.png;
#PREVIEWVID:;
#JACKET:[VIP Room Round 3] - popcorn-jacket.png;
#CDIMAGE:;
#DISCIMAGE:;
#LYRICSPATH:;
#CDTITLE:;
#MUSIC:popcorn.mp3;
#OFFSET:-0.666000;
#SAMPLESTART:60.329308;
#SAMPLELENGTH:14.769226;
#SELECTABLE:YES;
#BPMS:0.000=150.000,
77.000=130.000;
#STOPS:76.000=0.600,
76.500=0.580;
#DELAYS:;
#WARPS:;
#TIMESIGNATURES:0.000=4=4;
#TICKCOUNTS:0.000=4;
#COMBOS:0.000=1;
#SPEEDS:0.000=1.000=0.000=0;
#SCROLLS:0.000=1.000;
#FAKES:;
#LABELS:0.000=Song Start;
#BGCHANGES:;
#KEYSOUNDS:;
#ATTACKS:
;

//---------------dance-single - ----------------
#NOTEDATA:;
#CHARTNAME:;
#STEPSTYPE:dance-single;
#DESCRIPTION:;
#CHARTSTYLE:;
#DIFFICULTY:Hard;
#METER:8;
#RADARVALUES:0.402481,0.543195,0.296946,0.557680,0.354887,389.000000,348.000000,41.000000,77.000000,0.000000,0.000000,0.000000,0.000000,0.000000,0.402481,0.543195,0.296946,0.557680,0.354887,389.000000,348.000000,41.000000,77.000000,0.000000,0.000000,0.000000,0.000000,0.000000;
#CREDIT:;
#NOTES:
// measure 0
0000
0000
0000
0000
,  // measure 1
0000
0000
0000
0000
,  // measure 2
0001
0020
0031
0020
,  // measure 3
0031
0000
0000
0000
0000
1000
0001
0000
0100
0010
0000
0100
,  // measure 4
0001
2000
3100
2000
,  // measure 5
3100
0000
1000
0010
,  // measure 6
0100
0000
0000
0010
0100
0001
1000
0000
0000
0001
0000
0000
,  // measure 7
0100
0000
0000
0010
0100
0001
0010
0000
0000
0000
0000
0100
,  // measure 8
0010
0000
0000
0001
0000
0100
0010
0000
0000
1000
0000
0100
,  // measure 9
0010
0000
0010
0001
0000
0001
1000
0000
0010
1000
0000
0100
,  // measure 10
0010
0200
0310
0200
,  // measure 11
0310
0000
0000
0000
0000
0001
1000
0000
1000
0010
0000
0100
,  // measure 12
0001
0020
0031
0020
,  // measure 13
0031
0000
1000
0001
,  // measure 14
0100
0000
0000
0010
0100
0001
1000
0000
0000
0001
0000
0000
,  // measure 15
0010
0000
0000
0100
1000
0001
1000
0000
0000
0000
0000
0000
,  // measure 16
0000
0000
0000
0001
0100
0010
1000
0000
0010
1000
0000
1000
,  // measure 17
0200
0000
0000
0000
0310
0001
2000
0000
0000
3000
0000
0000
,  // measure 18
0000
0000
0000
0001
0100
0001
0010
0000
0100
1000
0000
1000
,  // measure 19
0001
1000
0220
0000
0000
0000
0000
0000
,  // measure 20
0000
0000
0330
0000
0001
0000
1000
0000
0010
0100
0000
0001
0000
0000
2002
0000
,  // measure 21
0000
3003
0000
0000
,  // measure 22
0000
0000
2000
3000
0020
0030
0200
0300
,  // measure 23
0000
0000
0020
0030
2000
3000
0002
0003
,  // measure 24
0000
0000
0200
0300
0002
0003
2000
3000
,  // measure 25
0000
0000
0002
0003
0020
0030
0200
0300
,  // measure 26
0000
0000
0010
0100
0000
2000
0000
0000
,  // measure 27
0000
0000
3010
0100
0000
0002
0000
0000
,  // measure 28
0000
0000
0103
0010
0000
2000
0000
0000
,  // measure 29
0000
3000
0202
0000
0000
0000
0000
0000
,  // measure 30
0303
0000
1000
0010
0000
0200
0000
0000
,  // measure 31
0000
0000
0310
1000
0000
0002
0000
0000
,  // measure 32
0000
0000
0013
0100
0000
0020
0000
0000
,  // measure 33
0000
0030
2002
0000
0000
0000
0000
0000
,  // measure 34
0000
3003
1000
0010
1000
0100
0000
0000
,  // measure 35
0000
0000
0010
0001
0100
0010
0000
0100
,  // measure 36
0010
1000
0001
0000
0100
0000
1000
0000
,  // measure 37
0100
0000
0000
0000
0010
0000
1000
0000
0000
0000
0000
0001
0100
0000
0000
0000
,  // measure 38
0000
0000
0000
0000
0001
0000
1000
0000
0100
0000
0010
0100
0000
0000
0000
0000
,  // measure 39
0000
0000
0000
0000
0010
0000
0100
0000
1000
0000
0001
0100
0000
0000
0000
0000
,  // measure 40
0010
0000
0100
0000
0001
0000
0000
1000
0000
0000
0000
0000
0000
0000
0000
0000
,  // measure 41
0000
0000
0000
0001
0010
0000
0001
0000
0100
0000
0010
0000
1000
0010
0000
0100
,  // measure 42
0001
0000
1000
0000
1001
0000
0000
0000
1000
0000
0000
1200
0000
0000
0000
0000
,  // measure 43
1300
0000
0000
0202
0000
0000
0000
0000
0000
0000
0303
0000
0001
1000
0000
0010
,  // measure 44
0000
0100
0000
0000
0001
0000
0000
0000
0100
0000
0000
0201
0000
0000
0000
0000
,  // measure 45
0310
0000
0000
2002
0000
0000
0000
0000
0000
0000
3003
0000
1000
0100
0000
1000
,  // measure 46
0000
0010
0000
0000
1000
0000
0000
0000
0001
0000
0000
2100
0000
0000
0000
0000
,  // measure 47
3001
0000
0000
0220
0000
0000
0000
0000
0000
0000
0330
0000
0010
0100
0000
0001
,  // measure 48
0000
0010
0000
0000
0100
0000
0000
0000
0010
0000
0000
1200
0000
0000
0000
0000
,  // measure 49
0310
0000
0000
0202
0000
0000
0303
0000
0010
0000
0000
0000
0100
0000
0000
0000
,  // measure 50
0001
0000
0000
0000
1000
0000
0001
0000
0100
0000
0001
0000
0010
0000
0100
1000
,  // measure 51
0000
1000
0001
0000
1000
0000
0010
0000
0100
0000
0001
0000
1000
0001
0000
1000
,  // measure 52
0000
0010
0000
0000
0100
0000
0001
0000
0010
0000
0001
0000
1000
0000
0010
1000
,  // measure 53
0000
1000
0100
0000
0010
0000
0100
0000
1000
0000
0001
0000
0100
0001
0000
1000
,  // measure 54
0000
0100
0000
0000
0010
0000
0100
0000
1000
0000
0010
0000
0100
0000
0001
0100
,  // measure 55
0000
0100
0010
0000
1000
0000
0001
0000
0010
0000
0100
0000
0010
0100
0000
1000
,  // measure 56
0000
0001
0000
0000
1001
0000
0000
0000
0101
0000
0000
1010
0000
0000
0000
0000
,  // measure 57
1100
0000
0000
0110
0000
0000
0000
0000
0010
0000
0000
0000
0100
0000
0000
0000
,  // measure 58
1000
0000
0002
1003
0200
0310
0002
0003
,  // measure 59
0000
0000
0200
0310
2000
3001
0200
0310
,  // measure 60
0100
0001
0020
0030
0200
0300
0020
0030
,  // measure 61
0001
0000
0000
0000
2000
0000
3010
0000
0200
0000
0300
0001
2000
0000
3000
0000
,  // measure 62
0000
0000
0000
0000
0200
0000
0310
0000
0002
0000
0103
0010
0200
0000
0300
0000
,  // measure 63
0000
0000
0000
0000
0020
0000
0130
0000
0002
0000
1003
0001
2000
0000
3000
0000
,  // measure 64
0100
0000
1000
0000
0020
0000
0030
0100
0002
0000
0003
0000
0020
0000
0030
0000
,  // measure 65
0000
0000
0000
0100
0020
0000
0030
0000
0002
0000
0003
0000
2000
0000
3000
0000
,  // measure 66
0000
0000
0000
0000
1001
0000
0000
0000
0101
0000
0000
1010
0000
0000
0000
0000
,  // measure 67
0101
0000
0000
0021
0000
0000
0000
0000
0000
0000
0030
0000
0001
0010
0000
0100
,  // measure 68
0000
1000
0000
0000
1001
0000
0000
0000
1100
0000
0000
0011
0000
0000
0000
0000
,  // measure 69
1100
0000
0000
2001
0000
0000
0000
0000
0000
0000
3000
0000
0001
0100
0000
0010
,  // measure 70
0000
1000
0000
0000
0110
0000
0000
0000
1010
0000
0000
0101
0000
0000
0000
0000
,  // measure 71
0011
0000
0000
0210
0000
0000
0000
0000
0000
0000
0300
0000
0010
0001
0000
0100
,  // measure 72
0000
0010
0000
0000
1010
0000
0000
0000
0101
0000
0000
0000
0011
0000
0000
0000
,  // measure 73
1100
0000
0000
0000
0001
1000
0000
1010
0000
1100
0000
1001
0000
0000
0000
0000
,  // measure 74
0220
0000
0000
0000
,  // measure 75
0330
0000
0000
0000
;

//---------------dance-single - ----------------
#NOTEDATA:;
#CHARTNAME:;
#STEPSTYPE:dance-single;
#DESCRIPTION:;
#CHARTSTYLE:;
#DIFFICULTY:Easy;
#METER:3;
#RADARVALUES:0.211070,0.271597,0.123124,0.123124,0.000000,204.000000,187.000000,17.000000,17.000000,0.000000,0.000000,0.000000,0.000000,0.000000,0.211070,0.271597,0.123124,0.123124,0.000000,204.000000,187.000000,17.000000,17.000000,0.000000,0.000000,0.000000,0.000000,0.000000;
#CREDIT:;
#NOTES:
// measure 0
0000
0000
0000
0000
,  // measure 1
0000
0000
0000
0000
,  // measure 2
1000
0000
0000
0000
,  // measure 3
0000
0000
0001
1000
,  // measure 4
0001
0000
0000
0000
,  // measure 5
0000
0000
0100
0010
,  // measure 6
1000
0000
0000
0001
,  // measure 7
1000
0000
0000
0000
,  // measure 8
0100
1000
0100
1000
,  // measure 9
0100
0010
0001
0100
,  // measure 10
0010
0000
0000
0000
,  // measure 11
0000
0000
0100
0010
,  // measure 12
1000
0000
0000
0000
,  // measure 13
0000
0000
0001
1000
,  // measure 14
0001
0000
0000
0100
,  // measure 15
0001
0000
0000
0000
,  // measure 16
0010
0000
0100
0000
,  // measure 17
1000
0000
0001
0000
,  // measure 18
0000
1000
0001
0100
,  // measure 19
0010
2002
0000
0000
,  // measure 20
0000
3003
0000
0000
,  // measure 21
0000
0110
0000
0000
,  // measure 22
0000
1000
0010
1000
,  // measure 23
0000
0001
0100
0001
,  // measure 24
0000
0010
0001
0010
,  // measure 25
0000
0100
1000
0100
,  // measure 26
0000
1000
0001
0200
,  // measure 27
0000
0301
1000
0200
,  // measure 28
0000
1300
0001
0200
,  // measure 29
0000
0020
0000
0000
,  // measure 30
0330
0001
1000
0020
,  // measure 31
0000
1030
0001
0020
,  // measure 32
0000
0031
1000
0020
,  // measure 33
0000
0200
0000
0000
,  // measure 34
0330
0001
1000
0100
,  // measure 35
0000
1000
0001
0100
,  // measure 36
0010
1000
0100
0010
,  // measure 37
0001
1000
0000
0110
,  // measure 38
0000
0100
0001
0010
,  // measure 39
0000
0100
0010
0001
,  // measure 40
1000
0001
0000
0000
,  // measure 41
0000
0100
0010
1000
,  // measure 42
0001
1001
0000
0000
,  // measure 43
0110
0000
0000
0100
,  // measure 44
0000
0010
1001
0000
,  // measure 45
0110
0000
0000
0100
,  // measure 46
0000
0010
1001
0000
,  // measure 47
0110
0000
0000
0100
,  // measure 48
0000
0100
1001
0000
,  // measure 49
0110
0000
0010
0100
,  // measure 50
0001
1000
0100
1000
,  // measure 51
0001
0200
0000
0301
,  // measure 52
0100
0001
0010
0001
,  // measure 53
1000
0020
0000
1030
,  // measure 54
0010
0100
0001
1000
,  // measure 55
0100
2000
0000
3001
,  // measure 56
1000
0001
0100
0010
,  // measure 57
1000
0001
1000
0100
,  // measure 58
0010
0100
0010
0001
,  // measure 59
0000
1000
0001
0100
,  // measure 60
0000
0010
0100
0001
,  // measure 61
0000
1000
0001
0100
,  // measure 62
0000
0010
1000
0001
,  // measure 63
0000
0010
0100
1000
,  // measure 64
0000
0100
0010
0001
,  // measure 65
0000
1000
0001
0100
,  // measure 66
0000
0010
0100
0000
,  // measure 67
0010
1001
0000
0110
,  // measure 68
0000
1000
0001
0000
,  // measure 69
0100
1001
0000
0110
,  // measure 70
0000
0100
0010
1000
,  // measure 71
0001
0010
0001
0100
,  // measure 72
0010
1000
0001
0100
,  // measure 73
0010
2002
0000
3003
,  // measure 74
0220
0000
0000
0000
,  // measure 75
0330
0000
0000
0000
;

//---------------dance-single - ----------------
#NOTEDATA:;
#CHARTNAME:;
#STEPSTYPE:dance-single;
#DESCRIPTION:;
#CHARTSTYLE:;
#DIFFICULTY:Medium;
#METER:5;
#RADARVALUES:0.277288,0.434556,0.101396,0.246248,0.159337,268.000000,254.000000,14.000000,34.000000,0.000000,0.000000,0.000000,0.000000,0.000000,0.277288,0.434556,0.101396,0.246248,0.159337,268.000000,254.000000,14.000000,34.000000,0.000000,0.000000,0.000000,0.000000,0.000000;
#CREDIT:;
#NOTES:
// measure 0
0000
0000
0000
0000
,  // measure 1
0000
0000
0000
0000
,  // measure 2
1000
0001
1000
0001
,  // measure 3
0000
0000
0100
0010
,  // measure 4
1000
0001
1000
0001
,  // measure 5
0000
0000
0100
0010
,  // measure 6
1000
0010
0100
0010
,  // measure 7
1000
0001
0010
0000
,  // measure 8
0100
0010
0100
1000
,  // measure 9
0100
0010
0001
0100
,  // measure 10
0010
1000
0001
1000
,  // measure 11
0001
0000
0100
0010
,  // measure 12
1000
0001
1000
0001
,  // measure 13
1000
0000
0010
0100
,  // measure 14
0001
0010
0010
0100
,  // measure 15
0010
0001
0001
0000
,  // measure 16
0000
1000
1000
0001
,  // measure 17
0200
0000
0310
0000
,  // measure 18
0000
0100
0010
1000
,  // measure 19
0001
1000
0220
0000
0000
0000
0000
0000
,  // measure 20
0000
0330
0000
0000
,  // measure 21
0000
2002
0000
0000
,  // measure 22
3003
0001
1000
0001
,  // measure 23
0000
0100
0010
0100
,  // measure 24
0000
0010
1000
0010
,  // measure 25
0000
0100
0001
0100
,  // measure 26
0000
0000
0001
1000
0000
0200
0000
0000
,  // measure 27
0000
0000
1300
0010
0000
0200
0000
0000
,  // measure 28
0000
0000
0310
0100
0000
0002
0000
0000
,  // measure 29
0000
0003
2020
0000
0000
0000
0000
0000
,  // measure 30
3030
0000
1000
0001
0000
0020
0000
0000
,  // measure 31
0000
0000
0130
0010
0000
0002
0000
0000
,  // measure 32
0000
0000
1003
0001
0000
0200
0000
0000
,  // measure 33
0300
2002
0000
0000
,  // measure 34
3003
0000
0001
0100
0001
1000
0000
0000
,  // measure 35
0000
0000
0100
1000
0001
1000
0000
0001
,  // measure 36
0100
0010
1000
0000
0010
0000
0100
0000
,  // measure 37
0001
0000
0010
0100
0000
0000
1001
0000
,  // measure 38
0000
0000
0000
0000
1000
0000
0010
0000
0100
0000
0000
0010
0000
0000
0000
0000
,  // measure 39
0000
0000
0000
0000
0100
0000
0010
0000
1000
0000
0000
0010
0000
0000
0000
0000
,  // measure 40
0100
0000
0001
0000
1000
0000
0000
0001
0000
0000
0000
0000
0000
0000
0000
0000
,  // measure 41
0000
0000
1000
0100
0010
0001
0100
0001
,  // measure 42
0100
0000
0000
0000
0001
0000
0000
0000
1000
0000
0000
0001
0000
0000
0000
0000
,  // measure 43
1000
0000
0000
0020
0000
0000
0000
0000
0000
0000
0000
0000
1030
0000
0000
0000
,  // measure 44
0000
0000
0000
0000
0010
0000
0000
0000
0100
0000
0000
0001
0000
0000
0000
0000
,  // measure 45
0010
0000
0000
0200
0000
0000
0000
0000
0000
0000
0000
0000
0310
0000
0000
0000
,  // measure 46
0000
0000
0000
0000
0100
0000
0000
0000
0010
0000
0000
0001
0000
0000
0000
0000
,  // measure 47
1000
0000
0000
0020
0000
0000
0000
0000
0000
0000
0000
0000
1030
0000
0000
0000
,  // measure 48
0000
0000
0000
0000
0010
0000
0000
0000
0100
0000
0000
0010
0000
0000
0000
0000
,  // measure 49
1000
0000
0000
0002
0000
0000
0000
0000
1003
0000
0000
0000
0100
0000
0000
0000
,  // measure 50
0010
0000
0000
0000
0001
0000
0000
0000
0100
0000
0000
0001
0000
0000
0000
0000
,  // measure 51
0010
0000
0000
0002
0000
0000
0000
0000
0000
0000
0000
0000
1003
0000
0000
0001
,  // measure 52
0000
0100
0000
0000
0010
0000
0000
0000
1000
0000
0000
0001
0000
0000
0000
0000
,  // measure 53
0010
0000
0000
0200
0000
0000
0000
0000
0000
0000
0000
0000
1300
0000
0000
0001
,  // measure 54
0000
0010
0000
0000
0100
0000
0000
0000
0010
0000
0000
0001
0000
0000
0000
0000
,  // measure 55
1000
0000
0000
0020
0000
0000
0000
0000
0000
0000
0000
0000
1030
0000
0000
0100
,  // measure 56
0000
1000
0000
0000
1100
0000
0000
0000
0010
0000
0000
0011
0000
0000
0000
0000
,  // measure 57
0001
0000
0000
1001
0000
0000
0000
0000
2000
0000
0000
0000
3020
0000
0000
0000
,  // measure 58
0230
0000
0301
0100
0010
1000
0000
0000
,  // measure 59
0000
0000
0001
0100
0010
1000
0000
0001
,  // measure 60
0010
0100
1000
0000
0100
0000
1000
0000
,  // measure 61
0010
0000
0100
0001
0000
0000
1001
0000
,  // measure 62
0000
0000
0000
0000
0001
0000
1000
0000
0010
0000
0000
1000
0000
0000
0000
0000
,  // measure 63
0000
0000
0000
0000
0001
0000
0100
0000
0010
0000
0000
1000
0000
0000
0000
0000
,  // measure 64
0010
0000
0100
0000
0001
0000
0000
1000
0000
0000
0000
0000
0000
0000
0000
0000
,  // measure 65
0000
0000
0002
0003
2000
3000
0020
0000
,  // measure 66
0030
0000
0000
0000
0100
0000
0000
0000
0001
0000
0000
1000
0000
0000
0000
0000
,  // measure 67
0100
0000
0000
0020
0000
0000
0000
0000
0000
0000
0000
0000
0031
0000
0000
0100
,  // measure 68
0000
0010
0000
0000
1000
0000
0000
0000
0001
0000
0000
0100
0000
0000
0000
0000
,  // measure 69
0010
0000
0000
0200
0000
0000
0000
0000
0000
0000
0000
0000
0301
0000
0000
0100
,  // measure 70
0000
0010
0000
0000
0100
0000
0000
0000
0001
0000
0000
2000
0000
0000
0000
0000
,  // measure 71
3100
0000
0000
0020
0000
0000
0000
0000
0000
0000
0000
0030
0100
0000
0000
1000
,  // measure 72
0000
0001
0000
0000
1001
0000
0000
0000
0110
0000
0000
0000
0101
0000
0000
0000
,  // measure 73
1010
0000
0000
0000
1000
0010
0000
0100
0000
0001
0000
1000
0000
0000
0000
0000
,  // measure 74
0220
0000
0000
0000
,  // measure 75
0330
0000
0000
0000
;

//---------------dance-single - ----------------
#NOTEDATA:;
#CHARTNAME:;
#STEPSTYPE:dance-single;
#DESCRIPTION:;
#CHARTSTYLE:;
#DIFFICULTY:Beginner;
#METER:1;
#RADARVALUES:0.085877,0.160786,0.065183,0.000000,0.000000,83.000000,74.000000,9.000000,0.000000,0.000000,0.000000,0.000000,0.000000,0.000000,0.085877,0.160786,0.065183,0.000000,0.000000,83.000000,74.000000,9.000000,0.000000,0.000000,0.000000,0.000000,0.000000,0.000000;
#CREDIT:;
#NOTES:
// measure 0
0000
0000
0000
0000
,  // measure 1
0000
0000
0000
0000
,  // measure 2
1000
0000
0000
0000
,  // measure 3
0000
0000
0000
0000
,  // measure 4
1000
0000
0000
0000
,  // measure 5
0000
0000
0001
0000
,  // measure 6
0100
0000
0000
0000
,  // measure 7
0010
0000
0000
0000
,  // measure 8
0100
0000
0010
0000
,  // measure 9
1000
0000
0001
0000
,  // measure 10
0100
0000
0000
0000
,  // measure 11
0000
0000
0000
0000
,  // measure 12
0100
0000
0000
0000
,  // measure 13
0000
0000
0000
0000
,  // measure 14
0010
0000
0000
0000
,  // measure 15
1000
0000
0000
0000
,  // measure 16
0001
0000
0000
0000
,  // measure 17
1000
0000
0000
0000
,  // measure 18
0010
0000
0000
0000
,  // measure 19
0100
1001
0000
0000
,  // measure 20
0000
0000
0000
0000
,  // measure 21
0000
0110
0000
0000
,  // measure 22
0000
1000
0000
0000
,  // measure 23
0000
0001
0000
0000
,  // measure 24
0000
0100
0000
0000
,  // measure 25
0000
0010
0000
0000
,  // measure 26
0000
1000
0000
0000
,  // measure 27
0000
0001
0000
0000
,  // measure 28
0000
1000
0000
0000
,  // measure 29
0000
0110
0000
0000
,  // measure 30
0000
0100
0000
0000
,  // measure 31
0000
0010
0000
0000
,  // measure 32
0000
1000
0000
0000
,  // measure 33
0000
0001
0000
0000
,  // measure 34
0000
0100
0000
0000
,  // measure 35
0000
0100
0000
0000
,  // measure 36
0000
0010
0000
0000
,  // measure 37
0000
1000
0000
0000
,  // measure 38
0000
0001
0000
0000
,  // measure 39
0000
0001
0000
0000
,  // measure 40
0000
0100
0000
0000
,  // measure 41
0000
0010
0000
0000
,  // measure 42
0000
1001
0000
0000
,  // measure 43
0000
0000
0000
1000
,  // measure 44
0000
0010
0000
0000
,  // measure 45
0000
0000
0000
0100
,  // measure 46
0000
0001
0000
0000
,  // measure 47
0000
0000
0000
1000
,  // measure 48
0000
0100
0000
0000
,  // measure 49
0000
0000
0000
0000
,  // measure 50
0000
1000
0000
0000
,  // measure 51
0000
0000
0000
0001
,  // measure 52
0000
0100
0000
0000
,  // measure 53
0000
0000
0000
0010
,  // measure 54
0000
0100
0000
0000
,  // measure 55
0000
0000
0000
0010
,  // measure 56
0000
1000
0000
0000
,  // measure 57
0000
0000
0000
0000
,  // measure 58
0000
0001
0000
0000
,  // measure 59
0000
1000
0000
0000
,  // measure 60
0000
0010
0000
0000
,  // measure 61
0000
0100
0000
0000
,  // measure 62
0000
0010
0000
0000
,  // measure 63
0000
1000
0000
0000
,  // measure 64
0000
0001
0000
0000
,  // measure 65
0000
0010
0000
0000
,  // measure 66
0000
1001
0000
0000
,  // measure 67
0000
0010
0000
0100
,  // measure 68
0000
1001
0000
0000
,  // measure 69
0000
0010
0000
0100
,  // measure 70
0000
1001
0000
0000
,  // measure 71
1000
0000
0000
0001
,  // measure 72
0000
0100
0000
0010
,  // measure 73
0000
1001
0000
0000
,  // measure 74
0110
0000
0000
0000
;
