#TITLE:Wow Wow;
#SUBTITLE:;
#ARTIST:Neil Cicierega;
#TITLETRANSLIT:;
#SUBTITLETRANSLIT:;
#ARTISTTRANSLIT:;
#GENRE:Neil Cicierega;
#CREDIT:TiKAL;
#MUSIC:[You Won't See This In DDR VI] - Wow Wow.ogg;
#BANNER:[You Won't See This In DDR VI] - Wow Wow.png;
#BACKGROUND:[You Won't See This In DDR VI] - Wow Wow-bg.png;
#CDTITLE:cdtitle.png;
#SAMPLESTART:45.567;
#SAMPLELENGTH:17.944;
#SELECTABLE:YES;
#OFFSET:-0.707;
#BPMS:0.000=107.000
,80.000=428.000
,80.500=214.000
,80.750=107.000
,80.875=53.500
,80.938=13.375
,81.000=428.000
,81.500=214.000
,81.750=107.000
,81.875=53.500
,81.938=13.375
,82.000=107.000
,84.000=428.000
,84.500=214.000
,84.750=107.000
,84.875=53.500
,84.938=13.375
,85.000=428.000
,85.500=214.000
,85.750=107.000
,85.875=53.500
,85.938=13.375
,86.000=107.000
,88.000=428.000
,88.500=214.000
,88.750=107.000
,88.875=53.500
,88.938=13.375
,89.000=428.000
,89.500=214.000
,89.750=107.000
,89.875=53.500
,89.938=13.375
,90.000=107.000
,92.000=428.000
,92.500=214.000
,92.750=107.000
,92.875=53.500
,92.938=13.375
,93.000=214.000
,93.250=107.000
,93.375=53.500
,93.500=107.000
,96.000=428.000
,96.500=214.000
,96.750=107.000
,96.875=53.500
,96.938=13.375
,97.000=428.000
,97.500=214.000
,97.750=107.000
,97.875=53.500
,97.938=13.375
,98.000=107.000
,100.000=428.000
,100.500=214.000
,100.750=107.000
,100.875=53.500
,100.938=13.375
,101.000=428.000
,101.500=214.000
,101.750=107.000
,101.875=53.500
,101.938=13.375
,102.000=107.000
,104.000=428.000
,104.500=214.000
,104.750=107.000
,104.875=53.500
,104.938=13.375
,105.000=428.000
,105.500=214.000
,105.750=107.000
,105.875=53.500
,105.938=13.375
,106.000=107.000
,108.000=428.000
,108.500=214.000
,108.750=107.000
,108.875=53.500
,108.938=13.375
,109.000=428.000
,109.500=214.000
,109.750=107.000
,109.875=53.500
,109.938=13.375
,110.000=428.000
,110.500=214.000
,110.750=107.000
,110.875=53.500
,110.938=13.375
,111.000=428.000
,111.500=214.000
,111.750=107.000
,111.875=53.500
,111.938=13.375
,112.000=428.000
,112.500=214.000
,112.750=107.000
,112.875=53.500
,112.938=13.375
,113.000=107.000
,116.000=428.000
,116.500=214.000
,116.750=107.000
,116.875=53.500
,116.938=13.375
,117.000=107.000
,120.000=428.000
,120.500=214.000
,120.750=107.000
,120.875=53.500
,120.938=13.375
,121.000=107.000
,124.000=214.000
,124.250=107.000
,124.375=53.500
,124.500=107.000
,176.000=428.000
,176.500=214.000
,176.750=107.000
,176.875=53.500
,176.938=13.375
,177.000=428.000
,177.500=214.000
,177.750=107.000
,177.875=53.500
,177.938=13.375
,178.000=107.000
,180.000=428.000
,180.500=214.000
,180.750=107.000
,180.875=53.500
,180.938=13.375
,181.000=428.000
,181.500=214.000
,181.750=107.000
,181.875=53.500
,181.938=13.375
,182.000=107.000
,184.000=428.000
,184.500=214.000
,184.750=107.000
,184.875=53.500
,184.938=13.375
,185.000=428.000
,185.500=214.000
,185.750=107.000
,185.875=53.500
,185.938=13.375
,186.000=107.000
,188.000=428.000
,188.500=214.000
,188.750=107.000
,188.875=53.500
,188.938=13.375
,189.000=428.000
,189.500=214.000
,189.750=107.000
,189.875=53.500
,189.938=13.375
,190.000=107.000
,192.000=428.000
,192.500=214.000
,192.750=107.000
,192.875=53.500
,192.938=13.375
,193.000=428.000
,193.500=214.000
,193.750=107.000
,193.875=53.500
,193.938=13.375
,194.000=107.000
,196.000=428.000
,196.500=214.000
,196.750=107.000
,196.875=53.500
,196.938=13.375
,197.000=428.000
,197.500=214.000
,197.750=107.000
,197.875=53.500
,197.938=13.375
,198.000=107.000
,200.000=428.000
,200.500=214.000
,200.750=107.000
,200.875=53.500
,200.938=13.375
,201.000=428.000
,201.500=214.000
,201.750=107.000
,201.875=53.500
,201.938=13.375
,202.000=107.000
,204.000=428.000
,204.500=214.000
,204.750=107.000
,204.875=53.500
,204.938=13.375
,205.000=428.000
,205.500=214.000
,205.750=107.000
,205.875=53.500
,205.938=13.375
,206.000=428.000
,206.500=214.000
,206.750=107.000
,206.875=53.500
,206.938=13.375
,207.000=428.000
,207.500=214.000
,207.750=107.000
,207.875=53.500
,207.938=13.375
,208.000=107.000
,240.000=428.000
,240.500=214.000
,240.750=107.000
,240.875=53.500
,240.938=13.375
,241.000=428.000
,241.500=214.000
,241.750=107.000
,241.875=53.500
,241.938=13.375
;
#STOPS:;
#DISPLAYBPM:107.000;
#BGCHANGES:;
#FGCHANGES:;

//--------------- dance-single - wickywicky TiKAL ----------------
#NOTES:
     dance-single:
     wickywicky TiKAL:
     Challenge:
     10:
     0,0,0,0,0:
0000
0000
0000
0000
,
0000
0000
0000
0000
0000
0000
0000
0000
0000
0000
0000
0000
0000
0000
0000
0000
0000
0000
0000
0000
0000
0000
0000
0000
0000
0000
0000
0000
0000
0000
0000
0000
0000
0000
0000
0000
0000
0000
0000
0000
0000
0000
0000
0000
0000
0000
0000
0000
0000
0000
0000
0000
0000
0000
0000
0000
000M
0000
0000
0000
0000
0000
0000
M000
0000
0000
0000
0000
0000
0000
000M
0000
0000
0000
0000
0000
0000
M000
0000
0000
0000
0000
0000
0000
0000
0000
0000
0000
0000
0000
0000
0000
0000
0000
0000
0000
,
0000
0000
0000
0000
0000
0000
0000
0000
0000
0000
0000
0000
0000
0000
0000
0000
0000
0000
0000
0000
0000
0000
0000
0000
0000
0000
0000
0000
0000
0000
0000
0000
0000
0000
000M
0000
0000
0000
0000
0000
0000
0000
0000
0000
0000
0000
0000
0000
M000
0000
0000
0000
0000
0000
0000
0000
0000
0000
0000
0000
0000
0000
000M
0000
0000
0000
0000
0000
0000
0000
0000
0000
0000
0000
0000
0000
M000
0000
0000
0000
0000
0000
0000
0000
0000
0000
0000
0000
0000
0000
0MM0
0000
0000
0000
0000
0000
0000
0000
0000
0000
0000
0000
0000
0000
0000
0000
0000
0000
0000
0000
0000
0000
0000
0000
0000
0000
0000
0000
0000
0000
0000
0000
0000
0000
0000
0000
0000
0000
0000
0000
0000
0000
0000
0000
0000
0000
0000
0000
000M
0000
0000
0000
0000
0000
0000
0000
0000
0000
0000
0000
0000
0000
M000
0000
0000
0000
0000
0000
0000
0000
0000
0000
0000
0000
0000
0000
000M
0000
0000
0000
0000
0000
0000
0000
0000
0000
0000
0000
0000
M000
0000
0000
0000
0000
0000
0000
0000
0000
0000
0000
0000
0000
,
0M00
0000
0000
0000
000M
M000
000M
0000
000M
M000
000M
M000
000M
0000
000M
0000
,
0001
0000
0001
0000
0101
0000
0001
1000
0000
0100
0000
0010
0100
0010
0000
0000
,
0001
0000
0000
0000
0000
0000
0000
0000
0000
0000
0000
0000
0000
0000
0000
0000
0000
0000
0000
0000
0000
0000
0000
0000
0001
0000
0000
0000
0000
0000
0000
0000
0000
0000
0000
0000
0100
0000
0000
0000
0000
0000
0000
0000
0000
0000
0000
0000
0000
0000
0000
0000
0000
0000
0000
0000
0000
0000
0000
0000
0010
0000
0000
0000
0000
0000
0000
0000
0000
0000
0000
0000
0000
0000
0000
0000
0000
0000
0000
0000
0000
0000
0000
0000
0000
0000
0000
0000
0010
0000
0000
0000
0000
0000
0000
0000
1000
0000
0000
0000
0000
0000
0000
0000
0000
0000
0000
0000
0000
0000
0000
0000
0000
0000
0000
0000
0000
0000
0000
0000
1000
0000
0000
0000
0000
0000
0000
0000
0000
0000
0000
0000
0000
0000
0000
0000
0000
0000
0000
0000
0000
0000
0000
0000
0001
0000
0000
0000
0000
0000
0000
0000
0000
0000
0000
0000
0000
0000
0000
0000
0000
0000
0000
1000
0000
0000
0000
0000
0000
0000
0000
0000
0000
0000
0000
0000
0000
0000
0000
0000
0000
0000
0000
0000
0000
0000
0000
0000
0000
0000
0000
0000
,
0001
0000
0000
0000
1000
0000
0001
0000
0000
0000
0000
0000
0011
0000
0000
0000
0000
0000
0100
0000
0000
1000
0000
0000
0010
0000
0000
0000
0000
0000
0100
0000
0000
0001
0000
0000
0010
0000
0000
0001
0000
0000
0100
0000
0000
0000
0000
0000
,
0001
0010
1000
0001
0100
1000
0001
0010
0100
0100
0100
0100
0100
0100
0100
0100
,
0010
0000
0000
M00M
0000
0000
0010
0000
0000
0000
0000
0000
1000
0000
0000
0000
0000
0000
0001
0000
0000
0000
0000
0000
0010
0000
0000
0000
0000
0000
0000
0000
0100
0000
0000
0000
0000
0000
0000
0000
1000
0000
0000
0000
0000
0000
0000
0000
0000
0000
0000
0000
0001
0000
0000
0000
0000
0000
0000
0000
0000
0000
0100
0000
0000
0000
0000
0000
0000
0000
0000
0000
0110
0000
0000
0000
0000
0000
0000
0000
0000
0000
0000
0000
0000
0000
0000
0000
0000
0000
0000
0000
1000
0000
0000
0000
,
0100
0010
0100
0000
1100
0000
0001
0100
0001
0000
1000
0000
1010
0000
0000
0000
,
0001
0000
0000
0000
0000
0000
0000
0000
0000
0000
0000
0000
0010
0000
0000
0000
0000
0000
0000
0001
0000
0000
0000
0000
1000
0000
0000
0010
0000
0000
0000
0000
0000
0000
0100
0000
0000
0000
0000
0000
0000
0000
0000
0000
0000
0001
0000
0000
1000
0000
0000
0000
0000
0000
0000
0000
0000
0000
0000
0000
0100
0000
0000
0000
0000
0000
0000
0000
0000
0000
0000
0000
0010
0000
0000
0000
0000
0000
0100
0000
0000
0000
0000
0000
0010
0000
0000
0000
0000
0000
0001
0000
0000
0000
0000
0000
,
0000
0000
0000
0000
0000
0000
1000
0000
0000
0000
0000
0000
0000
0000
0000
0010
0000
0000
0000
0000
0000
0000
0000
0000
0100
0000
0000
0000
0000
0000
0000
0000
0000
0000
0000
0000
0001
0000
0000
0000
0100
0000
0000
0000
0001
0000
0000
0000
1000
0000
0000
0000
0000
0000
0100
0000
0000
0000
0000
0000
0010
0000
0000
0000
0000
0000
0100
0000
0000
0000
0000
0000
0000
0000
0000
0000
0000
0000
0000
0000
0000
0000
0000
0000
1000
0000
0000
0000
0000
0000
0001
0000
0000
0000
0000
0000
,
0100
0000
0000
0010
0000
0000
1000
0000
0000
0010
0000
0000
0000
0000
0000
0100
0000
0000
0001
0000
0000
1000
0000
0000
0100
0000
0000
0000
0000
0000
0000
0000
0010
0000
0000
0000
0100
0000
0000
0000
0000
0000
1000
0000
0000
0001
0000
0000
,
0100
0010
0100
0001
2000
0000
3100
0010
2000
0000
3010
0002
0000
1003
0020
0000
,
0030
0100
0000
0000
0001
0000
1000
0000
0001
0000
0010
0000
0100
0000
0000
0000
1000
0000
0010
0000
0100
0000
0002
0000
0000
0000
0003
0000
1000
0000
0100
0000
,
1000
0000
0000
0000
0001
0000
0100
0000
0000
0000
0010
0000
1000
0000
0001
0000
0000
0000
0000
0000
0000
0000
0001
0000
1000
0000
0000
0100
0000
0000
0010
0000
0000
0002
0000
0000
0000
0000
0000
0000
0000
0000
0203
0000
0000
0000
0000
0000
,
0301
0010
0001
1000
0020
0000
0130
0001
0100
0001
2000
0000
0100
0000
3002
0000
,
1003
0010
1000
0001
0020
0000
0230
0000
1300
0100
0010
0001
2000
0000
0100
0000
,
3001
0100
0010
0100
0010
1000
0001
0010
0100
0000
2200
0000
0000
3300
1000
0002
,
0000
0000
0000
0000
0003
0000
0100
0000
0010
0000
0100
0000
0001
0000
0000
0000
2000
0000
0000
0000
0000
0000
0000
0000
3100
0000
0000
0010
0000
0000
0001
0000
,
0011
0000
0000
0000
1100
0000
0000
0000
1000
0100
0010
0001
0000
0001
0010
0100
,
1100
0000
0000
0000
0101
0000
0000
0000
0001
0100
0010
1000
0000
1000
0010
0100
,
0101
0000
0000
0000
1010
0000
0000
0000
1000
0010
0100
0002
0000
0103
0010
1000
,
1010
0000
0011
0001
0010
0010
0100
1000
,
1100
0000
0000
0000
1010
0000
0000
0000
1000
0001
0010
0100
0000
0100
0010
0001
,
0011
0000
0000
0000
0101
0000
0000
0000
0001
1000
0010
0100
0000
0100
0010
1000
,
1100
0000
0000
0000
0011
0000
0000
0000
1000
0001
0100
0010
0000
0010
0100
0001
,
0101
1100
1010
0011
,
1010
0000
0000
0000
1001
0000
0001
0200
0000
0000
0301
2000
0000
0000
3001
0000
,
0011
0000
0000
0000
1001
0000
1000
0200
0000
0000
1300
0002
0000
0000
1003
0000
,
1100
0000
0000
0000
1001
0000
0001
0020
0000
0000
0031
2000
0000
0000
3001
0000
,
0101
0000
0001
0000
0100
0000
0100
0000
0010
0000
0010
0000
1000
0001
0010
0100
,
1000
0000
0000
0000
0001
0000
0000
0000
1000
0000
0100
0000
0010
0000
0200
0000
0000
0000
1300
0001
1000
0000
0010
0000
0100
0000
0002
0000
0000
0000
0000
0000
,
1003
0000
0100
0000
1000
0000
0000
0000
0001
0000
0000
0000
0100
0000
0001
0100
0010
0000
1000
0000
0001
0000
0010
0000
0000
0000
0100
0000
1000
0000
0100
0000
,
0010
0001
1000
0010
0100
0010
1000
0001
0000
0010
0100
0010
0001
0000
1000
0000
,
0010
0100
0001
1000
0000
0010
0000
0100
0000
0001
0000
1000
0000
0100
0010
0001
,
1000
0000
0010
0000
0100
0010
1000
0001
0000
0010
0100
0010
0001
1000
0000
0000
,
0001
0000
0100
0000
0110
0000
0000
0010
1000
0001
1000
0100
0000
0010
0100
1000
,
0001
0100
0010
1000
0001
0010
0001
1000
0000
0010
0100
0010
1000
0000
0001
0000
,
0010
0000
0000
0000
0100
0000
0000
0000
0010
0000
0000
0000
0001
0000
0000
0000
0000
0000
0000
0000
1000
0000
0000
0000
0000
0000
0000
0010
0000
0000
0000
0000
0000
0000
0100
0000
0000
0000
0000
0000
0000
0000
0000
0000
0000
0000
0000
0000
1001
0000
0000
0000
0000
0000
0000
0000
0000
0000
0000
0000
0000
0000
0000
0000
,
0001
0100
0010
0000
0110
0000
0000
0000
0010
1000
0001
1000
0000
0100
0010
0001
,
2000
0000
0000
0000
3001
0100
0010
0100
0000
0001
1000
0100
0010
0100
0000
0000
,
1000
0000
0001
0100
0001
1000
0010
1000
0001
0000
0000
0000
0010
0100
0010
0001
,
0000
1000
0010
1000
0001
0010
0000
0001
0100
0001
1000
0000
0100
1000
0001
0010
,
0011
0000
0000
0000
1100
0000
0000
0000
1000
0100
0010
0001
0000
0001
0010
0100
,
1100
0000
0000
0000
0101
0000
0000
0000
0001
0100
0010
1000
0000
1000
0010
0100
,
0101
0000
0000
0000
1010
0000
0000
0000
1000
0010
0100
0002
0000
0103
0010
1000
,
1010
0000
0011
0000
0101
0100
0010
1000
,
1100
0000
0000
0000
1010
0000
0000
0000
1000
0001
0010
0100
0000
0100
0010
0001
,
0011
0000
0000
0000
0101
0000
0000
0000
0001
1000
0010
0100
0000
0100
0010
1000
,
1100
0000
0000
0000
0011
0000
0000
0000
1000
0001
0100
0010
0000
0010
0100
0001
,
0101
0000
0000
0000
0000
0000
0000
0000
4100
0000
0000
0000
0000
0000
0000
3000
1010
0000
0000
0000
0000
0000
0000
0000
0014
0000
0000
0000
0000
0000
0000
0003
,
1010
0000
1000
0000
1000
0000
1000
0000
0000
1000
0100
1000
0000
1000
0100
1000
,
0001
0000
0001
0000
0001
0000
0001
0000
0000
0001
0100
0001
0000
0001
0100
0001
,
2000
0000
0000
3000
1400
0000
0300
0000
0100
0000
0000
0100
0110
0000
0010
0000
,
0001
0100
0010
0100
0001
1000
0010
1000
0100
0010
0001
1000
0001
0010
0100
1000
,
0001
0000
0001
0000
0101
0000
0100
0020
0000
0030
0100
0020
0000
0030
0000
0000
,
1000
0000
1000
0000
1100
0000
0000
0000
0100
0000
0100
0000
0010
0100
0010
0001
,
1000
0000
0000
0000
0000
0000
0000
0000
1000
0000
0000
0000
0000
0000
0000
0000
1010
0000
0000
0000
0000
0000
0000
0000
0010
0000
0000
0000
0100
0000
0000
0000
0000
0000
0010
0000
0000
0100
0000
0000
0010
0000
0000
0000
0100
0000
0000
0000
0001
0000
0000
0000
1000
0000
0000
0000
1000
0000
0000
0000
0100
0000
0000
0000
,
1000
0010
0100
0010
1000
0001
0100
0001
0010
0100
1000
0001
1000
0100
0010
0001
,
2000
0000
0000
0000
0000
0000
0000
3000
2000
0000
0000
0000
0000
0000
0000
3000
MMMM
0000
0000
0000
0000
0000
0000
0000
0000
0000
0000
0000
0000
0000
0000
0000
;
