#VERSION:0.83;
#TITLE:Way Back;
#SUBTITLE:;
#ARTIST:Vicetone feat. Cozi Zuehlsdorff;
#TITLETRANSLIT:;
#SUBTITLETRANSLIT:;
#ARTISTTRANSLIT:;
#GENRE:;
#ORIGIN:;
#CREDIT:;
#BANNER:wayback_bn.png;
#BACKGROUND:wayback_bg.png;
#PREVIEWVID:;
#JACKET:wayback_jacket.png;
#CDIMAGE:;
#DISCIMAGE:;
#LYRICSPATH:;
#CDTITLE:cdtitle.png;
#MUSIC:wayback.ogg;
#OFFSET:0.000000;
#SAMPLESTART:53.333336;
#SAMPLELENGTH:17.777779;
#SELECTABLE:YES;
#BPMS:0.000=108.000;
#STOPS:;
#DELAYS:;
#WARPS:;
#TIMESIGNATURES:0.000=4=4;
#TICKCOUNTS:0.000=4;
#COMBOS:0.000=1;
#SPEEDS:0.000=1.000=0.000=0;
#SCROLLS:0.000=1.000;
#FAKES:;
#LABELS:0.000=Song Start;
#BGCHANGES:;
#KEYSOUNDS:;
#ATTACKS:
;

//---------------dance-single - ----------------
#NOTEDATA:;
#CHARTNAME:Hard;
#STEPSTYPE:dance-single;
#DESCRIPTION:;
#CHARTSTYLE:;
#DIFFICULTY:Hard;
#METER:8;
#RADARVALUES:0.412202,0.487053,0.044278,0.368979,0.380049,391.000000,385.000000,6.000000,50.000000,0.000000,0.000000,0.000000,0.000000,0.000000,0.412202,0.487053,0.044278,0.368979,0.380049,391.000000,385.000000,6.000000,50.000000,0.000000,0.000000,0.000000,0.000000,0.000000;
#CREDIT:DigitalBasic;
#NOTES:
0000
0000
0000
0000
,
0000
0000
0000
0000
,
0000
0000
0000
0000
,
0000
0000
0000
0000
0001
0100
0001
0100
,
0020
0000
1030
0000
1000
0100
1000
0100
,
0020
0000
0031
0000
0001
0100
0010
0100
,
0002
1003
0000
2000
,
3001
0000
0000
0000
1000
0010
1000
0010
,
0200
0000
0301
0000
0001
0010
0001
0010
,
0200
0000
1300
0000
1000
0100
0010
0100
,
2000
3001
0000
0002
,
2000
0000
0000
0000
3003
0000
0000
0000
0000
0000
0000
0000
1000
0100
0000
0010
,
0000
0100
0000
1000
0000
0010
0000
0100
0000
0010
0000
0100
0000
0001
0000
0020
,
0000
0000
0000
0130
0000
0000
0000
0000
1000
0000
0000
0000
0001
0100
0000
0010
,
0000
1000
0000
0010
0000
0100
0000
0001
0000
1000
0000
0100
0000
0010
0000
0200
,
0000
0000
0000
0310
0000
0000
0000
0000
0001
0000
0100
0000
1000
0000
0100
0000
,
0020
0000
1030
0000
1000
0100
0001
0100
,
0020
0000
0031
0000
0001
0100
1000
0001
,
2000
3100
0001
2000
,
3100
0100
0100
0100
,
1000
0000
0100
1000
0000
0000
0000
0000
0001
0000
0100
0001
0000
0000
0000
0000
,
1000
0000
0010
1000
0000
0000
0000
0000
0001
0000
0001
0000
1000
0000
1000
0000
,
0100
0000
0010
0000
0001
0000
1000
0001
1000
0000
0010
0000
0100
0000
0001
1000
,
0002
0000
0000
0000
0000
0000
0000
0000
1003
0000
1000
0000
1001
0000
1000
0001
,
0100
0000
0010
0000
0010
0000
0010
1000
0001
0000
0010
0000
0001
0010
0002
0000
,
0000
0000
0103
0000
0000
0000
0010
1000
0010
0100
0001
0000
0010
0100
1000
0000
,
0001
0000
0100
0000
0100
0000
0100
0010
1000
0000
0100
0000
0010
0100
0020
0000
,
0000
0031
0010
0000
0000
0000
0001
0100
0010
0100
0001
1000
0010
0000
0000
0000
,
0200
0000
0301
0000
0001
0000
0001
1000
0100
0000
0001
0000
0100
0010
0200
0000
,
0000
0000
1300
0000
0000
0000
1000
0100
0010
0001
1000
0000
0100
1000
0100
0000
,
0020
0000
0001
0000
0031
0000
1000
0001
0100
0000
0010
0000
0200
0000
0000
0000
,
0320
0000
0000
0000
0100
0000
0000
0000
0130
0000
0000
0000
1001
0000
0001
1000
,
0100
0000
0010
0000
0010
0000
0010
0001
1000
0000
0010
0000
1000
0010
2000
0000
,
0000
0000
3100
0000
0000
0000
0010
0001
0010
0100
1000
0000
0010
0100
0001
0000
,
1000
0000
0100
0000
0100
0000
0100
0010
0001
0000
0100
0000
0010
0100
0020
0000
,
0000
1030
0010
0000
0000
0000
1000
0100
0010
0100
1000
0001
0010
0000
0011
0000
,
0200
0000
1300
0000
1000
0000
1000
0001
0100
0000
1000
0000
0100
0010
0200
0000
,
0000
0000
0301
0000
0000
0000
0001
0100
0010
1000
0001
0000
0100
0001
0100
0000
,
0020
0000
1000
0000
1030
0000
0001
1000
0100
0000
0010
0000
0200
0000
0000
0000
,
0320
0100
0100
0230
,
0320
0000
0000
0000
,
0032
0000
0000
0000
,
2003
0000
0000
0000
,
3020
0000
0000
0000
0000
0000
0000
0000
0000
0000
0000
0000
0130
0010
0000
1000
,
0000
0100
0000
0001
0000
0100
0000
1000
0000
0010
0000
0001
0000
0010
0000
0200
,
0000
0000
0000
0310
0000
0000
0000
0000
0010
0000
0000
0000
1000
0001
0000
0010
,
0000
1000
0000
0010
0000
0001
0000
0100
0000
1000
0000
0100
0000
0010
0000
2000
,
0000
0000
0000
3001
0000
0000
0000
0000
0001
0000
0100
0000
1000
0000
0001
0000
,
0020
0000
1030
0000
1000
0100
0001
1000
,
0020
0000
0031
0000
0001
0100
1000
0100
,
0020
1030
1000
0200
,
0010
0000
0000
0000
0010
0000
0000
0000
0310
0000
0010
0000
0110
0000
0100
1000
,
0010
0000
0100
0000
0100
0000
0100
0001
0010
0000
0100
0000
1000
0100
0020
0000
,
0000
0000
0031
0000
0000
0000
0100
0001
0100
0010
1000
0000
0100
0010
0001
0000
,
1000
0000
0010
0000
0010
0000
0010
0100
1000
0000
0100
0000
0001
1000
0200
0000
,
0000
1300
0100
0000
0000
0000
1000
0010
0100
0010
1000
0001
0100
0000
0101
0000
,
0020
0000
1030
0000
1000
0000
1000
0001
0010
0000
1000
0000
0010
0100
2000
0000
,
0000
0000
3001
0000
0000
0000
0001
0010
0100
1000
0001
0000
0010
0001
0010
0000
,
0200
0000
1000
0000
1300
0000
0001
1000
0010
0000
0100
0000
0020
0000
0000
0000
,
0230
1000
0301
0220
,
0330
0000
0000
0000
;

//---------------dance-single - ----------------
#NOTEDATA:;
#CHARTNAME:Easy;
#STEPSTYPE:dance-single;
#DESCRIPTION:;
#CHARTSTYLE:;
#DIFFICULTY:Easy;
#METER:3;
#RADARVALUES:0.204520,0.242512,0.014759,0.162351,0.000000,194.000000,192.000000,2.000000,22.000000,0.000000,0.000000,0.000000,0.000000,0.000000,0.204520,0.242512,0.014759,0.162351,0.000000,194.000000,192.000000,2.000000,22.000000,0.000000,0.000000,0.000000,0.000000,0.000000;
#CREDIT:DigitalBasic;
#NOTES:
0000
0000
0000
0000
,
0000
0000
0000
0000
,
0000
0000
0000
0000
,
0000
0000
0000
0000
,
0001
0000
0100
0000
,
0010
0000
1000
1000
,
0001
0010
0000
0001
,
1000
0000
0010
0010
,
0100
0000
0001
0000
,
1000
0000
0100
0100
,
0010
0001
0000
1000
,
0010
0000
0000
0100
,
0020
1000
0000
1030
,
2000
0001
0000
3001
,
0002
0010
0000
0013
,
0020
0100
0100
0130
,
0010
0000
0010
0001
,
1000
0000
0010
0010
,
0100
0001
0000
1000
,
0200
0000
0000
0300
,
2000
3000
0020
0030
,
0200
0300
0001
0001
,
1000
0100
0001
0100
,
1000
0000
0000
0000
1000
1000
1000
0000
,
0001
0100
0001
0010
,
0100
0000
1000
0000
0001
0001
0001
0000
,
0100
0010
1000
0001
,
1000
0000
0100
0000
1000
1000
1000
0000
,
0100
0010
0001
1000
,
0010
0000
0100
0000
0010
0010
0010
0000
,
0100
0001
1000
0100
,
0020
0100
0130
0110
,
1000
0100
1000
0010
,
0100
0000
0001
0000
1000
1000
1000
0000
,
0100
0010
0001
1000
,
0001
0000
0100
0000
0001
0001
0001
0000
,
0100
0010
1000
0001
,
0010
0000
0100
0000
0010
0010
0010
0000
,
0100
1000
0001
0100
,
0020
0100
0100
0130
,
0200
0000
0000
0000
,
0302
0000
0000
0000
,
2003
0000
0000
0000
,
3020
0000
0000
0000
,
2030
0000
3200
0000
,
0320
0000
0032
0000
,
0203
0000
0320
0000
,
0230
0000
0301
1000
,
0100
0100
1000
0001
,
0100
0100
0010
1000
,
0001
0010
0001
1000
,
0010
0000
0100
0000
0001
0001
0001
0000
,
1000
0010
1000
0100
,
0010
0000
0001
0000
1000
1000
1000
0000
,
0010
0100
0001
1000
,
0001
0000
0010
0000
0001
0001
0001
0000
,
0010
0100
1000
0001
,
0100
0000
0010
0000
0100
0100
0100
0000
,
0010
1000
0001
0010
,
0200
0010
0310
0110
;

//---------------dance-single - ----------------
#NOTEDATA:;
#CHARTNAME:Normal;
#STEPSTYPE:dance-single;
#DESCRIPTION:;
#CHARTSTYLE:;
#DIFFICULTY:Medium;
#METER:6;
#RADARVALUES:0.343678,0.396837,0.051657,0.132832,0.129143,326.000000,319.000000,7.000000,18.000000,0.000000,0.000000,0.000000,0.000000,0.000000,0.343678,0.396837,0.051657,0.132832,0.129143,326.000000,319.000000,7.000000,18.000000,0.000000,0.000000,0.000000,0.000000,0.000000;
#CREDIT:DigitalBasic;
#NOTES:
// measure 0
0000
0000
0000
0000
,  // measure 1
0000
0000
0000
0000
,  // measure 2
0000
0000
0000
0000
,  // measure 3
0000
0000
0000
0000
0001
0100
0010
0100
,  // measure 4
0001
0000
1000
0000
0100
0010
0100
1000
,  // measure 5
0100
0000
0010
0000
0001
0100
1000
0100
,  // measure 6
0001
0100
0010
1000
,  // measure 7
0001
0000
0000
0000
0010
0001
0010
0100
,  // measure 8
0010
0000
0001
0000
1000
0010
0100
0010
,  // measure 9
1000
0000
0001
0000
1000
0100
0001
0100
,  // measure 10
1000
0001
1000
0001
,  // measure 11
0100
0000
0000
0000
0000
0000
0000
0000
0000
0000
0000
0000
0100
0010
0000
0000
,  // measure 12
0020
1000
0230
0001
,  // measure 13
0320
1000
0130
0001
,  // measure 14
0020
0001
0230
1000
,  // measure 15
0320
0000
0001
0000
0130
0010
0100
1000
,  // measure 16
0100
0000
0010
0000
0001
0100
0010
0100
,  // measure 17
0001
0000
1000
0000
1000
0010
0001
0010
,  // measure 18
1000
0001
0010
0100
,  // measure 19
0010
0010
0010
0010
,  // measure 20
0010
0001
0000
0000
0100
0010
0000
0000
,  // measure 21
1000
0100
0000
0000
0001
0010
0001
0010
,  // measure 22
0100
1000
0100
0001
0100
1000
0010
0001
,  // measure 23
0020
0000
0000
0000
0130
0010
0110
0000
,  // measure 24
0001
0000
0100
0000
0010
0000
0100
0000
0001
0000
0010
0000
0100
0010
0100
0000
,  // measure 25
0000
0010
0000
0001
1000
1000
0001
0001
,  // measure 26
0100
0000
0010
0000
0100
0000
0001
0000
1000
0000
0100
0000
1000
0001
1000
0000
,  // measure 27
0000
0010
0100
0000
0000
0000
0001
0000
0001
0000
1000
0000
1000
0000
0000
0000
,  // measure 28
1001
0000
1000
0000
0100
0000
0010
0000
0100
0000
1000
0000
0001
0100
0001
0000
,  // measure 29
0000
0100
0000
0010
0010
0100
0100
0001
,  // measure 30
2000
0000
3001
0000
0010
0100
0010
0000
,  // measure 31
0020
0001
1030
0110
,  // measure 32
1000
0000
0100
0000
0010
0000
0100
0000
1000
0000
0010
0000
0100
0010
0100
0000
,  // measure 33
0000
0010
0000
1000
0001
0001
1000
1000
,  // measure 34
0100
0000
0010
0000
0100
0000
1000
0000
0001
0000
0100
0000
0001
1000
0001
0000
,  // measure 35
0000
0010
0100
0000
0000
0000
1000
0000
1000
0000
0001
0000
0001
0000
1001
0000
,  // measure 36
0000
0000
0001
0000
0100
0000
0010
0000
0100
0000
0001
0000
1000
0100
1000
0000
,  // measure 37
0000
0100
0000
0010
0010
0100
0100
1000
,  // measure 38
0002
0000
1003
0000
0010
0100
0010
0000
,  // measure 39
0200
1000
0301
0010
,  // measure 40
0002
0000
0000
0000
,  // measure 41
0023
0000
0000
0000
,  // measure 42
2030
0000
0000
0000
,  // measure 43
3200
0000
0000
0000
0000
0000
0000
0000
0000
0000
0000
0000
0301
0100
0000
0001
,  // measure 44
0000
1000
0000
0001
0000
0010
0000
0001
0000
1000
0000
0010
0000
0100
0000
0001
,  // measure 45
0000
0000
0000
1000
0000
0000
0000
0000
0000
0000
0000
0000
0001
1000
0000
0100
,  // measure 46
0000
1000
0000
0001
0000
1000
0000
0010
0000
0100
0000
0001
0000
0010
0000
0100
,  // measure 47
0000
0000
0000
0010
0000
0000
0000
0000
0001
0000
0010
0000
0100
0000
0010
0000
,  // measure 48
0001
0000
1000
0000
0010
0100
0001
0100
,  // measure 49
0010
0000
0100
0000
0010
0100
0010
0100
,  // measure 50
0001
0010
0100
1000
,  // measure 51
0020
0000
0100
0000
0130
0010
0110
0000
,  // measure 52
1000
0000
0010
0000
0100
0000
0010
0000
1000
0000
0100
0000
0010
0100
0010
0000
,  // measure 53
0000
0100
0000
1000
0001
0001
1000
1000
,  // measure 54
0010
0000
0100
0000
0010
0000
1000
0000
0001
0000
0010
0000
0001
1000
0001
0000
,  // measure 55
0000
0100
0010
0000
0000
0000
1000
0000
1000
0000
0001
0000
0001
0000
1001
0000
,  // measure 56
0000
0000
0001
0000
0010
0000
0100
0000
0010
0000
0001
0000
1000
0010
1000
0000
,  // measure 57
0000
0010
0000
0100
0100
0010
0010
1000
,  // measure 58
0002
0000
1003
0000
0100
0010
0100
0000
,  // measure 59
0200
1000
0301
0110
;
