#VERSION:0.83;
#TITLE:The Club Rules;
#SUBTITLE:(Cmd/Ctrl Remix);
#ARTIST:Hybrid;
#TITLETRANSLIT:;
#SUBTITLETRANSLIT:;
#ARTISTTRANSLIT:;
#GENRE:;
#ORIGIN:;
#CREDIT:;
#BANNER:;
#BACKGROUND:;
#PREVIEWVID:;
#JACKET:;
#CDIMAGE:;
#DISCIMAGE:;
#LYRICSPATH:;
#CDTITLE:;
#MUSIC:The Club Rules (CmdCtrl Remix).ogg;
#OFFSET:-0.034596;
#SAMPLESTART:50.449997;
#SAMPLELENGTH:21.600000;
#SELECTABLE:YES;
#DISPLAYBPM:50.000000:100.000000;
#BPMS:0.000=50.000,
4.000=100.000,
110.000=200.000,
112.000=100.000,
176.000=50.000,
176.500=100.000,
191.000=50.000;
#STOPS:80.000=1.800,
109.000=0.600,
110.000=0.150,
110.500=0.150,
111.000=0.150,
111.500=0.150,
144.000=1.800,
183.250=0.300;
#DELAYS:;
#WARPS:;
#TIMESIGNATURES:0.000=4=4;
#TICKCOUNTS:0.000=4;
#COMBOS:0.000=1;
#SPEEDS:0.000=1.000=0.000=0;
#SCROLLS:0.000=1.000;
#FAKES:;
#LABELS:0.000=Song Start;
#BGCHANGES:;
#KEYSOUNDS:;
#ATTACKS:
;

//---------------dance-single - ----------------
#NOTEDATA:;
#CHARTNAME:;
#STEPSTYPE:dance-single;
#DESCRIPTION:;
#CHARTSTYLE:;
#DIFFICULTY:Hard;
#METER:9;
#RADARVALUES:0.593892,0.583468,0.658976,0.130168,0.626434,511.000000,430.000000,81.000000,16.000000,30.000000,0.000000,0.000000,0.000000,0.000000,0.593892,0.583468,0.658976,0.130168,0.626434,511.000000,430.000000,81.000000,16.000000,30.000000,0.000000,0.000000,0.000000,0.000000;
#CREDIT:;
#DISPLAYBPM:50.000000:100.000000;
#NOTES:
// measure 0
0000
0000
0000
0000
,  // measure 1
1000
0100
0000
M100
0001
0000
010M
1000
0001
0010
0100
1000
0001
0000
0200
0000
,  // measure 2
1300
0001
MMM1
1000
0010
0001
0010
2000
,  // measure 3
3001
0010
0000
001M
1000
0000
M010
0001
1000
0100
0010
0001
1000
0000
0020
0000
,  // measure 4
0130
0010
0000
0010
,  // measure 5
1000
0100
0001
0100
1000
0000
0010
0000
,  // measure 6
0001
0010
1000
0010
0100
0000
1000
0000
,  // measure 7
0100
0001
1000
0100
0010
0000
1000
0000
,  // measure 8
0001
0100
0010
0001
1000
0010
0200
0000
,  // measure 9
1300
0100
0001
1000
0100
0000
0001
0100
,  // measure 10
1000
0100
0001
0010
1000
0000
0001
0100
,  // measure 11
1000
0100
0001
1000
0010
0000
0001
0000
,  // measure 12
0010
0000
0001
0000
0010
0000
0100
0000
0010
0000
0000
0000
0100
0000
0010
0000
0100
0000
0001
0000
0100
0000
0000
0000
0100
0001
0100
0001
1000
0000
0000
0000
,  // measure 13
0001
0000
0010
0000
0110
0000
0000
1001
0000
0010
0100
0000
1001
0000
0000
0001
,  // measure 14
0010
0000
0100
0000
1001
0000
0000
0110
0000
0100
1000
0000
2002
0000
3003
0000
,  // measure 15
1000
0000
0001
0000
0110
0000
0000
1001
0000
0010
0100
0000
1001
0000
0000
0010
,  // measure 16
0200
0000
0001
0000
0010
0000
0000
0301
0000
0001
0100
0001
1001
0000
1100
0000
,  // measure 17
1000
0000
0100
0000
0110
0000
0000
1001
0000
0100
0010
0000
1001
0000
0000
1000
,  // measure 18
0100
0000
0010
0000
1001
0000
0000
0110
0000
0010
0001
0000
2001
0000
0100
0000
,  // measure 19
3001
0000
1000
0000
0110
0000
0000
1001
0000
0010
0100
0000
1001
0000
0001
0100
,  // measure 20
MMMM
0000
0000
0000
1010
1000
0001
0000
1100
0000
0000
0110
0000
0100
1000
0001
,  // measure 21
0010
0000
0100
0000
0011
0000
0110
0000
0011
0000
0000
0110
0000
0010
0001
1000
,  // measure 22
0100
0000
0010
0000
0011
0001
1000
0000
0101
0000
0000
0110
0000
0100
0001
1000
,  // measure 23
0020
0000
2030
0001
0100
0001
3020
0100
,  // measure 24
1000
0000
1030
0000
1010
1000
0001
0000
1100
0000
0000
0110
0000
0100
1000
0001
,  // measure 25
0010
0000
0100
0000
0011
0000
0110
0000
0011
0000
0000
0110
0000
0010
0001
1000
,  // measure 26
0100
0000
0010
0000
0011
0001
1000
0000
0101
0000
0000
0110
0000
0100
0001
1000
,  // measure 27
0010
0000
1000
0010
MMMM
0000
0000
0000
0101
0000
0101
0000
0101
0000
0101
0000
,  // measure 28
0101
0000
0000
0100
0000
0000
0010
0000
0000
0000
0000
0000
0101
0000
0000
0000
0100
0000
0000
0000
0010
0000
0000
0000
1000
0000
0000
0000
0001
0000
0000
0000
0100
0000
0000
0000
0010
0000
0000
0100
0000
0000
0001
0000
0000
1000
0000
0000
,  // measure 29
0100
0000
0010
0000
1000
0000
0010
0000
0100
0000
0001
0000
0100
0000
0010
0000
0001
0000
1000
0000
0000
0001
0000
0000
,  // measure 30
1010
0000
0000
0010
0000
0000
0100
0000
0000
0000
0000
0000
1010
0000
0000
0000
0010
0000
0000
0000
0100
0000
0000
0000
0001
0000
0000
0000
1000
0000
0000
0000
0010
0000
0000
0000
0100
0000
0000
0010
0000
0000
1000
0000
0000
0001
0000
0000
,  // measure 31
0010
0000
0100
0000
0011
0000
0000
1100
0000
0010
0100
1000
0001
0000
0010
0000
,  // measure 32
0011
0000
0000
0010
0000
0000
0100
0000
0000
0000
0000
0000
0011
0000
0000
0000
0010
0000
0000
0000
0100
0000
0000
0000
1000
0000
0000
0000
0001
0000
0000
0000
0010
0000
0000
0000
0100
0000
0000
0010
0000
0000
0001
0000
0000
1000
0000
0000
,  // measure 33
0010
0000
0100
0000
1000
0000
0100
0000
0010
0000
0001
0000
0010
0000
0100
0000
0001
0000
1000
0000
0000
0001
0000
0000
,  // measure 34
1100
0000
0000
0100
0000
0000
0010
0000
0000
0000
0000
0000
1100
0000
0000
0000
0100
0000
0000
0000
0010
0000
0000
0000
0001
0000
0000
0000
1000
0000
0000
0000
0100
0000
0000
0000
0010
0000
0000
0100
0000
0000
1000
0000
0000
0001
0000
0000
,  // measure 35
0100
0000
0010
0000
0101
0000
0000
1010
0000
0100
0010
1000
0001
0000
0010
0000
,  // measure 36
MMMM
0000
0000
0000
1100
1000
0001
0000
1010
0000
0000
0110
0000
0010
1000
0001
,  // measure 37
1002
0000
0103
0000
0101
0000
0110
0000
0101
0000
0000
0110
0000
0100
0001
1000
,  // measure 38
0010
0000
0100
0000
0101
0001
1000
0000
0011
0000
0000
0110
0000
0010
0001
1000
,  // measure 39
0200
0000
2300
0001
0010
0001
3100
0010
,  // measure 40
0021
0000
0130
0000
0011
0001
1000
0000
0101
0000
0000
0110
0000
0100
0001
1000
,  // measure 41
2001
0000
3010
0000
1010
0000
0110
0000
1010
0000
0000
0110
0000
0100
0001
1000
,  // measure 42
0010
0000
0100
0000
0101
0001
1000
0000
0011
0000
0000
0110
0000
0010
0001
1000
,  // measure 43
0100
0000
0000
M100
0001
1000
0100
0010
0001
0000
1000
0100
0000
MM01
0010
0000
,  // measure 44
0100
0010
0001
0010
0000
001M
1000
0000
1000
0100
0000
M100
0001
1000
0000
0000
,  // measure 45
1001
0000
0001
0100
0000
010M
1000
0000
1000
0010
0000
M010
0001
0100
0000
0000
,  // measure 46
1000
0010
0000
M010
0001
0000
0001
0100
0000
010M
1000
0001
0000
0000
1001
0000
,  // measure 47
0001
0100
0000
010M
1000
0000
1000
0010
0000
M010
0001
0100
0010
0100
0000
0000
;

//---------------dance-single - ----------------
#NOTEDATA:;
#CHARTNAME:;
#STEPSTYPE:dance-single;
#DESCRIPTION:;
#CHARTSTYLE:;
#DIFFICULTY:Medium;
#METER:7;
#RADARVALUES:0.404451,0.427877,0.260336,0.268472,0.235930,348.000000,316.000000,32.000000,33.000000,0.000000,0.000000,1.000000,0.000000,0.000000,0.404451,0.427877,0.260336,0.268472,0.235930,348.000000,316.000000,32.000000,33.000000,0.000000,0.000000,1.000000,0.000000,0.000000;
#CREDIT:;
#DISPLAYBPM:50.000000:100.000000;
#NOTES:
0000
0000
0000
0000
,
0001
1000
0010
0001
0010
1000
0001
0010
,
0200
0000
0001
0320
0000
1000
0130
2000
,
3001
1000
0010
0001
0010
1000
0001
0010
,
0100
0010
0000
0010
,
0001
0100
0010
1000
0100
0000
1000
0100
,
0001
0000
0001
0100
1000
0000
0001
0000
,
1000
0010
0100
0001
0010
0000
0001
0010
,
1000
0000
1000
0010
0001
0100
0020
0000
,
0130
0010
1000
0001
0010
0000
0100
1000
,
0001
0010
1000
0010
0100
0000
1000
0100
,
0010
0001
1000
0010
0100
0000
0010
0100
,
0001
0000
0001
1000
0100
0000
0010
0100
0010
0100
1000
0000
0001
0010
0100
0000
,
1000
0000
0001
0000
0110
0000
0000
1001
0000
0000
0010
0000
0100
0000
0000
1001
,
0000
0000
0010
0000
0100
0000
0000
1001
0000
0000
0001
0000
0200
0000
0000
0000
,
0310
0000
0100
0000
1001
0000
0000
0110
0000
0000
1000
0000
0001
0000
0000
0000
,
2000
0000
0100
0000
3002
0000
0100
1003
,
0001
0000
1000
0000
0110
0000
0000
1001
0000
0000
0100
0000
0010
0000
0000
1001
,
0000
0000
0100
0000
0010
0000
0000
1001
0000
0000
1000
0000
0200
0000
0000
0000
,
0310
0000
0100
0000
1001
0000
0000
0110
0000
0000
0001
0000
1000
0000
0000
1001
,
0000
0000
0000
0000
0001
0100
0001
0000
1000
0000
0000
1100
0000
0000
1000
0000
,
0001
0000
0010
0000
1000
0000
0010
0000
0001
0000
0000
0011
0000
0000
0001
0000
,
1000
0000
0001
0000
0100
0001
0100
0000
0010
0000
0000
0110
0000
0000
0100
0000
,
0002
2003
0001
3200
,
0010
0000
0010
0000
1300
0100
1000
0000
0001
0000
0000
0101
0000
0000
0001
0000
,
1000
0000
0010
0000
0001
0000
0010
0000
1000
0000
0000
1010
0000
0000
1000
0000
,
0001
0000
1000
0000
0100
1000
0100
0000
0010
0000
0000
0110
0000
0000
0100
0000
,
1000
0000
0000
1100
0000
0000
0000
0000
4000
0000
0000
0000
0000
0000
3000
0000
,
2000
0000
0100
0000
3002
0000
0000
0100
0000
0000
1000
0000
0013
0000
0000
0000
,
0200
0000
0001
0000
0320
0000
0000
1000
0000
0000
0100
0000
0001
0000
0031
0000
,
2000
0000
0010
0000
3002
0000
0000
0010
0000
0000
1000
0000
0103
0000
0000
0000
,
0001
0100
0020
0000
0001
0000
1000
0100
,
2030
0000
0010
0000
3002
0000
0000
0010
0000
0000
1000
0000
0103
0000
0000
0000
,
0020
0000
0001
0000
0230
0000
0000
1000
0000
0000
0010
0000
0001
0000
0301
0000
,
2000
0000
0100
0000
3002
0000
0000
0100
0000
0000
1000
0000
0013
0000
0000
0000
,
0001
0010
0200
0000
0001
0000
1000
0310
,
0220
0300
0000
0000
0000
0000
0000
0000
0000
0000
0000
0000
0000
0000
0000
0000
0000
0000
0000
0000
0000
0000
0000
0000
0000
0000
0000
0000
0000
0000
0000
0000
0000
0000
0000
0000
0000
0000
0000
0000
0000
0000
0000
0000
0000
0000
0000
0000
0031
0000
0000
0000
0000
0000
0000
0000
0000
0000
0000
0000
0010
0000
0000
0000
0000
0000
0000
0000
0000
0000
0000
0000
0001
0000
0000
0000
0000
0000
0000
0000
0000
0000
0000
0000
0000
0000
0000
0000
0000
0000
0000
0000
0000
0000
0000
0000
1000
0000
0000
0000
0000
0000
0000
0000
0000
0000
0000
0000
0000
0000
0000
0000
0000
0000
0000
0000
0000
0000
0000
0000
0000
0000
0000
0000
0000
0000
0000
0000
0000
0000
0000
0000
1010
0000
0000
0000
0000
0000
0000
0000
0000
0000
0000
0000
0000
0000
0000
0000
0000
0000
0000
0000
0000
0000
0000
0000
0000
0000
0000
0000
0000
0000
0000
0000
0000
0000
0000
0000
1000
0000
0000
0000
0000
0000
0000
0000
0000
0000
0000
0000
0000
0000
0000
0000
0000
0000
0000
0000
0000
0000
0000
0000
,
1002
0000
0103
0000
1000
0000
0100
0000
0001
0000
0000
0101
0000
0000
0001
0000
,
1000
0000
0001
0000
0010
0001
0010
0000
0100
0000
0000
0110
0000
0000
0010
0000
,
0002
2003
0010
3001
,
0120
0000
0031
0000
1000
0010
1000
0000
0001
0000
0000
0011
0000
0000
0001
0000
,
1002
0000
0103
0000
1000
0000
0100
0000
0001
0000
0000
0101
0000
0000
0001
0000
,
1000
0000
0001
0000
0010
0001
0010
0000
0100
0000
0000
0110
0000
0000
0010
0000
,
0001
0000
0000
0000
1000
0000
0010
0000
0100
0000
0000
1000
0000
0000
0100
0000
,
0002
0000
0103
0001
0000
0100
0001
0000
0100
0001
0000
0000
0100
0000
0000
0000
,
1001
0000
0001
1000
0000
0001
1000
0000
0001
1000
0000
0100
0000
1000
0000
0000
,
0100
1000
0000
0100
1000
0000
0100
1000
0000
0000
0100
0000
0000
0000
1001
0000
,
1000
0001
0000
1000
0001
0000
1000
0001
0000
1000
0000
0010
1000
0001
0000
0000
;

//---------------dance-single - ----------------
#NOTEDATA:;
#CHARTNAME:;
#STEPSTYPE:dance-single;
#DESCRIPTION:;
#CHARTSTYLE:;
#DIFFICULTY:Easy;
#METER:5;
#RADARVALUES:0.245227,0.272285,0.162710,0.317285,0.024407,211.000000,191.000000,20.000000,39.000000,0.000000,0.000000,0.000000,0.000000,0.000000,0.245227,0.272285,0.162710,0.317285,0.024407,211.000000,191.000000,20.000000,39.000000,0.000000,0.000000,0.000000,0.000000,0.000000;
#CREDIT:;
#DISPLAYBPM:50.000000:100.000000;
#NOTES:
0000
0000
0000
0000
,
2000
0000
0000
3002
0000
0000
0000
0000
,
0023
0000
0000
0230
0000
0000
0000
0000
,
2300
0000
0000
3002
0000
0000
0000
0000
,
0103
0010
0000
0010
,
0100
0001
0010
1000
,
0100
0001
0100
0010
,
0001
0100
1000
0010
,
0001
0010
0100
0002
,
1003
0100
0001
0100
,
0010
0001
1000
0010
,
0001
0100
1000
0001
,
0100
0010
0100
0020
0000
0030
0010
1000
,
0001
0000
1001
0000
1000
0100
1000
0000
,
1000
0001
0000
0000
1000
0100
2000
0000
,
3001
0000
1001
0000
0001
0100
0001
0000
,
0200
0010
0302
1000
,
1003
0000
1001
0000
0001
0010
0001
0000
,
1000
0001
0000
0000
0001
0010
0002
0000
,
1003
0000
1001
0000
1000
0010
1000
0000
,
1000
1010
1001
0001
,
1000
0000
0100
0010
0100
0000
1000
0000
,
0001
0101
1001
1000
,
0002
2003
0000
3200
,
1300
1100
1001
0001
,
1000
0000
0010
0100
0010
0000
1000
0000
,
0001
0011
1001
1000
,
0001
0100
0010
0010
,
0020
2030
0001
0100
,
3002
0203
0010
1000
,
0320
2030
0001
0100
,
3002
0200
0000
0303
,
0200
0302
1000
0010
,
2003
3020
0100
0001
,
0230
0302
1000
0010
,
2003
0020
0000
0000
,
3030
1010
1001
0001
,
1000
1000
0100
0010
0100
0000
1000
0000
,
0001
0101
1001
1000
,
0002
2003
0000
3200
,
1000
1300
1100
0000
1001
0000
0001
0000
,
1000
1000
0010
0100
0010
0000
1000
0000
,
0001
0011
1001
1000
,
0001
0100
0010
1000
,
0002
0000
2003
0000
0000
0000
3200
0000
0000
1000
0000
0000
0000
0000
0000
0000
,
0010
0000
0010
0000
0000
0000
1000
0000
0000
0010
0000
0000
0000
1300
0000
0000
,
0002
0000
0000
0000
0203
0000
0000
0001
0000
0000
0000
0000
0000
0000
0010
0000
,
0010
0000
0000
0000
0001
0000
0000
0010
0000
0000
0000
0000
0301
0100
0000
0000
;

//---------------dance-single - ----------------
#NOTEDATA:;
#CHARTNAME:;
#STEPSTYPE:dance-single;
#DESCRIPTION:;
#CHARTSTYLE:;
#DIFFICULTY:Beginner;
#METER:2;
#RADARVALUES:0.138304,0.175040,0.154575,0.235930,0.000000,119.000000,100.000000,19.000000,29.000000,0.000000,0.000000,0.000000,0.000000,0.000000,0.138304,0.175040,0.154575,0.235930,0.000000,119.000000,100.000000,19.000000,29.000000,0.000000,0.000000,0.000000,0.000000,0.000000;
#CREDIT:;
#DISPLAYBPM:50.000000:100.000000;
#NOTES:
0000
0000
0000
0000
,
0000
0001
0000
0001
,
0000
1000
0000
1000
,
0000
0010
0000
0010
,
0000
0100
0000
0100
,
0200
0300
0002
0003
,
2000
3000
0200
0300
,
0020
0030
0200
0300
,
2000
3000
0001
0001
,
0002
0003
0200
0300
,
0020
0030
0200
0300
,
0002
0003
2000
3000
,
1001
0000
0110
0000
,
1000
0000
1000
1000
,
1000
0000
0001
0001
,
0001
0000
1000
0000
,
0020
0030
0020
0030
,
0100
0000
0100
0100
,
0100
0000
0010
0010
,
0010
0000
0100
0000
,
0001
1001
0000
0000
,
0000
0110
1001
0000
,
0000
0110
0000
0000
,
1000
2000
3000
0002
,
0003
1001
0000
0000
,
0000
0110
1001
0000
,
0000
0110
0000
0000
,
1000
0000
0000
0000
0002
0000
0000
0003
,
0000
0002
0000
0003
,
0100
0200
0000
0300
,
0010
0020
0000
0030
,
0100
0200
0000
0300
,
0100
0200
0000
0300
,
0001
0002
0000
0003
,
1000
2000
0000
3000
,
0100
0200
0000
0300
,
0010
0110
0000
0000
,
0010
0110
1001
0000
,
0000
0110
0000
0000
,
1000
2000
3000
0001
,
0001
1001
0000
0000
,
0100
0110
1001
0000
,
0000
0110
0000
0000
,
0000
1000
1000
0001
,
0001
0001
0000
0001
0000
0000
0000
0000
,
1000
0000
0000
0001
0000
0000
0000
0000
,
1000
0000
1000
0000
0000
0000
0000
0001
,
0000
0000
0000
0000
1000
0000
0000
0000
0000
0000
0000
0000
0220
0330
0000
0000
;
