#VERSION:0.83;
#TITLE:Summery;
#SUBTITLE:;
#ARTIST:KO3;
#TITLETRANSLIT:;
#SUBTITLETRANSLIT:;
#ARTISTTRANSLIT:;
#GENRE:;
#ORIGIN:;
#CREDIT:;
#BANNER:Summery.png;
#BACKGROUND:Summery-bg.png;
#PREVIEWVID:;
#JACKET:Summery-jacket.png;
#CDIMAGE:;
#DISCIMAGE:;
#LYRICSPATH:;
#CDTITLE:;
#MUSIC:Summery.ogg;
#OFFSET:0.000000;
#SAMPLESTART:47.630047;
#SAMPLELENGTH:15.200000;
#SELECTABLE:YES;
#BPMS:0.000=126.000;
#STOPS:;
#DELAYS:;
#WARPS:;
#TIMESIGNATURES:0.000=4=4;
#TICKCOUNTS:0.000=4;
#COMBOS:0.000=1;
#SPEEDS:0.000=1.000=0.000=0;
#SCROLLS:0.000=1.000;
#FAKES:;
#LABELS:0.000=Song Start;
#BGCHANGES:;
#KEYSOUNDS:;
#ATTACKS:
;

//---------------dance-single - ----------------
#NOTEDATA:;
#CHARTNAME:;
#STEPSTYPE:dance-single;
#DESCRIPTION:;
#CHARTSTYLE:;
#DIFFICULTY:Hard;
#METER:8;
#RADARVALUES:0.457852,0.491767,0.262841,0.118702,0.228926,378.000000,347.000000,31.000000,14.000000,0.000000,0.000000,0.000000,0.000000,0.000000,0.457852,0.491767,0.262841,0.118702,0.228926,378.000000,347.000000,31.000000,14.000000,0.000000,0.000000,0.000000,0.000000,0.000000;
#CREDIT:;
#NOTES:
0000
0000
0000
0000
,
0000
0000
0000
0000
,
0000
0000
0000
0000
,
0000
0000
0000
0000
,
0000
0000
0000
0000
,
1000
0000
0100
0000
1000
0000
0010
0000
0100
0000
0000
0100
0000
0000
0100
0000
,
0001
0000
0010
0000
0001
0000
0100
0000
0010
0000
0000
0010
0000
0000
0010
0000
,
0100
0000
0001
0000
0010
0000
0100
0000
0010
0000
0000
0001
0000
0000
1000
0000
,
0002
0000
0100
0103
,
0002
0000
1003
0000
0001
0100
0010
0000
,
2000
0000
3001
0001
1000
0010
0100
0000
,
0001
0001
0010
0000
0001
0001
0010
0000
,
0001
0100
0010
1000
0100
0100
1000
0000
,
0001
0000
0001
0000
1000
0001
1000
0000
,
0001
0000
0001
0000
1000
0010
0100
0000
,
0100
0000
0001
0000
0010
0001
0100
0000
,
0010
0001
0100
0000
0010
0001
0100
0010
,
1000
1000
0100
0000
1000
1000
0100
0000
,
1000
1000
0001
0000
1000
1000
0001
0000
,
0001
0001
0100
0000
0001
0001
0100
0000
,
0001
0001
0010
0100
1000
0001
0100
0010
,
0110
0110
1010
1010
,
1100
1100
0101
0101
,
0011
0011
0110
0110
,
2002
0000
0000
3003
,
0001
0000
0001
0000
1000
0000
1000
0000
0001
0000
0001
0100
0000
0100
0001
0000
,
0010
0000
0001
0000
0010
0000
0010
0000
0001
0000
0001
0100
0000
0100
0010
0000
,
0010
0000
1000
0000
0100
0000
0100
0000
1000
0000
1000
0010
0000
0010
0100
0000
,
0001
0000
0001
0100
0000
0100
0001
0000
0001
0000
0001
0010
0000
0100
1000
0000
,
0010
0000
0100
0000
0001
0000
0010
0000
0001
0000
0001
1000
0000
1000
0001
0000
,
0100
0000
0010
0000
1000
0000
0100
0000
1000
0000
1000
0001
0000
0001
1000
0000
,
0010
0000
1000
0000
0010
0000
0010
0000
0100
0000
0100
0001
0000
0001
0010
0000
,
0022
0000
0033
0101
,
0100
0000
0010
0000
1000
0000
0100
0000
1000
0000
1000
0001
0000
0001
1000
0000
,
0000
0000
0001
0000
0001
0000
0100
0000
0001
0000
0001
0010
0000
0010
0001
0000
,
0001
0000
0001
0000
0100
0000
0010
0000
1000
0000
1000
0100
0000
0100
1000
0000
,
0000
0000
1000
0000
1000
0000
0001
0000
1000
0000
0001
0100
0000
0100
0001
0000
,
0010
0000
0100
0000
0010
0000
0001
0000
1000
0000
0001
1000
0000
1000
0001
0000
,
0000
0000
1000
0000
1000
0000
0010
0000
1000
0000
1000
0100
0000
0100
1000
0000
,
1000
0000
1000
0000
0010
0000
0100
0000
0001
0000
0001
0010
0000
0010
0001
0000
,
0002
0000
0000
0103
0000
0000
0000
0000
0200
0000
0000
0310
0000
0000
0000
0000
,
1001
1001
1100
1100
,
1010
1010
0011
0011
,
0101
0101
0110
0110
,
1001
1001
0110
0110
,
0010
1000
0100
0000
1000
0001
0100
0000
,
0100
0001
0010
0000
0010
0001
1000
0000
,
0001
1000
0001
1000
0001
1000
0001
2000
,
0000
0000
0001
0000
0001
0000
0001
0000
3001
0000
0001
0100
0000
1000
0100
0000
,
2000
0000
0000
0000
0000
0000
0000
0000
0001
0000
0000
0001
0000
0000
3001
0000
,
0001
0000
0100
0000
1000
0000
0100
0000
0001
0000
1000
0010
0000
0010
0100
0000
,
0100
0000
0001
0000
0010
0000
0010
0000
0001
0000
0001
0100
0000
0100
0010
0000
,
1000
0000
1000
0010
0000
0010
1000
0000
1000
0000
1000
0100
0000
0010
0001
0000
,
0100
0000
0010
0000
1000
0000
0100
0000
1000
0000
1000
0001
0000
0001
1000
0000
,
0010
0000
0100
0000
0001
0000
0010
0000
0001
0000
0001
1000
0000
1000
0001
0000
,
0100
0000
0001
0000
0100
0000
0100
0000
0010
0000
0010
1000
0000
1000
0100
0000
,
2000
0000
0000
3001
0000
0000
0000
0000
0002
0000
0000
0100
0000
0000
0200
0000
,
0000
0000
0000
0000
,
0303
0000
0000
0000
;

//---------------dance-single - ----------------
#NOTEDATA:;
#CHARTNAME:;
#STEPSTYPE:dance-single;
#DESCRIPTION:;
#CHARTSTYLE:;
#DIFFICULTY:Medium;
#METER:6;
#RADARVALUES:0.276165,0.344237,0.076309,0.101745,0.000000,228.000000,219.000000,9.000000,12.000000,0.000000,0.000000,0.000000,0.000000,0.000000,0.276165,0.344237,0.076309,0.101745,0.000000,228.000000,219.000000,9.000000,12.000000,0.000000,0.000000,0.000000,0.000000,0.000000;
#CREDIT:;
#NOTES:
// measure 0
0000
0000
0000
0000
,  // measure 1
0000
0000
0000
0000
,  // measure 2
0000
0000
0000
0000
,  // measure 3
0000
0000
0000
0000
,  // measure 4
0000
0000
0000
0000
,  // measure 5
0001
1000
0001
0001
,  // measure 6
1000
0001
1000
1000
,  // measure 7
0010
0100
0001
0001
,  // measure 8
0020
0000
0001
0031
,  // measure 9
0001
0100
0001
0000
,  // measure 10
0100
0010
1000
0000
,  // measure 11
0100
0100
1000
0000
,  // measure 12
2000
0000
0002
3003
,  // measure 13
0001
0100
0010
0000
,  // measure 14
0010
0100
0001
0000
,  // measure 15
0010
0100
1000
0000
,  // measure 16
0001
0001
1000
1000
,  // measure 17
0001
0100
0010
0000
,  // measure 18
0010
1000
0100
0000
,  // measure 19
1000
1000
0001
0001
,  // measure 20
0100
0100
0001
0010
,  // measure 21
0100
0100
0010
0010
,  // measure 22
0100
0100
0010
0010
,  // measure 23
0001
0001
1000
1000
,  // measure 24
2002
0000
0000
3003
,  // measure 25
0001
0000
0100
0000
0001
0001
0001
0000
,  // measure 26
0010
0000
0100
0000
1000
1000
1000
0000
,  // measure 27
0010
0000
0100
0000
0001
0001
0001
0000
,  // measure 28
1000
1000
1000
0000
0001
0001
0001
0000
,  // measure 29
1000
0000
0010
0000
0100
0100
0100
0000
,  // measure 30
0001
0000
0100
0000
0010
0010
0010
0000
,  // measure 31
0100
0000
0001
0000
0010
0010
0010
0000
,  // measure 32
0100
0100
0100
0000
0010
0010
0010
0000
,  // measure 33
0001
0000
1000
0000
0010
0100
0001
0000
,  // measure 34
0001
0000
0100
0000
0100
0001
0001
0000
,  // measure 35
0010
0000
0100
0000
1000
0010
0100
0000
,  // measure 36
0100
0000
0010
0000
1000
0001
1000
0000
,  // measure 37
0010
0100
0001
0000
0010
0000
0010
0000
,  // measure 38
0100
1000
0010
0000
0100
0000
0100
0000
,  // measure 39
0001
1000
0001
0000
0100
0000
0100
0000
,  // measure 40
0002
0000
1000
1003
,  // measure 41
1000
1001
0001
0101
,  // measure 42
1000
1010
0001
0011
,  // measure 43
0100
0101
1000
1100
,  // measure 44
0100
0100
1000
1000
,  // measure 45
0001
1000
0001
0000
0100
0000
0100
0000
,  // measure 46
0010
1000
0100
0000
1000
0000
1000
0000
,  // measure 47
0001
1000
0001
0100
,  // measure 48
2002
3000
1000
1003
,  // measure 49
2000
0000
0000
0000
0010
0010
3010
0000
,  // measure 50
0010
0000
0100
0000
0001
0001
0001
0000
,  // measure 51
0010
0000
0100
0000
1000
0100
1000
0000
,  // measure 52
0001
1000
0001
0000
0001
0100
0001
0000
,  // measure 53
0100
0000
0010
0000
1000
0100
1000
0000
,  // measure 54
0100
0000
1000
0000
0001
0100
0001
0000
,  // measure 55
0100
0001
0010
0000
0001
1000
0010
0000
,  // measure 56
0200
0000
0010
0310
,  // measure 57
2002
0000
0000
0000
,  // measure 58
3003
0000
0000
0000
;
