#VERSION:0.83;
#TITLE:Los! Los! Los!;
#SUBTITLE:;
#ARTIST:ターニャ・デグレチャフ (CV: 悠木碧);
#TITLETRANSLIT:;
#SUBTITLETRANSLIT:;
#ARTISTTRANSLIT:Tanya Degurechaff (CV: Aoi Yuuki);
#GENRE:Kriegskunst Rock;
#ORIGIN:;
#CREDIT:;
#BANNER:[VIP Room Round 3] - Los! Los! Los!.png;
#BACKGROUND:[VIP Room Round 3] - Los! Los! Los!-bg.png;
#PREVIEWVID:;
#JACKET:[VIP Room Round 3] - Los! Los! Los!-jacket.png;
#CDIMAGE:;
#DISCIMAGE:;
#LYRICSPATH:;
#CDTITLE:cdtitle.png;
#MUSIC:[VIP Room Round 3] - Los! Los! Los!.ogg;
#OFFSET:-0.170000;
#SAMPLESTART:54.074001;
#SAMPLELENGTH:15.000000;
#SELECTABLE:YES;
#BPMS:0.000=240.000;
#STOPS:;
#DELAYS:;
#WARPS:;
#TIMESIGNATURES:0.000=4=4;
#TICKCOUNTS:0.000=4;
#COMBOS:0.000=1;
#SPEEDS:0.000=1.000=0.000=0;
#SCROLLS:0.000=1.000;
#FAKES:;
#LABELS:0.000=Song Start;
#BGCHANGES:0.000=[VIP Room Round 3] - Los! Los! Los!.avi=1.000=0=0=0=StretchNoLoop==CrossFade_Fastest==,
99999=-nosongbg-=1.000=0=0=0 // don't automatically add -songbackground-
;
#KEYSOUNDS:;
#ATTACKS:
;

//---------------dance-single - ----------------
#NOTEDATA:;
#CHARTNAME:;
#STEPSTYPE:dance-single;
#DESCRIPTION:;
#CHARTSTYLE:;
#DIFFICULTY:Beginner;
#METER:3;
#RADARVALUES:0.237936,0.295104,0.022356,0.078247,0.000000,149.000000,147.000000,2.000000,7.000000,0.000000,0.000000,0.000000,0.000000,0.000000,0.237936,0.295104,0.022356,0.078247,0.000000,149.000000,147.000000,2.000000,7.000000,0.000000,0.000000,0.000000,0.000000,0.000000;
#CREDIT:;
#NOTES:
0000
0000
0000
0000
,
0000
0000
0000
0000
,
0000
0000
0000
0000
,
0000
0000
0000
0000
,
1000
0000
1000
0000
,
1000
0000
1000
0000
,
0001
0000
0001
0000
,
0001
0000
0001
0000
,
0100
0000
0100
0000
,
0100
0000
0100
0000
,
0010
0000
0010
0000
,
0010
0000
0010
0000
,
1000
0000
1000
0000
,
0100
0000
0100
0000
,
0001
0000
0100
0000
,
1000
0000
0000
0000
,
1000
0000
1000
0000
,
0001
0000
0001
0000
,
0100
0000
0100
0000
,
0010
0000
0010
0000
,
2002
0000
0000
0000
,
0000
0000
3003
0000
,
1000
0000
1000
0000
,
0001
0000
0001
0000
,
1000
0000
1000
0000
,
0001
0000
0000
0000
,
0001
0000
0001
0000
,
0100
0000
0000
0000
,
0100
0000
0100
0000
,
0010
0000
0000
0000
,
0010
0000
0010
0000
,
1000
0000
0000
0000
,
0001
0000
0001
0000
,
1000
0000
0000
0000
,
0010
0000
0010
0000
,
0100
0000
0000
0000
,
0001
0000
0001
0000
,
1000
0000
1000
0000
,
0001
0000
0001
0000
,
1000
0000
1000
0000
,
0010
0000
0010
0000
,
0100
0000
0100
0000
,
0010
0000
0010
0000
,
0100
0000
0100
0000
,
0001
0000
0001
0000
,
0010
0000
0010
0000
,
1000
0000
1000
0000
,
0100
0000
0100
0000
,
0001
0000
0001
0000
,
1000
0000
1000
0000
,
0010
0000
0010
0000
,
0100
0000
0100
0000
,
2002
0000
0000
0000
,
3003
0000
0000
0000
,
0001
0000
0001
0000
,
0100
0000
0100
0000
,
1000
0000
0010
0000
,
0001
0000
0000
0000
,
1000
0000
0010
0000
,
0100
0000
0001
0000
,
0010
0000
0100
0000
,
2000
0000
3000
0000
,
1000
0000
1000
0000
,
0010
0000
0010
0000
,
0001
0000
0100
0000
,
1000
0000
0000
0000
,
0001
0000
0100
0000
,
0010
0000
1000
0000
,
0100
0000
0010
0000
,
0002
0000
0003
0000
,
0001
0000
0000
0000
,
1000
0000
0000
0000
,
0010
0000
0000
0000
,
0100
0000
0000
0000
,
0001
0000
0001
0000
,
0001
0000
0001
0000
,
1000
0000
1000
0000
,
1000
0000
1000
0000
,
0100
0000
0100
0000
,
0100
0000
0100
0000
,
1000
0000
1000
0000
,
0001
0000
0001
0000
,
1000
0000
0001
0000
,
1000
0000
0001
0000
,
0010
0000
0010
0000
,
0100
0000
0100
0000
,
0010
0000
0100
0000
,
0010
0000
0200
0000
,
0300
0000
0000
0000
;

//---------------dance-single - ----------------
#NOTEDATA:;
#CHARTNAME:;
#STEPSTYPE:dance-single;
#DESCRIPTION:;
#CHARTSTYLE:;
#DIFFICULTY:Easy;
#METER:5;
#RADARVALUES:0.408802,0.491840,0.234742,0.245920,0.000000,256.000000,235.000000,21.000000,22.000000,0.000000,0.000000,0.000000,0.000000,0.000000,0.408802,0.491840,0.234742,0.245920,0.000000,256.000000,235.000000,21.000000,22.000000,0.000000,0.000000,0.000000,0.000000,0.000000;
#CREDIT:;
#NOTES:
0000
0000
0000
0000
,
0000
0000
0000
0000
,
0000
0000
0000
0000
,
0000
0000
0000
0000
,
0002
0000
1003
0000
,
0010
1000
0010
0000
,
0020
0000
0130
0000
,
0001
0100
0001
0000
,
2000
0000
3001
0000
,
0100
0001
0100
0000
,
0200
0000
0310
0000
,
1000
0010
1000
0000
,
0001
0100
0001
0000
,
1000
0100
1000
0000
,
0001
0100
0010
1000
,
0001
0000
1000
0000
,
1001
0000
0001
0010
,
0100
0000
1000
0010
,
0100
0000
0001
0000
,
1000
0000
0001
0000
,
2000
0000
3001
0000
,
0010
0001
0010
0000
,
0002
0000
1003
0000
,
0010
1000
0010
0000
,
1000
0010
1000
0010
,
0200
0000
0301
0000
,
1000
0100
1000
0100
,
0020
0000
0031
0000
,
0001
0010
0001
0010
,
0200
0000
1300
0000
,
0001
0100
0001
0100
,
0020
0000
1030
0000
,
1000
0001
0100
0010
,
2000
0000
3001
0000
,
0001
1000
0100
0010
,
0002
0000
1003
0000
,
2000
0000
3001
0000
,
0010
0001
1000
0001
,
0020
0000
0130
0000
,
1000
0100
1000
0000
,
0002
0000
1003
0000
,
0010
1000
0001
1000
,
0020
0000
0130
0000
,
0001
0100
0001
0000
,
1000
0001
0100
0000
,
0010
1000
0001
0000
,
0001
1000
0100
0000
,
0010
0001
1000
0000
,
1010
0000
1010
0000
,
0101
0000
0101
0000
,
0011
0000
0011
0000
,
1100
0000
1100
0000
,
2002
0000
0000
0000
,
0000
0000
3003
0000
,
0001
0010
0100
0000
,
1000
0010
0100
0000
,
0001
0010
0100
1000
,
0001
0000
1000
0000
,
1001
0000
0001
0100
,
0010
0000
1000
0100
,
0010
0000
1001
0000
,
0110
0000
1001
0000
,
1000
0010
0100
0000
,
0001
0010
0100
0000
,
1000
0010
0100
0001
,
1000
0000
0001
0000
,
1001
0000
1000
0100
,
0010
0000
0001
0100
,
0010
0000
1001
0000
,
0110
0000
1001
0000
,
0012
0000
0100
0000
,
1000
1000
1003
0000
,
2010
0000
0100
0000
,
0001
0001
3001
0000
,
1000
0100
0010
0001
,
1000
0010
1000
0000
,
0001
0100
0010
1000
,
0001
0010
0001
0000
,
1000
0010
0100
0001
,
0010
0100
1000
0000
,
0001
1000
0001
1000
,
0010
0100
0010
0000
,
1000
0001
1000
0001
,
0010
0100
0010
0000
,
0001
1000
0001
1000
,
0100
0010
0100
0000
,
1000
0001
1000
0001
,
0100
0010
0100
2002
,
3003
0000
0000
0000
;

//---------------dance-single - ----------------
#NOTEDATA:;
#CHARTNAME:;
#STEPSTYPE:dance-single;
#DESCRIPTION:;
#CHARTSTYLE:;
#DIFFICULTY:Medium;
#METER:7;
#RADARVALUES:0.592444,0.737760,0.346524,0.726582,0.000000,371.000000,340.000000,31.000000,65.000000,0.000000,0.000000,0.000000,0.000000,0.000000,0.592444,0.737760,0.346524,0.726582,0.000000,371.000000,340.000000,31.000000,65.000000,0.000000,0.000000,0.000000,0.000000,0.000000;
#CREDIT:;
#NOTES:
0000
0000
0000
0000
,
0000
0000
0000
0000
,
0000
0000
0000
0000
,
0000
0000
0000
0000
,
0001
0001
1000
1000
,
0010
0100
2002
3003
,
1000
1000
0001
0001
,
0010
0100
2002
3003
,
0001
0001
1000
1000
,
0100
0100
0010
0010
,
0001
1000
0010
0100
,
0001
1000
2002
3003
,
0001
0100
1000
0100
,
0001
0010
1000
0010
,
0001
0100
0010
1000
,
0100
0010
0001
1000
,
1020
0000
0130
0001
,
0021
0000
0130
1000
,
0001
0100
0010
1000
,
0001
0010
0100
1000
,
0001
0100
0010
1000
,
0001
1000
2002
3003
,
1000
0100
0010
0001
,
1000
0001
2002
3003
,
0001
0100
1000
0100
,
0001
0000
0100
0020
0000
0000
1030
0000
,
0001
0010
1000
0010
,
0001
0000
1000
0010
0000
0100
0010
0000
,
1000
0100
0001
0100
,
1000
0000
0100
0020
0000
0000
0031
0000
,
1000
0010
0001
0010
,
1000
0000
0001
0010
0000
0100
0010
0000
,
0001
1000
0100
0001
,
0100
0000
1000
0001
0000
0100
0001
0000
,
1000
0001
0100
1000
,
0100
0000
0001
1000
0000
0100
1000
0000
,
0001
0000
0100
0000
0010
1000
0010
0000
,
1000
0001
0010
0100
,
1000
0000
0100
0000
0010
0001
0010
0000
,
0001
1000
0010
0100
,
0001
0000
1000
0000
0010
1000
0010
0000
,
0100
0001
0010
0001
,
1000
0000
0100
0000
0010
0001
0010
0000
,
0001
1000
0010
0100
,
0001
0000
1000
0000
0010
0100
0010
0000
,
1000
0100
0001
0100
,
1000
0000
0001
0000
0010
0100
0010
0000
,
0001
0100
1000
0100
,
0002
0010
0023
0100
,
0230
1000
2300
3001
,
0022
0033
2200
3300
,
2020
3030
0202
0303
,
0220
0000
0000
0330
,
2002
0000
0000
3003
,
1000
0001
1000
0000
0001
0000
0100
0000
,
0010
1000
0010
0000
1000
0000
0001
0000
,
1000
0100
1000
0000
0001
0100
0001
0000
,
1000
0100
0010
0001
,
2000
0010
3010
0100
,
0002
0010
0013
0100
,
1001
0000
0000
0110
0000
0000
1001
0000
,
0002
0203
0320
1030
,
0001
1000
0001
0000
1000
0000
0100
0000
,
0010
0001
0010
0000
0001
0000
1000
0000
,
0001
0100
0001
0000
1000
0100
1000
0000
,
0001
0100
0010
1000
,
0002
0010
0013
0100
,
2000
0010
3010
0100
,
1001
0000
0000
0110
0000
0000
1001
0000
,
2000
3200
0320
0031
,
2002
0003
3020
0100
,
0230
0001
0302
1003
,
2002
3000
0023
0100
,
0230
1000
2300
0001
,
3002
0100
0203
0010
,
0320
1000
2030
0001
,
3002
0023
0230
2300
,
3020
0230
0302
1003
,
0001
0100
0001
0100
0010
1000
0010
1000
,
0001
0110
2002
3003
,
1000
0100
0001
0100
,
1000
0010
0110
1001
,
0001
0100
1000
0100
,
0001
0010
0110
1001
,
1000
0100
1000
0000
0001
0100
0001
0000
,
1000
0010
0110
1001
,
0001
0100
0001
0000
1000
0100
1000
0000
,
0001
0010
0110
2002
,
3003
0000
0000
0000
;

//---------------dance-single - ----------------
#NOTEDATA:;
#CHARTNAME:;
#STEPSTYPE:dance-single;
#DESCRIPTION:;
#CHARTSTYLE:;
#DIFFICULTY:Hard;
#METER:9;
#RADARVALUES:0.804829,0.836128,1.006036,0.804829,0.000000,504.000000,414.000000,90.000000,72.000000,0.000000,0.000000,0.000000,0.000000,0.000000,0.804829,0.836128,1.006036,0.804829,0.000000,504.000000,414.000000,90.000000,72.000000,0.000000,0.000000,0.000000,0.000000,0.000000;
#CREDIT:;
#NOTES:
// measure 0
0000
0000
0000
0000
,  // measure 1
0000
0000
0000
0000
,  // measure 2
0000
0000
0000
0000
,  // measure 3
0000
0000
0000
0000
,  // measure 4
0002
0100
0100
0100
,  // measure 5
0203
0010
0320
1000
,  // measure 6
2030
0100
0100
0100
,  // measure 7
3200
0010
0320
0001
,  // measure 8
0032
1000
2003
0010
,  // measure 9
3020
0100
0230
0001
,  // measure 10
0302
2003
3200
0320
,  // measure 11
0031
0100
0010
1000
0002
0000
1003
0000
,  // measure 12
0001
0100
0020
0000
1030
0000
1001
0000
,  // measure 13
1000
0100
0020
0000
0031
0000
1001
0000
,  // measure 14
1000
0010
0100
0000
0001
0010
0100
0000
,  // measure 15
1000
0001
0100
0010
2000
0000
3001
0000
,  // measure 16
1000
0010
0000
0100
0001
0000
0100
0010
,  // measure 17
0000
1000
0001
0000
0110
0000
1001
0000
,  // measure 18
0001
0010
0000
0100
1000
0000
0100
0010
,  // measure 19
0000
0001
1000
0000
0110
0000
1001
0000
,  // measure 20
1100
0000
0011
0000
0001
1000
0010
0000
,  // measure 21
1010
0101
2002
3003
,  // measure 22
0101
0000
1010
0000
1000
0001
0010
0000
,  // measure 23
0011
1100
2002
3003
,  // measure 24
2001
3100
0012
0103
,  // measure 25
1001
0000
1000
0010
0000
0100
0001
0000
,  // measure 26
2001
3010
0102
0013
,  // measure 27
1001
0000
1000
0100
0010
0001
1000
0000
,  // measure 28
1002
0103
2010
3100
,  // measure 29
1001
0000
0001
0010
0000
0100
1000
0000
,  // measure 30
1002
0013
2100
3010
,  // measure 31
1001
0000
0001
0100
0010
1000
0001
0000
,  // measure 32
2001
3100
1002
0013
,  // measure 33
1001
0000
0001
0100
0000
0010
1000
0000
,  // measure 34
1002
0103
2001
3010
,  // measure 35
1001
0000
1000
0010
0000
0100
0001
0000
,  // measure 36
1000
0100
0010
0000
0001
0100
0010
0000
,  // measure 37
1000
0100
0010
0001
1000
0000
1001
0000
,  // measure 38
0001
0100
0010
0000
1000
0100
0010
0000
,  // measure 39
0001
0100
0010
1000
0001
0000
1001
0000
,  // measure 40
1020
0000
0230
0000
0301
1000
0100
0000
,  // measure 41
1100
0011
0110
1001
,  // measure 42
0021
0000
0230
0000
1300
0001
0100
0000
,  // measure 43
0101
1010
0110
1001
,  // measure 44
1000
0010
0100
0000
0001
0010
0100
0000
,  // measure 45
1000
0010
0100
0001
0100
0010
1000
0000
,  // measure 46
0001
0010
0100
0000
1000
0010
0100
0000
,  // measure 47
0001
0010
0100
1000
0100
0010
0001
0000
,  // measure 48
2001
0010
3020
0100
,  // measure 49
0230
0001
0302
1003
,  // measure 50
2020
3030
0202
0303
,  // measure 51
0022
0033
2200
3300
,  // measure 52
0220
0000
0000
0330
,  // measure 53
2002
0000
0000
3003
,  // measure 54
1000
0001
0200
0000
0310
0000
1001
0000
,  // measure 55
0001
1000
0020
0000
0130
0000
1001
0000
,  // measure 56
1000
0100
0001
0000
0001
0100
1000
0000
,  // measure 57
1000
0010
0100
0001
1000
0000
1001
0000
,  // measure 58
0001
0010
1000
0000
1000
0010
0001
0000
,  // measure 59
0001
0100
0010
1000
0100
0010
0001
0000
,  // measure 60
1001
0000
0000
0110
0000
0000
1001
0000
,  // measure 61
0001
0010
0100
1000
0020
0000
0130
0000
,  // measure 62
0001
1000
0200
0000
0310
0000
1001
0000
,  // measure 63
1000
0001
0020
0000
0130
0000
1001
0000
,  // measure 64
0001
0100
1000
0000
1000
0100
0001
0000
,  // measure 65
0001
0010
0100
1000
0001
0000
1001
0000
,  // measure 66
1000
0010
0001
0000
0001
0010
1000
0000
,  // measure 67
1000
0100
0010
0001
0100
0010
1000
0000
,  // measure 68
1001
0000
0000
0110
0000
0000
1001
0000
,  // measure 69
1000
0010
0100
0001
0020
0000
0130
0000
,  // measure 70
2001
0010
3020
0100
,  // measure 71
0130
0001
1000
0000
0001
0100
0010
0000
,  // measure 72
1002
0010
0023
0100
,  // measure 73
0130
1000
0001
0000
1000
0100
0010
0001
,  // measure 74
2000
0010
3002
0100
,  // measure 75
2003
0100
3002
0013
,  // measure 76
1001
1010
1001
0011
,  // measure 77
1001
1100
1001
0101
,  // measure 78
0001
1000
0010
0100
0001
1000
0100
0010
,  // measure 79
0001
0110
2002
3003
,  // measure 80
0101
0000
1010
0000
1000
0001
0010
0000
,  // measure 81
0011
1100
1010
1001
,  // measure 82
1100
0000
0011
0000
0001
1000
0010
0000
,  // measure 83
1010
0101
0011
1001
,  // measure 84
1000
0001
0100
0010
1000
0001
0010
0100
,  // measure 85
1000
0010
0001
0010
1000
0001
0010
1000
,  // measure 86
0010
0001
0100
0010
1000
0001
0010
0100
,  // measure 87
1000
0010
0100
0001
1000
0000
2002
0000
,  // measure 88
3003
0000
0000
0000
;

//---------------dance-single - ----------------
#NOTEDATA:;
#CHARTNAME:;
#STEPSTYPE:dance-single;
#DESCRIPTION:;
#CHARTSTYLE:;
#DIFFICULTY:Challenge;
#METER:11;
#RADARVALUES:0.924595,0.983680,1.285491,0.514196,0.033535,579.000000,464.000000,115.000000,46.000000,0.000000,0.000000,0.000000,0.000000,0.000000,0.924595,0.983680,1.285491,0.514196,0.033535,579.000000,464.000000,115.000000,46.000000,0.000000,0.000000,0.000000,0.000000,0.000000;
#CREDIT:;
#NOTES:
0000
0000
0000
0000
,
0000
0000
0000
0000
,
0000
0000
0000
0000
,
0000
0000
0000
0000
,
1002
1000
0100
0100
,
2003
0010
3020
0130
,
2001
0001
0100
0100
,
3002
0010
0023
0130
,
2001
0010
3002
0010
,
2003
0100
3002
0100
,
1003
0010
0001
0010
1000
0001
0010
1000
,
0010
0000
0001
0000
0100
0000
0010
0000
1000
0000
0001
1000
0001
0000
0000
0000
,
1000
0010
0001
0000
0110
0000
1001
0000
,
0001
0010
1000
0000
0110
0000
1001
0000
,
1000
0100
0001
0100
1000
0001
0100
0000
,
0110
0000
1001
0000
0001
0010
0100
1000
,
0001
0100
0000
1000
0100
0000
0001
0010
,
0000
1000
0010
0000
0110
0000
1001
0000
,
1000
0100
0000
0001
0100
0000
1000
0010
,
0000
0001
0010
0000
0110
0000
1001
0000
,
1010
0000
0101
0000
0001
1000
0100
0000
,
1100
0011
0110
1001
,
0011
0000
1100
0000
1000
0001
0100
0000
,
0101
1010
0110
1001
,
1100
0101
0011
1010
,
1001
0000
0001
0010
1000
0010
0001
0000
,
0101
1100
0011
1010
,
1001
0000
1000
0100
0010
0001
1000
0000
,
0101
1100
1010
0011
,
1001
0000
1000
0010
0001
0010
1000
0000
,
1100
0101
1010
0011
,
1001
0000
0001
0100
0010
1000
0001
0000
,
1100
0011
0110
1001
,
1000
0100
0001
0100
1000
0010
0100
0000
,
0101
1010
0110
1001
,
0001
0000
0100
0000
1000
0000
0100
0000
0001
0000
1000
0001
1000
0000
0100
0000
,
0010
0001
0200
0000
1300
0001
0020
0000
,
1030
0100
0001
0100
1000
0001
0200
0000
,
0310
1000
0200
0000
0301
1000
0020
0000
,
0031
0100
1000
0100
0001
0010
0100
1000
,
1100
0000
0011
0000
0001
0100
1000
0100
,
0001
1001
0110
1001
,
0101
0000
1010
0000
1000
0100
0001
0100
,
1000
1001
0110
1001
,
1000
0001
0020
0000
0130
1000
0002
0000
,
1003
0010
0001
0010
1000
0100
0020
0000
,
0031
1000
0020
0000
0130
0001
2000
0000
,
3001
0010
1000
0010
0001
0100
0010
0000
,
2001
0010
3002
0010
,
2003
0100
3002
0103
,
0022
0033
2020
3030
,
2200
3300
0202
0303
,
0220
0000
0000
0330
,
2002
0000
0000
3003
,
1000
0100
0001
0000
0110
0000
1001
0000
,
1000
0010
0001
0000
0110
0000
1001
0000
,
0001
0010
1000
0010
0001
1000
0010
0100
,
0001
1000
0100
0000
0110
0000
1001
0000
,
1000
0010
0100
0010
0001
0010
1000
0100
,
0001
0100
1000
0010
0100
0001
1000
0000
,
1020
0000
0130
0001
0011
0000
1100
0000
,
1000
0010
0001
0010
1000
0100
0010
0000
,
0001
0100
1000
0000
0110
0000
1001
0000
,
0001
0010
1000
0000
0110
0000
1001
0000
,
1000
0010
0001
0010
1000
0001
0010
0100
,
1000
0001
0100
0000
0110
0000
1001
0000
,
0001
0010
0100
0010
1000
0010
0001
0100
,
1000
0100
0001
0010
0100
1000
0001
0000
,
0021
0000
0130
1000
1010
0000
0101
0000
,
0001
0010
1000
0010
0001
0100
0010
0000
,
2001
0100
3002
0010
,
1003
0100
0001
0100
1000
0010
0100
0000
,
1002
0100
2003
0010
,
3001
0000
0100
0000
1000
0000
0100
0000
0001
0000
0010
0000
0100
1000
0100
0000
,
1000
0010
0001
0010
1000
0001
0010
1000
,
0010
0001
1000
0001
0100
0010
1000
0001
,
0011
1010
0101
1100
,
1010
0011
1100
0101
,
0001
0000
1000
0000
0100
1000
0100
0000
0010
0000
0001
0000
0100
0001
0100
0000
,
0010
1000
0001
1000
2002
0000
3003
0000
,
0011
0000
1100
0000
1000
0001
0101
0000
,
1100
0011
0110
1001
,
1010
0000
0101
0000
0001
1000
1100
0000
,
0101
1010
0110
1001
,
0001
0100
1000
0100
0001
1000
0010
0001
,
0010
1000
0100
0001
0100
1000
0001
0010
,
1000
0010
0001
1000
0100
0010
0001
1000
,
0010
0000
0100
0010
0100
0000
0001
0000
1001
0000
0000
0000
0220
0000
0000
0000
,
0330
0000
0000
0000
;
