#VERSION:0.83;
#TITLE:Kick;
#SUBTITLE:;
#ARTIST:f(x);
#TITLETRANSLIT:;
#SUBTITLETRANSLIT:;
#ARTISTTRANSLIT:;
#GENRE:K-POP;
#ORIGIN:;
#CREDIT:;
#BANNER:Kick.png;
#BACKGROUND:Kick-bg.png;
#PREVIEWVID:;
#JACKET:Kick-jacket.png;
#CDIMAGE:;
#DISCIMAGE:;
#LYRICSPATH:;
#CDTITLE:CDTitle.png;
#MUSIC:Kick.ogg;
#OFFSET:0.006839;
#SAMPLESTART:73.189934;
#SAMPLELENGTH:16.270638;
#SELECTABLE:YES;
#BPMS:0.000=118.004;
#STOPS:;
#DELAYS:;
#WARPS:;
#TIMESIGNATURES:0.000=4=4;
#TICKCOUNTS:0.000=4;
#COMBOS:0.000=1;
#SPEEDS:0.000=1.000=0.000=0;
#SCROLLS:0.000=1.000;
#FAKES:;
#LABELS:0.000=Song Start;
#LASTSECONDHINT:105.840340;
#BGCHANGES:;
#KEYSOUNDS:;
#ATTACKS:
;

//---------------dance-single - ----------------
#NOTEDATA:;
#CHARTNAME:;
#STEPSTYPE:dance-single;
#DESCRIPTION:;
#CHARTSTYLE:;
#DIFFICULTY:Hard;
#METER:10;
#RADARVALUES:0.725823,0.757562,0.582740,0.336897,0.860452,558.000000,494.000000,64.000000,37.000000,0.000000,0.000000,1.000000,0.000000,0.000000,0.725823,0.757562,0.582740,0.336897,0.860452,558.000000,494.000000,64.000000,37.000000,0.000000,0.000000,1.000000,0.000000,0.000000;
#CREDIT:DDRDAIKENKAI;
#NOTES:
// measure 0
0000
0000
0000
0000
,  // measure 1
0000
0000
0000
0000
,  // measure 2
0000
0000
0000
0000
,  // measure 3
0000
0000
0000
0000
,  // measure 4
0110
0000
0000
0000
0000
0000
0000
0000
0000
0010
0000
0000
1000
0000
0000
0000
0000
0000
1001
0000
0000
0000
0000
0000
0000
0000
0000
1000
0000
0000
0001
0000
0000
0000
0000
0000
1001
0000
0000
0000
0000
0000
0001
0000
0100
0000
0001
0000
,  // measure 5
1000
0000
0000
0000
0000
0000
0000
0000
0000
1000
0000
0000
0010
0000
0000
0000
0000
0000
0110
0000
0000
0000
0000
0000
0000
0000
0000
0010
0000
0000
1000
0000
0000
0000
0000
0000
1001
0000
0000
0000
0000
0000
0001
0000
0010
0000
0100
0000
,  // measure 6
1000
0000
0000
0000
0000
0000
0000
0000
0000
1000
0000
0000
0010
0000
0000
0000
0000
0000
0110
0000
0000
0000
0000
0000
0000
0000
0000
0010
0000
0000
1000
0000
0000
0000
0000
0000
1001
0000
0000
0000
0000
0000
1000
0000
0010
0000
0100
0000
,  // measure 7
0001
0000
0000
1001
0100
0000
2002
0000
0000
0000
0000
0000
3003
0000
0000
0000
,  // measure 8
1100
0000
0000
0000
0000
0000
0100
0000
0000
0010
0000
0000
0000
0000
0000
0100
0000
0000
1000
0000
0000
0000
0000
0000
0010
0000
0000
0100
0000
0000
0010
0000
0000
0001
0000
0000
0000
0000
0000
0001
0000
0000
0010
0000
0100
0000
0010
0000
,  // measure 9
0100
0000
0000
0000
0000
0000
0100
0000
0000
0001
0000
0000
0000
0000
0000
0001
0000
0000
1000
0000
0000
0000
0000
0000
0100
0000
0000
0010
0000
0000
0100
0000
0000
0001
0000
0000
0000
0000
0000
0001
0000
0000
0100
0000
0010
0000
0100
0000
,  // measure 10
0010
0000
0000
0000
0000
0000
0010
0000
0000
0001
0000
0000
0000
0000
0000
0001
0000
0000
0100
0000
0000
0000
0000
0000
0010
0000
0000
0100
0000
0000
0010
0000
0000
0001
0000
0000
0000
0000
0000
0001
0000
0000
0010
0000
0100
0000
0010
0000
,  // measure 11
1000
0000
0000
0000
0000
0000
1000
0000
0000
0001
0000
0000
0000
0000
0000
0001
0000
0000
1000
0000
0000
0000
0000
0000
0001
0000
0000
1000
0000
0000
0001
0000
0000
0000
0000
0000
1002
0000
0000
0000
0000
0000
1003
0000
0100
0000
0010
0000
,  // measure 12
0001
0000
0000
0000
0000
0000
1000
0000
0000
0010
0000
0000
0000
0000
0000
1000
0000
0000
0001
0000
0000
0000
0000
0000
0100
0000
0000
0010
0000
0000
0100
0000
0000
1000
0000
0000
0000
0000
0000
1000
0000
0000
0100
0000
0010
0000
0100
0000
,  // measure 13
0001
0000
0000
0000
0000
0000
0010
0000
0000
0100
0000
0000
0000
0000
0000
1000
0000
0000
0001
0000
0000
0000
0000
0000
0010
0000
0000
0100
0000
0000
0010
0000
0000
1000
0000
0000
0000
0000
0000
1000
0000
0000
0010
0000
0001
0000
0010
0000
,  // measure 14
0001
0000
0000
0000
0000
0000
0001
0000
0000
0100
0000
0000
0000
0000
0000
0100
0000
0000
0010
0000
0000
0000
0000
0000
1000
0000
0000
0100
0000
0000
0010
0000
0000
0001
0000
0000
0000
0000
0000
0001
0000
0000
0010
0000
0001
0000
0100
0000
,  // measure 15
0001
0000
0001
0010
0000
0010
0001
0000
0001
1000
0001
0000
2002
0000
3003
0000
,  // measure 16
1100
0000
0000
0000
0000
0000
0000
0000
0000
1000
0000
0000
0001
0000
0000
1000
0000
0000
0001
0000
0000
0000
0000
0000
0010
0000
0000
0001
0000
0000
1000
0000
0000
0000
0000
0000
1100
0000
0000
0000
0000
0000
0100
0000
0010
0000
0100
0000
,  // measure 17
0010
0000
0000
0000
0000
0000
0000
0000
0000
0010
0000
0000
0100
0000
0000
0000
0000
0000
0110
0000
0000
0000
0000
0000
0000
0000
0000
0100
0000
0000
1000
0000
0000
0000
0000
0000
1001
0000
0000
0000
0000
0000
0001
0000
0100
0000
0010
0000
,  // measure 18
1000
0000
0000
0000
0000
0000
1000
0000
0000
0000
0000
0000
0010
0000
0000
1000
0000
0000
0100
0000
0000
0000
0000
0000
1100
0000
0000
0000
0000
0000
0110
0000
0000
0000
0000
0000
0011
0000
0000
0000
0000
0000
0001
0000
1000
0000
0001
0000
,  // measure 19
1000
0000
0000
0000
0000
0000
0000
0000
0000
1000
0000
0000
0010
0000
0000
0000
0000
0000
0110
0000
0000
0000
0000
0000
0000
0000
0000
0010
0000
0000
1000
0000
0000
0000
0000
0000
1001
0000
0000
0000
0000
0000
0001
0000
0010
0000
0100
0000
,  // measure 20
1000
0000
0000
0000
0000
0000
1000
0000
0000
0010
0000
0000
0000
0000
0000
0010
0000
0000
0100
0000
0000
0000
0000
0000
0001
0000
0000
1000
0000
0000
0100
0000
0000
0000
0000
0000
1100
0000
0000
0000
0000
0000
0100
0000
1000
0000
0100
0000
,  // measure 21
0010
0000
0000
0000
0000
0000
0010
0000
0000
0001
0000
0000
0000
0000
0000
1000
0000
0000
0000
0000
0000
0010
0000
0000
0100
0000
0000
0000
0000
0000
0001
0000
0000
0000
0000
0000
1001
0000
0000
0000
0000
0000
0001
0000
0100
0000
0010
0000
,  // measure 22
1000
0000
0000
0000
0000
0000
1000
0000
0000
0010
0000
0000
0000
0000
0000
0010
0000
0000
0100
0000
0000
0000
0000
0000
0001
0000
0000
1000
0000
0000
0100
0000
0000
0000
0000
0000
1100
0000
0000
0000
0000
0000
0100
0000
0010
0000
0001
0000
,  // measure 23
1000
0000
0000
0001
0000
0000
0010
0000
0010
0000
0001
0000
0000
0000
0000
0000
,  // measure 24
0101
0000
0100
0010
0000
0010
2000
0000
0000
0000
3001
0010
0200
0000
1300
0000
,  // measure 25
0010
0000
0000
0000
0000
0000
0001
0000
0000
0020
0000
0000
0000
0000
0000
0000
0000
0000
1030
0000
0000
0000
0000
0000
1100
0000
0000
0000
0000
0000
0012
0000
0000
0000
0000
0000
1003
0000
0000
0000
0000
0000
0001
0000
1000
0000
0001
0000
,  // measure 26
1000
0000
0000
0000
0000
0000
0001
0000
0000
0200
0000
0000
0000
0000
0000
0000
0000
0000
0310
0000
0000
0000
0000
0000
0100
0000
0000
0000
0000
0000
0001
0000
0000
2000
0000
0000
0000
0000
0000
0000
0000
0000
3100
0000
1000
0000
0100
0000
,  // measure 27
0010
0000
0000
0000
0000
0000
0001
0000
0000
0010
0000
0000
0000
0000
0000
0100
0000
0000
0020
0000
0000
0000
0000
0000
0000
0000
0000
0031
0000
0000
1000
0000
0000
0000
0000
0000
2100
0000
0000
0000
0000
0000
3001
0000
0010
0000
0001
0000
,  // measure 28
0200
0000
0001
0001
0001
0000
0010
0000
,  // measure 29
0302
0000
1000
1000
1000
0000
0010
0010
,  // measure 30
0023
0000
0001
0000
0000
0000
0000
0001
,  // measure 31
0032
0010
2003
0000
,  // measure 32
3010
0000
1000
0001
0100
0000
0010
0000
0100
0001
1000
0000
0100
0000
0010
0001
,  // measure 33
0010
0000
0100
1000
0000
0100
1000
0000
0010
1000
0100
0000
1000
0000
0010
0100
,  // measure 34
0010
0000
0100
0001
0000
0100
0010
0000
0100
0001
0010
0001
0000
0001
0010
0000
,  // measure 35
0001
0000
0001
0001
0000
0000
0002
0000
4003
0000
0000
0000
3010
0000
0000
0000
,  // measure 36
1001
0000
0000
1001
0100
0000
1001
0000
1000
0100
1000
0000
1100
0000
1001
0000
,  // measure 37
0110
0000
0000
0000
0000
0000
0000
0000
0000
0110
0000
0000
1000
0000
0000
0000
0000
0000
0110
0000
0000
0000
0000
0000
1000
0000
0000
0100
0000
0000
0010
0000
0000
0000
0000
0000
1001
0000
0000
0000
0000
0000
0001
0000
0010
0000
0001
0000
,  // measure 38
1000
0000
0000
0000
0000
0000
0010
0000
0000
0100
0000
0000
0001
0000
0000
0000
0000
0000
0010
0000
0000
0000
0000
0000
0001
0000
0000
0100
0000
0000
0010
0000
0000
0000
0000
0000
1010
0000
0000
0000
0000
0000
0010
0000
1000
0000
0100
0000
,  // measure 39
1000
0000
0000
0000
0000
0000
0100
0000
0000
0010
0000
0000
0001
0000
0000
0000
0000
0000
1000
0000
0000
0000
0000
0000
0001
0000
0000
0010
0000
0000
0100
0000
0000
0000
0000
0000
0210
0000
0000
0000
0000
0000
1300
0000
0010
0000
1000
0000
,  // measure 40
1010
0000
0000
1010
0100
0000
1010
0000
0100
0001
0010
0000
0110
0000
1100
0000
,  // measure 41
0011
0000
0000
0000
0000
0000
0000
0000
0000
0011
0000
0000
0100
0000
0000
0000
0000
0000
0011
0000
0000
0000
0000
0000
0001
0000
0000
0100
0000
0000
0010
0000
0000
0000
0000
0000
0110
0000
0000
0000
0000
0000
0010
0000
1000
0000
0100
0000
,  // measure 42
0010
0000
0001
0100
0010
0000
0110
0000
1000
0100
0010
0000
0011
0000
1001
0000
,  // measure 43
2020
3030
0000
0022
0033
0000
2020
3030
0000
0000
1001
0000
2002
0000
3003
0000
,  // measure 44
0110
0000
0000
0000
0000
0000
1000
0000
0000
0100
0000
0000
1000
0000
0000
0010
0000
0000
0100
0000
0000
0000
0000
0000
0001
0000
0000
0010
0000
0000
0100
0000
0000
0010
0000
0000
1000
0000
0000
0010
0000
0000
0100
0000
1000
0000
0100
0000
,  // measure 45
1000
0000
0000
0000
0000
0000
0010
0000
0000
0100
0000
0000
0001
0000
0000
0100
0000
0000
0010
0000
0000
0000
0000
0000
1000
0000
0000
0010
0000
0000
0100
0000
0000
0010
0000
0000
0001
0000
0000
0010
0000
0000
1000
0000
0001
0000
1000
0000
,  // measure 46
0100
0000
0000
0000
0000
0000
0010
0000
0000
0001
0000
0000
1000
0000
0000
0010
0000
0000
0100
0000
0000
0000
0000
0000
0001
0000
0000
0100
0000
0000
0010
0000
0000
0100
0000
0000
1000
0000
0000
0100
0000
0000
0010
0000
0100
0000
0010
0000
,  // measure 47
1000
0000
0000
0000
0000
0000
0100
0000
0000
1000
0000
0000
0010
0000
0000
0100
0000
0000
0001
0000
0000
0000
0000
0000
0010
0000
0000
0100
0000
0000
1000
0000
0000
0000
0000
0000
1002
0000
0000
0000
0000
0000
1003
0000
0100
0000
0010
0000
,  // measure 48
0011
0000
0000
0000
0000
0000
1000
0000
0000
0100
0000
0000
1000
0000
0000
0001
0000
0000
0100
0000
0000
0000
0000
0000
0010
0000
0000
0001
0000
0000
0010
0000
0000
0100
0000
0000
0010
0000
0000
1000
0000
0000
0001
0000
1000
0000
0001
0000
,  // measure 49
1000
0000
0000
0000
0000
0000
0100
0000
0000
0010
0000
0000
0001
0000
0000
0010
0000
0000
0100
0000
0000
0000
0000
0000
0010
0000
0000
1000
0000
0000
0010
0000
0000
0100
0000
0000
0010
0000
0000
0001
0000
0000
1000
0000
0100
0000
1000
0000
,  // measure 50
0010
0000
1000
0001
0100
0000
0010
0000
0100
0001
1000
0000
0001
0000
0001
0000
,  // measure 51
0220
0330
0000
0220
0330
0000
0220
0330
0000
0000
1001
0000
2002
0000
0000
0000
,  // measure 52
3003
0000
0000
0000
;

//---------------dance-single - ----------------
#NOTEDATA:;
#CHARTNAME:;
#STEPSTYPE:dance-single;
#DESCRIPTION:;
#CHARTSTYLE:;
#DIFFICULTY:Medium;
#METER:6;
#RADARVALUES:0.368115,0.449802,0.182106,0.154790,0.191212,283.000000,263.000000,20.000000,17.000000,0.000000,0.000000,0.000000,0.000000,0.000000,0.368115,0.449802,0.182106,0.154790,0.191212,283.000000,263.000000,20.000000,17.000000,0.000000,0.000000,0.000000,0.000000,0.000000;
#CREDIT:DDRDAIKENKAI;
#NOTES:
0000
0000
0000
0000
,
0000
0000
0000
0000
,
0000
0000
0000
0000
,
0000
0000
0000
0000
,
0110
0000
1000
0100
0000
0001
0100
1000
,
1000
0000
0000
0001
0000
0000
0100
0000
0010
0000
0010
0000
0010
0000
0000
0000
,
1000
0000
0000
0001
0000
0000
0010
0000
0000
0100
0000
0000
1000
0000
0010
0000
,
0100
0000
0000
0100
0000
0000
0220
0000
0000
0000
0000
0000
0330
0000
0000
0000
,
0010
0000
0000
0010
1000
0000
0001
0000
0000
0000
1000
0000
1001
0000
0000
0000
,
0001
0000
0000
0001
0100
0000
0010
0000
0000
0000
0100
0000
0110
0000
0000
0000
,
1000
0000
0000
1000
0100
0000
0010
0000
0000
0000
0001
0000
1001
0000
0000
0000
,
0001
0000
0000
0001
0010
0000
0100
0000
1000
0000
1000
0000
1002
0000
0000
0000
,
0103
0000
0000
0100
0010
0000
0100
0000
0001
0000
1000
0000
0100
0000
0000
0000
,
0010
0000
0000
0010
0001
0000
0010
0000
0100
0000
1000
0000
0001
0000
0000
0000
,
1000
0000
0000
1000
0010
0000
0100
0000
0001
0000
1000
0000
0100
0000
0000
0000
,
1000
0000
0000
1000
0001
0000
0010
0000
0001
0000
1000
0000
2002
0000
3003
0000
,
0001
0000
0001
0001
0100
0010
1000
0000
,
0100
0000
0000
0100
0000
0000
0010
0000
0000
0010
0000
0000
0110
0000
0000
0000
,
0010
0010
0001
1000
0100
0010
0001
0000
,
1000
0000
0000
1000
0000
0000
0001
0000
0000
0001
0000
0000
1001
0000
0000
0000
,
1000
1000
0001
0100
0010
0010
0000
0000
,
0100
0100
0001
1000
0100
0100
0000
0000
,
1000
1000
0001
0100
0010
0000
0000
0010
,
2000
0000
0000
0000
0000
3000
0000
0000
,
0001
0000
0000
0100
0000
0000
0020
0000
0000
0000
1030
0000
2000
0000
0000
0000
,
3100
0000
0000
0010
0000
0000
0001
0000
1000
0000
2000
0000
0000
0000
3001
0000
,
0010
0000
0000
0001
0000
0000
0010
0000
0100
0000
0000
1000
0000
0000
0100
0000
,
0010
0000
0000
0010
0000
0000
0001
0000
0000
0000
1000
0000
1001
0000
0000
0000
,
0002
0000
0000
0000
,
2003
0000
0000
0000
,
3200
0000
0000
0000
,
0000
0000
0000
0000
,
1300
0000
0000
1000
0000
0000
0100
0000
0000
0001
0000
0000
0100
0000
0010
0000
,
0001
0000
0000
0100
0000
0000
1000
0000
0000
0100
0000
0000
0010
0000
1000
0000
,
0001
0000
0000
0001
0000
0000
0001
0000
1000
0000
0000
1000
0000
0000
1000
0000
,
0020
0000
0200
0330
,
0001
0000
0000
0001
0000
0000
0001
0000
0010
0000
0100
0000
1000
0000
0001
0000
,
0100
0000
0000
0100
0000
0000
0100
0000
0010
0000
1000
0000
0100
0000
0000
0000
,
1000
0010
1000
0000
1000
0001
1000
0000
,
1000
0000
0100
0000
0010
0000
0000
0002
0000
0000
0100
0000
0103
0000
0000
0000
,
0010
0000
0000
0010
0000
0000
0010
0000
0001
0000
0010
0000
1000
0000
0001
0000
,
0010
0000
0000
0010
0000
0000
0010
0000
1000
0000
0010
0000
0001
0000
0000
0000
,
1000
0000
0000
0100
0000
0000
0010
0000
0001
0000
0100
0000
0010
0000
1000
0000
,
0001
0000
0000
0001
0000
0000
0001
0000
0000
0000
1000
0000
1001
0000
0000
0000
,
0001
0000
0000
0001
0100
0000
0010
0000
0000
0000
1000
0000
1001
0000
0000
0000
,
1000
0000
0000
1000
0010
0000
0100
0000
0000
0000
0001
0000
1001
0000
0000
0000
,
0010
0000
0000
0010
0100
0000
1000
0000
0000
0000
0010
0000
0110
0000
0000
0000
,
0100
0000
0000
0100
0001
0000
1000
0000
0100
0000
0010
0000
0110
0000
0000
0000
,
1000
0000
0000
1000
0010
0000
1000
0000
0001
0000
1000
0000
0100
0000
0000
0000
,
0010
0000
0000
0010
0001
0000
1000
0000
0001
0000
0100
0000
0010
0000
0000
0000
,
0100
0000
0000
0100
0001
0000
0010
0000
0100
0000
1000
0000
0001
0000
0100
0000
,
0110
0000
0000
0110
0000
0000
0110
0000
0000
0000
1001
0000
2002
0000
0000
0000
,
3003
0000
0000
0000
;

//---------------dance-single - ----------------
#NOTEDATA:;
#CHARTNAME:;
#STEPSTYPE:dance-single;
#DESCRIPTION:;
#CHARTSTYLE:;
#DIFFICULTY:Easy;
#METER:4;
#RADARVALUES:0.236738,0.307760,0.100158,0.136580,0.000000,182.000000,171.000000,11.000000,15.000000,0.000000,0.000000,0.000000,0.000000,0.000000,0.236738,0.307760,0.100158,0.136580,0.000000,182.000000,171.000000,11.000000,15.000000,0.000000,0.000000,0.000000,0.000000,0.000000;
#CREDIT:DDRDAIKENKAI;
#NOTES:
0000
0000
0000
0000
,
0000
0000
0000
0000
,
0000
0000
0000
0000
,
0000
0000
0000
0000
,
1000
0000
0000
0001
0000
0000
0100
0000
,
0010
0000
0000
0010
0000
0000
0100
0000
,
0001
0000
0000
1000
0000
0000
0100
0000
,
0110
0000
0000
2002
0000
0000
3003
0000
,
0110
0000
0100
1000
,
0001
0000
0001
0100
,
0010
0000
0010
1000
,
0001
0000
0001
0001
,
1000
0010
0100
0100
,
0001
1000
0010
0010
,
1000
0100
1000
1000
,
0010
0100
0001
0002
,
1003
0000
1000
0000
0100
0100
0000
0000
,
0010
0001
0100
0110
,
0010
0000
1000
0000
0001
0001
0001
0000
,
1000
0010
0100
0110
,
0100
0000
0001
0000
1000
1000
0000
0000
,
0100
0000
0010
0000
0001
0001
0000
0000
,
1000
0001
0010
0000
,
0001
0000
0000
0000
,
1000
0100
1000
1000
,
0010
0000
0100
0000
0001
0001
0000
0000
,
0010
0010
0100
0100
,
0010
0000
0010
0000
0000
0001
0001
0000
,
2000
0000
0000
0000
,
3020
0000
0000
0000
,
0230
0000
0000
0000
,
0000
0000
0000
0000
,
0301
1000
0001
0001
,
1000
0001
0020
0001
,
0100
0100
0001
0031
,
1000
0000
0002
0003
,
0100
0000
0100
0000
0010
0010
0010
0000
,
1000
0000
1000
0000
0001
0001
0000
0000
,
1000
0100
0010
0001
,
1000
0100
0020
0030
,
0001
0000
0001
0000
0100
0100
0100
0000
,
0010
0000
0010
0000
1000
1000
0000
0000
,
0001
0010
1000
0100
,
2002
0000
0000
3003
0000
1001
1001
0000
,
1000
0000
1000
0000
0010
0100
0010
0000
,
0100
0000
0100
0000
0001
1000
0001
0000
,
1000
0000
1000
0000
0100
0010
0100
0000
,
0010
0000
0010
0000
0001
1000
0001
0000
,
1000
0000
0100
0000
0001
0001
0001
0000
,
0100
0000
1000
0000
0001
0001
0001
0000
,
0100
0000
1000
0000
0100
0100
0100
0000
,
0220
0000
0000
0330
0000
1001
2002
0000
,
3003
0000
0000
0000
;
