#TITLE:ハッピーライフ;
#SUBTITLE:;
#ARTIST:Yunomi feat. nicamoq;
#TITLETRANSLIT:Happy Life;
#SUBTITLETRANSLIT:;
#ARTISTTRANSLIT:;
#GENRE:;
#CREDIT:;
#BANNER:[VIP Room Round 3] - Happy Life.png;
#BACKGROUND:[VIP Room Round 3] - Happy Life-bg.png;
#LYRICSPATH:;
#CDTITLE:;
#MUSIC:[VIP Room Round 3] - Happy Life.ogg;
#OFFSET:1.794000;
#SAMPLESTART:76.310852;
#SAMPLELENGTH:15.247000;
#LASTBEATHINT:1.667400;
#SELECTABLE:YES;
#DISPLAYBPM:126.000000;
#BPMS:0.000000=125.999992
;
#STOPS:
;
#BGCHANGES:;
#KEYSOUNDS:;
#ATTACKS:;

//---------------dance-single - ----------------
#NOTES:
     dance-single:
     :
     Challenge:
     10:
     0.653590,0.647051,0.135626,0.253169,0.759507,506.000000,491.000000,15.000000,28.000000,0.000000,0.000000,0.653590,0.647051,0.135626,0.253169,0.759507,506.000000,491.000000,15.000000,28.000000,0.000000,0.000000:
0000
0000
0000
0000
,
0000
0000
0000
0000
,
0000
0000
0000
0000
,
0000
0000
0000
0000
,
0001
0000
1000
0010
0100
0000
0001
0010
0100
0000
1000
0000
0001
0000
1001
0000
,
1000
1000
1000
1000
,
0001
0001
0001
0001
,
1000
0000
1000
0000
0001
0000
0001
0000
1000
0001
1000
0001
0100
0010
0100
0010
,
1000
0000
0100
0000
0000
0010
0001
0000
0010
0000
0100
0000
1000
0000
0001
0000
2000
0000
0002
0000
0000
3003
0000
0000
,
0001
0010
0100
1000
0100
0000
0010
0001
0000
0001
0100
0010
1000
0000
0100
1000
,
0000
1000
0100
0010
0001
0000
0100
0010
0000
1000
0001
0000
1001
0000
0000
0000
,
1000
0100
0010
0001
0010
0000
0100
1000
0000
1000
0010
0100
0001
0000
0010
0001
,
0000
0001
0100
0010
1000
0000
0100
1000
0000
0010
0100
0000
0110
0000
0000
0000
,
0001
0100
0010
1000
0100
0000
0010
0001
0000
0001
0010
0100
1000
0000
0010
1000
,
0000
1000
0100
0010
0001
0000
0100
0001
0000
0010
0100
0000
0110
0000
0000
0000
,
1000
0010
0100
0001
0010
0000
0100
1000
0000
1000
0100
0010
0001
0000
0100
0001
,
0000
0001
0010
0100
1000
0000
0100
0010
0000
0001
1000
0000
2002
0000
3003
0000
,
0001
0100
0010
0000
1000
0000
0100
0000
0010
0100
1000
0000
0010
0000
0100
0000
,
0001
0100
0001
0000
0100
0000
0010
0000
1000
0100
1000
0000
0001
0000
0000
0000
,
2000
3200
0302
0023
,
2030
0000
3200
0000
0302
0000
0023
0000
2030
0000
3001
0010
0001
0010
0100
0000
,
0010
0001
0100
0000
0010
0000
1000
0000
0100
1000
0010
0000
0100
0000
0010
0000
,
1000
0010
1000
0000
0010
0000
0100
0000
0001
0010
0001
0000
1000
0000
0000
0000
,
0002
0023
2030
3200
,
0302
0023
2030
3200
0302
0000
1003
0000
,
0100
1000
0100
1000
0100
0010
0100
0010
0100
1000
0010
0100
0001
0000
0010
0000
,
0100
0000
1000
0000
0001
0100
1000
0000
,
0001
0100
0001
0100
0001
0010
0001
0010
0001
0100
0010
1000
0100
0000
0010
0001
,
2000
0000
0000
0000
3010
0000
0010
1000
0002
0000
0000
0000
0010
0000
0000
0000
,
0103
0010
0100
0010
0100
0001
0100
0001
0100
0010
1000
0100
0010
0000
0100
0000
,
0010
0000
0001
0000
1000
0010
0001
0000
,
1000
0100
1000
0100
1000
0010
1000
0010
1000
0100
0010
0001
1000
0000
0010
0100
,
0020
0000
0000
0030
,
1001
0000
0001
0100
1000
0100
0001
0010
,
0100
0000
1000
0000
0001
1000
0001
0000
,
1000
0100
0001
1000
0010
0001
0100
0010
,
2000
0100
0001
3010
,
1001
0000
1000
0100
0001
0100
1000
0010
,
0100
0000
0001
0000
1000
0001
1000
0000
,
0001
0100
1000
0001
0010
1000
0100
0010
,
0001
0000
1000
0010
1000
0000
0001
0000
0100
0010
0000
0010
1000
0000
0001
0000
,
1000
0100
0001
0000
1000
0000
0010
0001
0000
0001
0100
1000
0001
0000
0010
1000
,
0000
1000
0100
0001
1000
0000
0010
0001
0000
0001
1000
0000
1001
0000
0000
0000
,
0001
0100
1000
0000
0001
0000
0010
1000
0000
1000
0100
0001
1000
0000
0010
0001
,
0000
0001
0100
1000
0001
0000
0010
1000
0000
1000
0001
0000
1001
0000
0000
0000
,
1000
0010
0001
0000
1000
0000
0100
0001
0000
0001
0010
1000
0001
0000
0100
1000
,
0000
1000
0010
0001
1000
0000
0100
0001
0000
0001
1000
0000
1001
0000
0000
0000
,
0001
0010
1000
0000
0001
0000
0100
1000
0000
1000
0010
0001
1000
0000
0100
0001
,
0000
0001
0010
1000
0001
0000
0100
1000
0000
1000
0001
0000
1001
0000
0000
0000
,
1000
0100
1000
0100
0010
0000
0010
0001
0000
0001
0100
0001
0100
0000
0010
1000
,
0000
1000
0100
1000
0100
0000
0010
0001
0000
0001
1000
0000
1001
0000
0000
0000
,
0001
0100
0001
0100
0010
0000
0010
1000
0000
1000
0100
1000
0100
0000
0010
0001
,
0000
0001
0100
0001
0100
0000
0010
1000
0000
1000
0100
0000
0110
0000
0000
0000
,
0010
0001
0010
0001
1000
0000
0001
1000
0000
1000
0010
0100
0010
0000
1000
0100
,
0000
0100
0010
0001
0010
0000
0100
1000
0000
1000
0001
0000
1001
0000
0000
0000
,
0001
0100
0010
1000
0100
0000
1000
0100
0000
1000
0100
0010
0001
0000
0100
0010
,
0000
0100
0001
0010
0100
0000
1000
0001
0000
0100
0010
0000
0220
0000
0000
0000
,
0000
0330
0000
0000
;

//---------------dance-single - ----------------
#NOTES:
     dance-single:
     :
     Hard:
     6:
     0.392670,0.439994,0.036167,0.189877,0.000000,304.000000,300.000000,4.000000,21.000000,0.000000,0.000000,0.392670,0.439994,0.036167,0.189877,0.000000,304.000000,300.000000,4.000000,21.000000,0.000000,0.000000:
// measure 0
0000
0000
0000
0000
,  // measure 1
0000
0000
0000
0000
,  // measure 2
0000
0000
0000
0000
,  // measure 3
0000
0000
0000
0000
,  // measure 4
0000
0000
0000
0000
,  // measure 5
1000
0100
0010
0001
,  // measure 6
0100
0010
1000
0001
,  // measure 7
1000
0100
0010
0001
1000
0010
0100
0001
,  // measure 8
2000
3100
0002
0013
,  // measure 9
1000
0010
1000
0000
0100
1000
0100
0000
,  // measure 10
0001
0100
0001
0000
0010
0100
0010
0000
,  // measure 11
1000
0010
1000
0000
0010
0001
0010
0000
,  // measure 12
0001
0100
0001
0000
0100
0010
0100
0000
,  // measure 13
0010
0001
0010
0000
0001
0100
0001
0000
,  // measure 14
0100
1000
0100
0000
0010
0100
0010
0000
,  // measure 15
0100
1000
0100
0000
0001
0100
0001
0000
,  // measure 16
0010
0001
0010
0000
0100
0010
0100
0000
,  // measure 17
1000
0100
0010
0000
0001
1000
0001
0000
,  // measure 18
0100
0010
1000
0000
0100
0010
0001
0000
,  // measure 19
2000
3200
0320
0032
,  // measure 20
1003
0010
0100
0001
0020
0000
0130
0000
,  // measure 21
0001
0010
0100
0000
1000
0001
1000
0000
,  // measure 22
0100
0010
0001
0000
0100
0010
1000
0000
,  // measure 23
0002
0203
0320
2030
,  // measure 24
3001
0010
0100
1000
0002
0000
1003
0000
,  // measure 25
0001
0100
0001
0100
0010
0100
0010
1000
,  // measure 26
0002
0000
0010
0000
1003
0010
0100
0000
,  // measure 27
1000
0100
1000
0100
0010
0100
0010
0001
,  // measure 28
2000
0000
3010
0010
0200
0000
0301
0000
,  // measure 29
1000
0100
0010
0100
1000
0001
1000
0001
,  // measure 30
0200
0000
0310
0000
1000
0100
0010
0000
,  // measure 31
0001
0100
0010
0100
0001
1000
0001
0010
,  // measure 32
0200
0000
0000
0300
,  // measure 33
1000
1000
0001
0001
,  // measure 34
0010
0000
0100
0000
1000
0100
1000
0000
,  // measure 35
0001
0100
0001
0000
0100
0010
0100
0000
,  // measure 36
0010
1000
0002
0003
,  // measure 37
0001
0001
1000
1000
,  // measure 38
0100
0000
0010
0000
0001
0010
0001
0000
,  // measure 39
1000
0010
0100
0001
0010
0100
1000
0010
,  // measure 40
0200
0010
0310
1001
,  // measure 41
1000
0100
0001
0000
0001
0010
1000
0000
,  // measure 42
1000
0100
0001
0000
0001
0010
1000
0000
,  // measure 43
1000
0010
0001
0000
0001
0100
1000
0000
,  // measure 44
1000
0010
0001
0000
0001
0100
1000
0000
,  // measure 45
0010
0001
0100
0000
0100
1000
0010
0000
,  // measure 46
0010
1000
0100
0000
0100
0001
0010
0000
,  // measure 47
0100
1000
0010
0000
0010
0001
0100
0000
,  // measure 48
0100
0001
0010
0000
0010
1000
0100
0000
,  // measure 49
0010
0001
0100
0000
0010
1000
0100
0000
,  // measure 50
0010
0001
0100
0010
1000
0001
1001
0000
,  // measure 51
1000
0100
0010
0000
0001
0100
0010
0000
,  // measure 52
0010
0100
0001
0010
0100
1000
1001
0000
,  // measure 53
0001
0010
0100
0000
0100
1000
0001
0000
,  // measure 54
0001
1000
0100
0000
0100
0010
0001
0000
,  // measure 55
1000
0010
0100
0001
0010
0100
1000
0100
,  // measure 56
1000
0010
0001
0100
1000
0010
0220
0000
,  // measure 57
0000
0330
0000
0000
;

//---------------dance-single - ----------------
#NOTES:
     dance-single:
     :
     Beginner:
     1:
     0.143376,0.204344,0.000000,0.063292,0.000000,111.000000,111.000000,0.000000,7.000000,0.000000,0.000000,0.143376,0.204344,0.000000,0.063292,0.000000,111.000000,111.000000,0.000000,7.000000,0.000000,0.000000:
0000
0000
0000
0000
,
0000
0000
0000
0000
,
0000
0000
0000
0000
,
0000
0000
0000
0000
,
0000
0000
0000
0000
,
1000
0000
0000
0000
,
1000
0000
0000
0000
,
0001
0000
0001
0000
,
0200
0000
0000
0300
,
0010
0000
0010
0000
,
0010
0000
0010
0000
,
0100
0000
0100
0000
,
0100
0000
0100
0000
,
0001
0000
0001
0000
,
0001
0000
0001
0000
,
1000
0000
1000
0000
,
1000
0000
1000
0000
,
0001
0000
0000
0000
,
1000
0000
0000
0000
,
0010
0000
0100
0000
,
0010
0010
0020
0030
,
0100
0000
0000
0000
,
0010
0000
0000
0000
,
1000
0000
0001
0000
,
1000
1000
2000
3000
,
0001
0000
0100
0000
,
0010
0000
1000
0000
,
0100
0000
0010
0000
,
0002
0003
2000
3000
,
0001
0000
0010
0000
,
0100
0100
0100
0000
,
1000
0000
0100
0000
,
0020
0000
0000
0030
,
0001
0000
1000
0000
,
0001
1000
0001
0000
,
0100
0000
0010
0000
,
0100
0010
0100
0000
,
0010
0000
1000
0000
,
0001
0010
0001
0000
,
1000
0100
0010
0001
,
0020
0000
0000
0030
,
1000
0000
1000
0000
,
1000
0000
1000
1000
,
0001
0000
0001
0000
,
0001
0000
0001
0001
,
0100
0000
0100
0000
,
0100
0000
0100
0100
,
0010
0000
0010
0000
,
0010
0000
0010
0010
,
1000
0100
1000
0000
,
0001
0100
0001
0000
,
0010
0001
0010
0000
,
0100
1000
0100
0000
,
1000
0000
0100
0000
,
0010
0000
0001
0000
,
0001
0000
0100
0000
,
0010
0000
1000
0000
;

//---------------dance-single - ----------------
#NOTES:
     dance-single:
     :
     Easy:
     2:
     0.232502,0.282216,0.045209,0.027125,0.000000,180.000000,175.000000,5.000000,3.000000,0.000000,0.000000,0.232502,0.282216,0.045209,0.027125,0.000000,180.000000,175.000000,5.000000,3.000000,0.000000,0.000000:
0000
0000
0000
0000
,
0000
0000
0000
0000
,
0000
0000
0000
0000
,
0000
0000
0000
0000
,
0000
0000
0000
0000
,
1000
1000
1000
0000
,
0001
0001
0001
0000
,
0010
0010
0100
0100
,
2000
0000
3002
0000
,
0103
0100
0100
0100
,
0010
0010
0010
0010
,
1000
1000
1000
1000
,
0001
0001
0001
0001
,
1000
0100
0010
0001
,
0001
0100
0010
1000
,
0100
0100
0010
0010
,
0001
1000
0001
0100
,
0010
0000
0010
0000
,
1000
0000
1000
0000
,
0001
0001
1000
1000
,
0010
0100
0001
0000
,
0100
0000
0100
0000
,
0001
0000
0001
0000
,
1000
1000
0001
0001
,
0010
0100
1000
0000
,
0001
0100
0001
0100
,
0010
0000
1000
0000
,
0100
1000
0100
1000
,
0010
0000
0100
0000
,
1000
0100
1000
0100
,
0010
0000
0001
0000
,
0010
0001
0010
0001
,
1000
0000
0000
0000
,
0001
0000
0001
0000
,
1000
0010
1000
0000
,
1000
0100
0010
0001
,
0100
0100
0100
0000
,
1000
0000
1000
0000
,
0001
0010
0001
0000
,
0001
0100
0010
1000
,
0200
0000
0000
0300
,
0010
0010
0001
0001
,
1000
1000
0010
0110
,
0100
0100
0010
0010
,
1000
1000
0001
1001
,
1000
0100
0010
0001
,
0100
0010
1000
1001
,
0001
0100
0010
1000
,
0100
0010
0100
0110
,
0010
0010
0001
0001
,
1000
0010
1000
0010
,
0100
0100
0010
0010
,
1000
0100
1000
0001
,
0100
0001
0100
0010
,
0100
0100
0010
0010
,
1000
0100
0010
0100
,
0010
0001
1000
1001
;

//---------------dance-single - ----------------
#NOTES:
     dance-single:
     :
     Medium:
     5:
     0.360379,0.384840,0.090418,0.153710,0.000000,279.000000,269.000000,10.000000,17.000000,0.000000,0.000000,0.360379,0.384840,0.090418,0.153710,0.000000,279.000000,269.000000,10.000000,17.000000,0.000000,0.000000:
0000
0000
0000
0000
,
0000
0000
0000
0000
,
0000
0000
0000
0000
,
0000
0000
0000
0000
,
0000
0000
0000
0000
,
1000
1000
0001
0001
,
1000
0100
0010
0002
,
1003
0010
1000
0010
0100
0001
0100
0001
,
0010
0010
0010
0110
,
0100
1000
0100
0000
0010
0001
0010
0000
,
0100
0010
0100
0000
1000
0001
1000
0000
,
0001
0100
0001
0000
0100
0010
0100
0000
,
0010
1000
0010
0000
1000
0001
1000
0000
,
0100
0010
0100
0000
1000
0100
1000
0000
,
0001
0100
0001
0000
0100
0010
0100
0000
,
0001
0010
0100
0000
1000
0010
0100
0000
,
0001
0100
0010
1000
0100
0010
0002
0000
,
1003
1000
0001
0001
,
0100
0010
1000
0100
,
0020
0032
2003
3002
,
0103
0010
0100
0010
0100
0000
0010
0000
,
0100
0100
0010
0010
,
1000
0100
0010
0001
,
2000
3002
0203
0320
,
1030
0001
1000
0001
2000
0000
3001
0000
,
0010
0001
0010
0000
0001
0100
0001
0000
,
1000
0010
1000
0000
0100
1000
0100
0000
,
0010
0001
1000
0000
0010
1000
0001
0000
,
0200
0000
0320
0000
,
1030
0100
1000
0000
0001
0010
0001
0000
,
0100
0001
0100
0000
0010
1000
0010
0000
,
1000
0100
0010
0000
0001
0100
0020
0000
,
0130
0000
0000
0000
,
0001
0100
0010
1000
,
0100
0000
0100
0000
0010
0001
0010
0000
,
0100
1000
0100
0000
1000
0000
0001
0000
,
0100
0100
0200
0300
,
0010
1000
0100
0010
,
0001
0000
1000
0000
0010
0100
0010
0000
,
0100
0001
0100
0000
0001
0010
0100
0000
,
2002
0000
0000
3003
,
1000
0100
0010
0000
0100
0010
0001
0000
,
1000
0001
0100
0000
0010
0000
0110
0000
,
0001
0100
0010
0000
0100
0010
1000
0000
,
0001
1000
0100
0000
0010
0000
0110
0000
,
1000
0010
0100
0000
0010
0100
0001
0000
,
0010
0100
1000
0000
0001
0000
1001
0000
,
0001
0010
0100
0000
0010
0100
1000
0000
,
0010
0100
0001
0000
1000
0000
1001
0000
,
0001
0010
0100
0000
0010
0100
1000
0000
,
0100
0010
0001
0010
0100
0000
0110
0000
,
1000
0010
0100
0000
0010
0100
0001
0000
,
1000
0010
0100
0010
1000
0000
1001
0000
,
1000
0100
0010
0000
0001
0100
0010
0000
,
1000
0100
0010
0001
0010
0000
0110
0000
,
0001
0100
0010
0000
1000
0100
0010
0000
,
0001
0100
0010
1000
0001
0000
1001
0000
;
